#TITLE:Blank Space;
#SUBTITLE:;
#ARTIST:Taylor Swift;
#TITLETRANSLIT:;
#SUBTITLETRANSLIT:;
#ARTISTTRANSLIT:;
#CREDIT:Grithokskulk;
#BANNER:Blank Space.png;
#BACKGROUND:Blank Space-bg.png;
#LYRICSPATH:;
#CDTITLE:grithokskulk.png;
#MUSIC:Blank Space.mp3;
#OFFSET:-5.094;
#SAMPLESTART:45.095;
#SAMPLELENGTH:15.000;
#SELECTABLE:YES;
#BPMS:0.000=96.000;
#STOPS:;
#BGCHANGES:;

//---------------dance-single - ----------------
#NOTES:
     dance-single:
     :
     Easy:
     2:
     0.120,0.128,0.000,0.035,0.000: // measure 1
0000
0100
0100
0100
,  // measure 2
0100
0000
0000
0000
,  // measure 3
0000
0010
0010
0010
,  // measure 4
0010
0000
0000
0000
,  // measure 5
1000
0000
0001
0000
,  // measure 6
1000
0000
0001
0000
,  // measure 7
0100
0000
0010
0000
,  // measure 8
1000
0000
0000
0000
,  // measure 9
0000
0100
0100
0100
,  // measure 10
0100
0000
0000
0000
,  // measure 11
0000
0010
0010
0010
,  // measure 12
0010
0000
0000
0000
,  // measure 13
0000
0001
0000
0100
,  // measure 14
0000
0001
0000
0100
,  // measure 15
0000
0001
0000
0100
,  // measure 16
0020
0000
0000
0000
,  // measure 17
0030
0100
0100
0000
,  // measure 18
0000
0010
1000
1000
,  // measure 19
0000
0000
0100
0000
0200
0000
0000
0300
,  // measure 20
0000
0010
0010
0010
,  // measure 21
0000
0001
0001
0001
,  // measure 22
0000
1000
1000
1000
,  // measure 23
1000
0000
0001
0000
,  // measure 24
0100
0000
0010
0000
,  // measure 25
1000
1000
1000
0000
,  // measure 26
0100
0100
0100
0000
,  // measure 27
0010
0010
0010
0000
,  // measure 28
0001
0001
0001
0000
,  // measure 29
0100
0000
0010
0000
,  // measure 30
0100
0000
0010
0000
,  // measure 31
1000
0000
0001
0000
,  // measure 32
0020
0000
0000
0000
0000
0000
0000
0030
0000
0000
0000
0000
0000
0000
0000
0000
;

//---------------dance-single - ----------------
#NOTES:
     dance-single:
     :
     Medium:
     6:
     0.362,0.312,0.233,0.047,0.076:
0000
1010
0101
0110
,
1001
0000
1000
0100
0100
0000
0010
0100
,
0100
0110
0011
0101
,
0110
0000
1000
0001
0001
0000
0100
0000
,
0001
0010
0010
0000
0100
0010
0010
0000
,
0001
1000
1000
0000
0100
1000
1000
0000
,
0010
0100
0100
0000
0001
0100
0200
0000
,
1000
0000
0010
0000
0301
0010
0100
0000
,
1000
0110
1010
0101
,
0011
0000
0100
0010
0001
0000
0100
0000
,
0010
1010
0101
0011
,
1100
0000
0001
0100
0010
1000
0010
0100
,
0001
0010
0010
0000
0100
0010
0010
0000
,
0001
0100
0100
0000
0010
0100
0100
0000
,
0001
1000
1000
0000
0100
1000
1000
0000
,
0001
0010
0001
0000
0100
0000
0010
0000
2000
0000
0000
0000
0001
3000
0000
0000
,
0000
0000
1000
0100
1000
0000
0100
0000
0010
0000
0001
0000
0000
0000
0100
0000
,
0100
0000
0010
0100
0010
0000
1000
0000
0100
0000
0100
0000
0100
0000
0010
0000
,
0000
0000
0001
0100
0001
0000
0100
0000
0010
0000
2000
0000
0000
0000
3000
0000
,
0000
0000
0100
1000
0100
0000
0010
0000
0100
0000
0100
0000
0100
0000
1000
0000
,
0000
0000
0001
0010
0001
0000
0010
0000
0001
0000
0100
0000
0100
0000
0010
0000
,
0000
1000
1000
0100
1000
0010
0010
0000
,
0000
0000
0100
0001
0100
0000
0001
0000
0010
0000
0010
0000
0100
0000
0100
0000
,
0000
1000
1001
0000
1001
0000
1001
0000
,
1001
0000
0001
0100
0001
0000
0100
0000
0010
0000
1000
0000
0000
0000
0000
0000
,
0000
0100
0100
0100
0010
0001
0001
0100
,
0000
0000
0010
1000
0010
0000
0100
0000
0010
0000
2000
0000
0000
0000
3000
0000
,
0000
0010
0100
1000
0010
0010
0010
0100
,
0000
0000
0100
1000
0100
0000
1000
0000
0010
0000
0100
0000
0001
0000
0010
0000
,
0000
0010
0010
0010
0100
1000
0010
0000
,
1000
0000
0000
1000
0001
0000
0010
0000
0000
0000
0010
0000
0100
0000
0000
0000
,
1000
0000
0000
1000
0001
0000
0000
0001
0000
0000
0000
0000
0000
0000
0000
0000
;

//---------------dance-single - ----------------
#NOTES:
     dance-single:
     :
     Hard:
     8:
     0.549,0.514,0.514,0.222,0.333:
0000
0000
0000
0000
1000
1000
0000
0000
0001
0001
0000
0000
0100
0100
0000
0000
,
0010
0010
0000
0000
1000
1000
0000
0100
1000
0000
0100
0000
0010
0000
0001
0000
,
0100
0000
0000
0000
0010
0010
0000
0000
1000
1000
0000
0000
0100
0100
0000
0000
,
0010
0010
0000
0000
0001
0100
0000
0100
0010
0000
1000
0000
0100
0000
0010
0000
,
0001
0000
0100
0000
0101
0000
0000
0000
0010
1000
0010
0000
1010
0000
0000
0000
,
1000
0000
0100
0000
1100
0000
0000
0000
0010
0001
0010
0000
0011
0000
0000
0000
,
0001
0000
0100
0000
0101
0000
0000
0000
0010
0100
0010
0000
0110
0000
1000
0000
,
0200
0000
0001
0000
1300
0100
1000
0010
,
0110
0000
0000
0000
1010
0010
0000
0000
0110
0100
0000
0000
0101
0001
0000
0000
,
0011
0010
0000
0000
0100
0100
0000
0100
1000
0000
0010
0000
0100
0000
0001
0000
,
0010
0000
0000
0000
0011
0010
0000
0000
0110
0100
0000
0000
1100
1000
0000
0000
,
1010
0010
0000
0000
0100
0100
0000
0010
1000
0000
0100
0000
0010
0000
0001
0000
,
0100
0000
0010
0000
0110
0000
0000
0000
1000
0100
1000
0000
1100
0000
0000
0000
,
0010
0000
0001
0000
0011
0000
0000
0000
0001
0100
0001
0000
0101
0000
0000
0000
,
0010
0000
0100
0000
0110
0000
0000
0000
1000
0100
1000
0000
1100
0000
0000
0000
,
1000
0100
0010
0001
0100
0000
0100
0000
0020
0000
1030
0000
0100
0002
0203
0300
,
1000
0000
1000
0010
0100
0001
0010
0100
0010
0000
0010
0000
0001
0000
0100
0000
,
0110
0000
1000
0010
1000
0100
0010
0000
0200
0000
0310
0000
0020
0000
0031
0000
,
0101
0000
0001
0100
0010
1000
0100
0010
0100
0000
1000
0000
0010
0000
0200
0000
,
0301
0000
0010
0001
0100
0000
0010
0000
2000
0000
3100
0000
0200
0000
0310
0000
,
0110
0000
0010
0001
0100
0000
0010
0000
2010
0000
3001
0000
0012
0000
1003
0000
,
0100
0000
1000
0010
0100
0000
0001
0000
0012
0000
1003
0000
2010
0000
3001
0000
,
1000
0000
0010
0100
0001
0000
0010
0000
0200
0000
1300
0000
2000
0000
3010
0000
,
0100
0001
0110
0001
0110
0001
0110
1100
,
1000
0000
0010
0100
0001
0000
0001
0010
0100
0000
1000
0000
0010
0100
0010
0000
,
1000
1100
0110
0011
0011
0110
1100
1100
,
1000
0000
0010
0100
0001
0000
0001
0010
0100
0000
0010
0000
0001
0000
0100
0010
,
0100
0000
0001
0010
0100
0000
1000
0000
1010
0000
0110
0000
0110
0000
0101
0000
,
1000
0000
0100
1000
0010
0000
0100
0000
0002
0000
0013
0000
0020
0000
0130
0000
,
1000
0000
0010
0100
0001
0000
0010
0000
0200
0000
1300
0000
0200
0000
0301
0000
,
0100
0000
0000
0100
0010
0000
0001
0000
0000
0000
0100
0000
0110
0000
0000
0000
,
0010
0000
0000
0010
1000
0000
0000
1000
0000
0000
0000
0000
0000
0000
0000
0000
;
