#TITLE:Bamboo on Bamboo;
#SUBTITLE:;
#ARTIST:samplingmasters MEGA;
#TITLETRANSLIT:;
#SUBTITLETRANSLIT:;
#ARTISTTRANSLIT:;
#CREDIT:Grithokskulk;
#BANNER:Bamboo on Bamboo.png;
#BACKGROUND:Bamboo on Bamboo-bg.png;
#LYRICSPATH:;
#CDTITLE:grithokskulk.png;
#MUSIC:Bamboo on Bamboo.mp3;
#OFFSET:-5.069;
#SAMPLESTART:9.835;
#SAMPLELENGTH:15.000;
#SELECTABLE:YES;
#BPMS:0.000=200.000;
#STOPS:;
#BGCHANGES:;

//---------------dance-single - ----------------
#NOTES:
     dance-single:
     :
     Easy:
     4:
     0.310,0.371,0.237,0.095,0.000: // measure 1
1000
0000
0100
0000
,  // measure 2
0010
0000
0100
0000
,  // measure 3
1000
0000
0001
0000
,  // measure 4
0100
0100
0100
0100
,  // measure 5
0020
0030
0100
0001
,  // measure 6
0010
0100
0010
0000
,  // measure 7
0001
0000
1001
0000
,  // measure 8
1000
0000
1001
0000
,  // measure 9
0002
0003
0100
0010
,  // measure 10
0100
0001
0010
0000
,  // measure 11
0100
0000
0110
0000
,  // measure 12
0010
0000
0110
0000
,  // measure 13
1000
1000
1000
1000
,  // measure 14
1000
1000
1000
0000
,  // measure 15
0001
0001
0001
0001
,  // measure 16
0001
0000
0000
0000
,  // measure 17
0100
0100
0100
0100
,  // measure 18
0100
0100
0100
0000
,  // measure 19
0010
0010
0010
0010
,  // measure 20
0010
0000
0000
0000
,  // measure 21
2000
3000
0001
0010
,  // measure 22
0100
0010
0001
0000
,  // measure 23
1000
0000
1001
0000
,  // measure 24
0001
0000
1001
0000
,  // measure 25
0200
0300
0010
0100
,  // measure 26
0001
0010
0100
0000
,  // measure 27
0010
0000
0110
0000
,  // measure 28
0100
0000
0110
0000
,  // measure 29
0001
0001
1000
1000
,  // measure 30
0001
1000
0001
0001
,  // measure 31
1000
0001
1000
1000
,  // measure 32
0002
0000
0000
0003
,  // measure 33
0100
0010
0100
0010
,  // measure 34
0100
0100
0010
0010
,  // measure 35
0100
0010
0100
0010
,  // measure 36
0100
0000
0000
0000
,  // measure 37
0001
0000
0000
0020
,  // measure 38
0000
0000
0030
0000
,  // measure 39
0100
0000
0000
0020
,  // measure 40
0000
0000
0030
0000
,  // measure 41
0001
0000
0000
2000
,  // measure 42
0000
0000
3000
0000
,  // measure 43
0010
0000
0000
0200
,  // measure 44
0000
0000
0300
0000
,  // measure 45
0010
0000
0000
2000
,  // measure 46
0000
0000
3000
0000
,  // measure 47
0001
0000
0000
0020
,  // measure 48
0000
0000
0030
0000
,  // measure 49
0001
0000
0000
0200
,  // measure 50
0000
0000
0300
0000
,  // measure 51
0010
0000
0010
0000
,  // measure 52
0100
0000
0110
0000
,  // measure 53
1000
0000
1001
0000
,  // measure 54
0001
0010
0001
0000
,  // measure 55
1001
0000
0100
0100
,  // measure 56
0010
0000
0110
0000
,  // measure 57
1000
0001
1000
0000
,  // measure 58
1001
0000
0000
0000
,  // measure 59
0010
0000
0110
0000
,  // measure 60
0100
0001
0010
0000
,  // measure 61
1001
0000
0001
1000
,  // measure 62
0100
0000
1010
0000
,  // measure 63
1000
0010
0100
0000
,  // measure 64
0110
0000
0001
0000
,  // measure 65
1000
0000
1000
0000
,  // measure 66
1000
0000
1000
0000
,  // measure 67
1000
1000
1000
1000
,  // measure 68
1000
0000
0001
0001
,  // measure 69
0000
0010
0010
0000
,  // measure 70
0100
0000
0010
0000
,  // measure 71
0100
0010
0001
0100
,  // measure 72
0010
0100
0001
1000
,  // measure 73
0100
0000
0110
0000
,  // measure 74
0010
0000
0110
0000
,  // measure 75
0100
1000
0010
0100
,  // measure 76
0001
0010
0001
0100
,  // measure 77
0010
0000
0110
0000
,  // measure 78
0001
0000
1001
0000
,  // measure 79
0110
0000
1001
0000
,  // measure 80
0010
0010
0100
0100
,  // measure 81
1001
0000
0110
0000
,  // measure 82
0001
0001
0010
0010
,  // measure 83
0110
0000
1001
0000
,  // measure 84
1000
1000
0100
0100
,  // measure 85
0110
0000
1001
0000
,  // measure 86
0001
0001
1000
1000
,  // measure 87
0001
0000
1000
0000
,  // measure 88
0001
0001
0000
0000
,  // measure 89
0100
0000
0010
0000
,  // measure 90
0100
0100
0000
0000
,  // measure 91
0001
0001
0000
1000
,  // measure 92
1000
0000
0100
0100
,  // measure 93
0010
0010
0100
0100
,  // measure 94
1000
1000
0001
0001
,  // measure 95
0101
0000
0000
0000
;

//---------------dance-single - ----------------
#NOTES:
     dance-single:
     :
     Medium:
     6:
     0.493,0.556,0.584,0.118,0.000:
0001
0010
0000
0010
,
0000
0010
0000
0010
,
1000
0010
0000
0010
,
0000
0010
0000
0010
,
0022
0000
0033
0000
0100
0001
0100
0000
,
0010
1000
0010
0000
1000
0000
0100
0000
,
1100
0000
0000
0001
0001
0000
0000
0100
,
0100
0000
0000
0010
0010
0000
0000
0000
,
0202
0000
0303
0000
1000
0100
1000
0000
,
0010
1000
0001
0010
,
0110
0000
0000
0010
0010
0000
0000
0001
,
0001
0000
0000
0100
0100
0000
0000
0000
,
1010
0101
1010
0100
,
0010
0001
0010
0100
,
0011
1100
0011
0100
,
0110
0000
0000
0000
,
1001
0110
1001
0100
,
0010
0100
0100
1000
,
1010
0101
1010
0001
,
0110
0000
0000
0000
,
0022
0000
0033
0000
1000
0001
1000
0000
,
0010
0100
0010
0000
1000
0000
0100
0000
,
1100
0000
0000
0001
0001
0000
0000
0100
,
0100
0000
0000
0010
0010
0000
0000
0000
,
0202
0000
0303
0000
1000
0100
1000
0000
,
0100
0010
0100
1000
,
1100
0000
0000
0001
0001
0000
0000
1000
,
1000
0010
0100
0010
,
1010
0101
1010
0101
,
1000
0100
0010
0100
,
1100
0011
1100
0011
,
1001
0000
0000
0000
,
1010
0101
1010
0101
,
1010
1000
0100
0010
,
1100
0011
1100
0011
,
1001
0000
0000
0000
,
0100
0100
0000
0010
0000
0100
0000
1000
,
0000
0010
0000
0100
0100
0000
0001
0000
,
0010
0010
0000
0001
0000
0100
0000
0001
,
0000
1000
0000
0100
0100
0000
0000
0000
,
1000
1000
0000
0010
0000
0100
0000
0010
,
0000
1000
0000
0001
0001
0000
0010
0000
,
0100
0100
0000
0010
0000
0001
0000
0100
,
0000
0010
0000
1000
2000
0000
0000
3000
,
0001
0001
0000
0010
0000
0100
0000
0010
,
0000
0001
0000
0100
0100
0000
0010
0000
,
0100
0100
0000
0001
0000
1000
0000
0100
,
0000
1000
0000
0010
0010
0000
0000
0000
,
1000
1000
0000
0001
0000
0010
0000
0100
,
0000
0010
0000
0001
0001
0000
0100
0000
,
0110
0000
0000
1001
0000
0000
0110
0000
,
0000
1001
0000
0000
0200
0000
0300
0000
,
0010
0000
0100
0100
0000
1000
0000
0000
,
0010
0000
0100
0000
0001
0000
1000
1000
,
0000
0001
0000
0000
0000
0000
0010
0000
,
0100
0000
0010
0010
0000
0100
0000
0000
,
0010
0000
0001
0000
0100
0000
0001
0001
,
0000
1000
0200
0000
0000
0000
0300
0000
,
0010
0000
0100
0100
0000
0010
0000
0000
,
0001
0000
1000
0000
0100
0000
1000
1000
,
0000
0010
0000
0000
0100
0000
0100
0000
,
0001
0000
0010
0010
0000
0001
0000
0000
,
0100
0000
0001
0000
1000
0000
0100
0100
,
0000
1000
0020
0000
0000
0000
0030
0000
,
0110
0000
0000
1001
0000
0000
0110
0000
,
0000
1001
0000
0000
0010
0000
0100
0000
,
0001
1000
0100
0010
,
0100
0000
0000
0100
0000
0000
0100
0000
,
0000
0010
0000
0000
0020
0000
0000
0000
,
0032
0000
2003
0000
,
3010
0100
0000
0001
0000
0010
0000
0100
,
0000
0010
0000
0001
0000
0100
0000
0010
,
0100
0100
0000
0001
0000
1000
1000
1000
,
0000
0100
0000
0010
0010
0000
0100
0000
,
1000
1000
0000
0010
0000
0100
0000
0001
,
0000
1000
0000
0100
0000
0010
0000
0100
,
0010
0010
0000
0100
0000
1000
1000
0000
,
0000
0010
0000
0100
0100
0000
0010
0000
,
0110
0000
0000
1001
0000
0000
0000
0000
,
1100
1100
0011
0011
,
1001
0000
0000
0110
0000
0000
0000
0000
,
1010
1010
0101
0101
,
1001
0000
0000
1100
0000
0000
0000
0000
,
0011
0011
0110
0110
,
0011
0000
0000
1001
0000
0000
0000
0000
,
0110
0110
1001
1001
,
0100
0000
0000
0010
0000
0000
0100
0000
,
0010
0000
0010
0000
0000
0100
0000
0100
,
1000
0000
0000
0001
0000
0000
1000
0000
,
0001
0000
0001
0000
0000
0100
0000
0100
,
0010
0000
0100
0100
0000
0000
0001
0000
,
0010
0100
0010
0001
,
1000
1000
1000
0000
0001
0001
0001
0000
,
0100
0010
0100
0000
0001
1000
0001
0000
,
1100
0000
0000
0000
;

//---------------dance-single - ----------------
#NOTES:
     dance-single:
     :
     Hard:
     9:
     0.760,0.705,0.876,0.465,0.051:
2100
0010
0000
0100
,
0000
0010
0000
0100
,
3002
0010
0000
0103
,
0010
0000
0010
0000
0100
0010
0100
0010
,
2100
0000
3001
0000
0100
0010
0100
0001
,
0010
0100
0020
0000
0031
0000
0100
0000
,
0001
0001
1001
0000
1000
1000
1100
0000
,
0100
0100
0110
0000
0010
0010
0110
0000
,
2100
0000
3001
0000
0100
1000
0100
0001
,
0010
0100
0020
0000
0031
0000
0100
0000
,
0010
0010
0110
0000
1000
1000
1001
0000
,
0010
0010
0001
0001
0100
0100
0010
0000
,
1010
0101
1010
0101
,
1010
0101
0101
1010
,
1100
0011
1100
0011
,
1001
0000
0000
0000
,
0110
1001
0110
1001
,
0110
1001
1001
0110
,
0011
1100
0011
1100
,
1001
0000
0000
0000
,
0102
0000
1003
0000
0100
0001
0100
1000
,
0010
0100
0002
0000
0013
0000
0100
0000
,
0010
0010
0011
0000
0001
0001
0101
0000
,
0100
0100
0110
0000
0010
0010
1010
0000
,
2000
0000
3100
0000
0001
0100
0010
0001
,
0100
1000
0200
0000
0310
0000
1000
0000
,
0100
0100
0110
0000
1000
1000
1100
0000
,
0001
0001
0100
0100
0010
0010
0100
0100
,
0101
1001
0101
1001
,
0101
1001
1001
0101
,
1001
1100
1001
1100
,
0110
0000
0000
0000
,
1010
0110
1010
0110
,
1010
0110
0110
1010
,
1001
0011
1001
0011
,
0101
0000
0000
0000
,
1000
2000
0000
0100
0000
3010
0001
0002
,
0000
0010
0000
0103
1000
0100
0010
0001
,
0100
0200
0000
1000
0000
0301
0010
0020
,
0000
1000
0000
0031
0110
0000
0000
0000
,
1000
2000
0000
0010
0000
3100
0001
0002
,
0000
0100
0000
0013
0100
0010
0001
0100
,
0010
0020
0000
1000
0000
0031
0100
0200
,
0000
0000
0000
0001
0000
0000
0000
0000
0000
1300
0000
0000
0010
0000
1000
0000
0100
0000
0010
0000
0001
0000
0100
0000
,
0110
0020
0000
1000
0000
0031
1010
2000
,
0000
0100
0000
3010
1000
0100
0010
0001
,
0011
0002
0000
0100
0000
0013
1100
0200
,
0000
0001
0000
1300
1010
0000
0000
0000
,
0101
0002
0000
0010
0000
0103
1001
2000
,
0000
0010
0000
3100
1100
0010
0100
1000
,
1010
0000
0010
0110
0000
0100
0101
0000
,
0001
0000
0000
1001
0000
0000
0000
0000
0000
1000
0000
0000
0100
0000
0010
0000
0100
0000
1000
0000
0010
0000
0100
0000
,
0001
0010
0100
0020
0000
0100
0130
0000
,
0010
0010
0010
0100
0010
0001
0100
0020
,
0000
0100
0230
0000
0001
0302
0000
1003
,
0100
0010
1000
0020
0000
0001
0031
0000
,
0100
0100
0100
0100
0010
0100
0001
0020
,
0000
0000
0130
0000
0220
0000
0000
0000
0330
0000
1000
0100
1000
0000
0010
0000
,
0100
1000
0100
0002
0000
0010
0013
0000
,
0100
0100
0100
0100
0010
0001
0100
0020
,
0000
0001
0032
0000
0010
0023
0000
1000
,
1030
0100
0001
0200
0000
0010
0310
0000
,
0001
0001
0001
0001
0100
0010
0100
0002
,
0000
1000
2003
0000
0100
3200
0000
0310
,
0110
0000
0000
1001
0000
0000
0110
0000
,
0000
1001
0000
0000
0100
0010
0100
0010
,
0100
0010
0100
0010
0100
0010
0100
0010
,
0100
0010
0000
0100
0010
0000
0100
0000
0100
0000
0100
0000
0001
1000
0000
0001
,
1000
0001
0001
0001
2000
0000
0000
0000
,
3200
0000
0320
0000
,
0130
0001
0000
0101
0000
0010
1000
0010
,
0000
0011
0000
0100
0010
0100
0001
0100
,
0110
0100
0000
0101
0000
1000
0100
0010
,
0000
0110
0000
0100
1000
0010
0100
0001
,
0010
0100
0000
0011
0000
0001
0100
0010
,
0000
0110
0000
0100
0001
1000
0100
0001
,
0100
0100
0000
1100
0000
1000
0010
0100
,
0000
0110
0000
1000
0001
0100
0001
1000
,
0220
0000
0330
2002
0000
0000
3003
0000
,
0100
0100
0010
0010
0001
0001
0100
0100
,
0220
0000
0330
2002
0000
0000
3003
0000
,
0010
0010
0001
0001
0100
0100
0010
0010
,
2020
0000
3030
0202
0000
0000
0303
0000
,
0010
0010
0100
0100
0010
0010
0001
0001
,
2002
0000
3003
0220
0000
0000
0330
0000
,
0011
1100
0011
1001
,
0110
0000
0001
0101
0000
1000
1100
0000
,
0001
0100
1000
0000
0000
1000
0100
0010
,
1000
0000
0100
0001
0000
0100
1000
0010
,
0100
0001
0010
0100
0000
0010
0010
0010
,
0001
0010
0100
1000
0000
0001
0010
0100
,
1000
0000
0001
0010
0100
1000
0100
0010
,
0100
1000
0010
0001
1000
0100
0001
0010
,
1000
0001
0100
1000
0010
0100
0001
0010
,
0110
0000
0000
0000
;
