#TITLE:BITTER CHOCOLATE STRIKER;
#SUBTITLE:;
#ARTIST:L.E.D.-G;
#TITLETRANSLIT:;
#SUBTITLETRANSLIT:;
#ARTISTTRANSLIT:;
#CREDIT:Grithokskulk;
#BANNER:BITTER CHOCOLATE STRIKER.png;
#BACKGROUND:BITTER CHOCOLATE STRIKER-bg.png;
#LYRICSPATH:;
#CDTITLE:beatmania IIDX.png;
#MUSIC:BITTER CHOCOLATE STRIKER.mp3;
#OFFSET:-6.251;
#SAMPLESTART:38.215;
#SAMPLELENGTH:15.000;
#SELECTABLE:YES;
#BPMS:0.000=165.000,184.000=82.500,200.000=165.000;
#STOPS:;
#BGCHANGES:;

//---------------dance-single - ----------------
#NOTES:
     dance-single:
     :
     Easy:
     4:
     0.314,0.419,0.150,0.150,0.000: // measure 1
2000
0000
0000
0000
,  // measure 2
0000
0000
0000
3000
,  // measure 3
0002
0000
0000
0003
,  // measure 4
0200
0000
0000
0300
,  // measure 5
0010
0010
0010
0010
,  // measure 6
0010
0010
1000
1000
,  // measure 7
0100
0100
0100
0100
,  // measure 8
1000
1000
1000
0000
,  // measure 9
0001
0001
0001
0001
,  // measure 10
0001
0001
0010
0010
,  // measure 11
0100
0100
0100
0100
,  // measure 12
0020
0000
0000
0030
,  // measure 13
0001
1000
0001
1000
,  // measure 14
0010
1000
0010
1000
,  // measure 15
0010
0100
0010
0100
,  // measure 16
0010
0000
1001
0000
,  // measure 17
0010
0010
0100
0100
,  // measure 18
0010
0010
0001
0001
,  // measure 19
1000
0010
1000
0001
,  // measure 20
1000
0100
0100
0100
,  // measure 21
0020
0000
0000
0000
,  // measure 22
0000
0200
0000
0330
,  // measure 23
0010
0001
0010
0010
,  // measure 24
0100
0010
0001
0100
,  // measure 25
0020
0030
0200
0300
,  // measure 26
0010
1000
1000
1000
,  // measure 27
0100
0010
0100
1000
,  // measure 28
0010
0100
0010
0100
,  // measure 29
0002
0003
0002
0003
,  // measure 30
0010
0100
0000
0100
,  // measure 31
0010
0000
1001
0000
,  // measure 32
0100
0000
1001
0000
,  // measure 33
0010
0010
0100
0100
,  // measure 34
1000
1000
1000
1000
,  // measure 35
0010
0000
0110
0000
,  // measure 36
0100
0000
0110
0000
,  // measure 37
0001
0001
0010
0010
,  // measure 38
0100
1000
0100
0100
,  // measure 39
0010
0100
1000
1000
,  // measure 40
0010
0100
0001
0001
,  // measure 41
0020
0030
0020
0030
,  // measure 42
0001
0100
0100
0100
,  // measure 43
0010
0100
0001
0100
,  // measure 44
0010
1000
0100
0010
,  // measure 45
0200
0300
0200
0300
,  // measure 46
0010
0001
0100
0000
,  // measure 47
1001
0000
0000
0000
,  // measure 48
0100
0000
0010
0000
,  // measure 49
1000
0100
0010
0001
,  // measure 50
0020
0030
0200
0300
,  // measure 51
1000
1000
1000
1000
,  // measure 52
0001
0001
0001
0001
,  // measure 53
0100
0000
0010
0000
,  // measure 54
0100
0100
0010
0010
,  // measure 55
1000
0100
1000
0100
,  // measure 56
0010
0001
0010
0001
,  // measure 57
0200
0300
0200
0300
,  // measure 58
0001
0001
1000
1000
,  // measure 59
0001
1000
1001
0000
,  // measure 60
0010
0100
0110
0000
,  // measure 61
0010
0010
0001
0001
,  // measure 62
1001
0000
0110
0000
,  // measure 63
2002
0000
0000
0000
,  // measure 64
0000
3003
0000
0000
,  // measure 65
1000
0100
0010
0100
,  // measure 66
1000
1000
0010
0010
,  // measure 67
0100
0010
1000
0001
,  // measure 68
0010
0001
0100
0000
,  // measure 69
0100
0010
0100
0001
,  // measure 70
0010
0010
0010
0010
,  // measure 71
0100
0110
0010
0110
,  // measure 72
1000
1001
0001
1001
,  // measure 73
1000
0010
0100
0100
,  // measure 74
0010
1000
0001
0010
,  // measure 75
0001
0100
0001
1000
,  // measure 76
0100
0000
0100
0000
,  // measure 77
0010
0100
1000
0010
,  // measure 78
0100
0100
0001
0001
,  // measure 79
1000
1001
0001
1001
,  // measure 80
0100
0110
0010
0110
,  // measure 81
1001
0000
0000
0000
;

//---------------dance-single - ----------------
#NOTES:
     dance-single:
     :
     Medium:
     6:
     0.439,0.599,0.584,0.142,0.195:
2000
0000
0000
0000
,
3020
0000
0000
0000
,
0230
0000
0000
0000
,
0320
0000
0000
0030
,
0000
0000
1000
0000
0000
1000
0000
0000
1000
0000
0000
1000
,
0000
0000
1000
0000
0000
1000
0000
0000
0100
0000
0000
0100
,
0000
0000
0010
0000
0000
0010
0000
0000
0010
0000
0000
0010
,
0000
0000
0100
0000
0000
0100
0000
0000
0100
0000
0000
0100
,
1000
0010
0100
0001
,
1000
0100
0010
0001
,
0100
0010
1000
0001
,
0020
0100
0200
0330
,
0010
0010
0001
0001
,
0100
0100
0010
0010
,
1000
0000
0000
1000
0000
0000
0100
0000
0100
1000
0000
0000
,
0100
0000
0000
0010
0000
0010
0000
0000
0000
0100
0000
0000
,
0010
0001
0100
0010
,
1000
0100
1000
0010
,
0100
0100
0001
0001
,
0010
0000
0100
0010
0000
0100
0010
0000
0000
0100
0000
0000
,
2002
0000
0000
0000
,
0000
3003
0000
0000
,
1000
0000
1000
0100
0000
0000
0010
0000
0000
0100
0000
0000
,
1000
0010
0010
0010
,
0210
0001
1000
0310
,
0002
0010
0010
0013
,
0100
0000
0000
0010
0000
0000
0001
0000
0001
0100
0000
0000
,
0001
1000
1000
0100
,
1200
0010
0001
0310
,
0011
0011
1100
0000
,
1001
0000
0000
0001
0000
0001
0100
0000
0000
0010
0000
0000
,
0100
0000
0000
0001
0000
0001
1000
0000
0000
0100
0000
0000
,
0010
0110
0100
1100
,
1010
1010
0101
0101
,
0010
0000
0000
0100
0000
0100
0010
0000
0000
0001
0000
0000
,
0100
0000
0000
0010
0000
0010
0100
0000
0000
0001
0000
0000
,
1001
1001
0110
0110
,
0011
0000
0000
0011
0000
0000
0100
0000
0100
0010
0000
0000
,
0100
0000
0000
1000
0000
1000
0010
0000
0000
0100
0000
0000
,
0010
0000
0000
1000
0000
1000
0001
0000
0000
0010
0000
0000
,
0011
0100
0010
0001
,
0100
0000
0010
0100
0000
0010
0100
0000
0010
0100
0000
0000
,
0001
0000
0000
1000
0000
1000
0100
0000
0000
0010
0000
0000
,
1100
0001
0100
0010
,
0101
1100
0101
0011
,
1010
0011
1010
0101
,
0210
0000
0000
0000
,
0302
0000
0023
0000
,
0230
0000
0000
0000
,
0320
0000
0032
0000
,
0103
0100
0010
0010
,
1000
1000
0100
0100
,
0110
0010
0001
0001
,
1001
1001
0110
0110
,
0001
0001
0010
0010
,
0100
0000
0000
0100
0000
0000
0010
0000
0000
0010
0000
0010
,
0001
0000
0000
0001
0000
0000
0100
0000
0000
0100
0000
0100
,
0010
0010
1010
1010
,
0011
1010
0011
1010
,
0101
1100
0101
1100
,
0011
1010
0101
1100
,
0001
0000
0001
0010
0000
0000
0110
0000
0110
0000
0110
0000
,
2002
0000
0000
0000
,
0000
3003
0000
0000
,
1001
0001
0100
0010
,
0100
0000
0000
0100
0000
0100
0010
0000
0010
1000
0000
0000
,
1100
0000
0000
0010
0000
0000
0100
0000
0000
1000
0000
1000
,
0001
0100
0110
0110
,
0101
0000
0000
0001
0000
0000
1000
0000
1000
0100
0000
0000
,
0010
0000
0000
0100
0000
0000
1000
0000
1000
0100
0000
0000
,
0110
0110
0011
0011
,
1100
1100
1010
1010
,
0010
0000
0010
0100
0000
0000
0001
0000
0000
0010
0000
0000
,
0100
0000
0100
0010
0000
0000
0010
0000
0010
0001
0000
0000
,
0011
0100
0010
0001
,
0000
0000
0000
0101
0000
0000
0000
0000
1000
0000
0000
1000
,
0100
0000
0000
0010
0000
0000
0100
0000
0000
1000
0000
1000
,
0010
0000
0000
0100
0000
0000
0001
0000
0001
0010
0000
0000
,
0011
0011
1100
1100
,
1010
0000
0000
1010
0000
0000
1001
0000
1001
0000
1001
0000
,
0110
0000
0000
0000
;

//---------------dance-single - ----------------
#NOTES:
     dance-single:
     :
     Hard:
     9:
     0.701,0.689,0.412,0.142,1.000:
2000
0000
0020
3000
,
0200
0030
2000
0300
,
0200
3000
0002
0300
,
0020
0000
0000
0033
0000
0100
0010
0000
0000
0110
0000
0000
,
0000
0000
0001
0100
0000
0001
0100
0000
0001
0100
0000
0001
,
0100
0000
0001
0100
0000
0001
0100
0000
0001
1000
0000
0001
,
1000
0000
0010
1000
0000
0010
1000
0000
0010
1000
0000
0010
,
1000
0000
0100
1000
0000
0100
1000
0000
0100
1000
0000
0100
,
0010
0000
0100
0010
0000
0100
0010
0000
0100
0010
0000
0100
,
0010
0000
0100
0010
0000
0100
0010
0000
0001
0010
0000
0001
,
0010
0000
0001
0100
0000
0001
0100
0000
0001
0100
0000
0001
,
0100
0000
0000
0110
0000
0000
0101
0000
0001
1000
0100
0010
,
0100
0000
0100
1000
0000
1000
0010
0000
0010
0100
0000
0100
,
1000
0000
1000
0100
0000
0100
0001
0000
0001
0010
0000
0010
,
0100
0000
0100
0010
0000
0010
0001
0000
0001
0100
0000
0100
,
0010
0000
0010
0100
0001
1000
0000
0000
0100
0010
0100
1000
,
0010
0000
0010
0100
0000
0100
0001
0000
0001
0010
0000
0010
,
1000
0000
1000
0010
0000
0010
0001
0000
0001
0100
0000
0100
,
0010
0000
0010
1000
0100
0010
0100
0000
0100
1000
0010
0001
,
0010
0000
0100
0010
0000
0100
0010
0000
0100
0001
0010
0100
,
2000
0000
0000
0000
,
0000
3002
0000
0000
,
0013
0000
0010
0100
0010
0001
0100
0000
0100
1000
0000
1000
,
0100
0000
0100
0010
1000
0100
0010
0000
0010
0100
0000
0100
,
1000
0000
1000
0010
0001
0010
0100
0001
0010
0100
0000
0010
,
0001
0000
0100
0001
0000
0100
0001
0000
0100
0001
0000
0100
,
0010
0000
0010
1000
0100
0010
0100
0000
0100
0001
0000
0001
,
0100
0000
0100
1000
0010
0100
0010
1000
0100
0010
0001
0010
,
0100
0000
0010
0001
0100
0010
0100
0000
0001
1000
0100
0010
,
0100
0000
1000
0010
0000
0110
0000
0000
0100
0001
0000
0001
,
1001
0000
0000
1000
0100
0010
0021
0000
0000
0130
0000
0000
,
0011
0000
0000
0001
0010
0100
2100
0000
0000
3010
0000
0000
,
0110
0000
0100
0001
0000
0001
0010
0000
0010
0100
0000
0100
,
0010
0000
0100
0010
0000
0100
0010
0000
0100
1000
0000
0010
,
0100
0000
0010
1000
0100
0010
0021
0000
0000
0130
0000
0000
,
1001
0000
0001
0100
0010
1000
2100
0000
0000
3010
0000
0000
,
0110
0000
0100
0001
0000
0001
0010
0000
0010
0100
0000
0010
,
0001
0000
0010
0001
0000
1000
0100
0000
1000
0100
0000
1000
,
0010
0000
0010
0100
0001
0010
0100
0000
0100
0010
0000
0010
,
0001
0000
0001
0100
0010
0100
0001
0000
0100
0001
0000
1000
,
0100
0000
0010
0100
1000
0010
0100
0010
1000
0100
0000
0010
,
0100
0000
1000
0100
0000
0001
0100
0000
1000
0100
0000
0010
,
0100
0000
0100
0010
0001
0100
1000
0000
1000
0100
0000
0100
,
0001
0000
0001
0010
0100
0010
0001
0000
0001
1000
0000
1000
,
0010
0000
0010
0100
0000
0100
0010
0000
0010
1000
0000
1000
,
0100
0001
0100
1000
0010
0001
0010
0100
0010
1000
0000
0100
,
0020
0000
0000
0000
,
0230
0000
2300
0000
,
3010
0000
0000
0010
0000
0000
0100
0000
0000
0001
0000
0000
0001
0000
0000
0010
0000
0000
0010
0000
0100
0010
0000
0000
,
0001
0000
0000
0001
0000
0000
0100
0000
0000
0100
0000
0000
0010
0000
0000
0010
0000
0000
1000
0000
1000
0100
0000
0000
,
0110
0110
0110
0110
,
0110
0000
0000
0110
0000
0000
0010
0001
0100
1000
0100
0010
,
1000
1010
1010
1010
,
0101
0000
0000
0011
0000
0000
0100
0000
0100
0010
0000
0010
,
0001
0000
0001
0100
0000
0010
0100
0000
1000
0100
0000
0001
,
0100
0000
1000
0100
0000
0001
0100
0010
1000
0100
0001
0100
,
0010
0000
0001
0010
0000
0100
0010
0000
1000
0010
0000
0100
,
0010
0000
0000
0011
0000
0000
1100
0000
1000
0010
0000
0010
,
0100
0000
0000
0101
0000
0000
1010
0000
1000
0100
0010
0100
,
1000
0000
0000
1010
0000
0000
0101
0000
0010
0100
0010
0001
,
0101
0011
1100
0110
,
0100
1000
0010
0100
1000
0100
0101
0000
1001
0000
0110
0000
,
2200
0000
0000
0000
,
3300
0002
0000
0000
,
0013
0000
0010
0100
0000
0100
0010
0000
0010
0001
0000
0001
,
0100
0000
0100
1000
0000
1000
0100
0010
1000
0100
0001
0100
,
0010
0000
0010
0001
0000
0001
0100
0000
0100
0010
0000
0010
,
1000
0100
0010
0100
0000
1000
0010
0100
0010
0001
0000
0010
,
0100
0000
0100
0001
0000
0001
0010
0000
0010
0100
0000
0100
,
0010
0000
0010
0001
0010
1000
0010
0001
0100
1000
0100
0010
,
0110
1001
1100
0011
,
0101
0000
0001
0100
0000
0000
0110
0000
0010
1000
0100
0010
,
0100
0000
0100
0010
0000
0010
0001
0000
0001
0100
0000
0100
,
1000
0000
1000
0100
0000
0100
0010
1000
0100
0001
0100
0010
,
0100
0000
0100
0010
0001
0100
1000
0000
1000
0100
0010
1000
,
0000
0000
0000
1100
0000
0000
0000
0000
0011
0000
0000
0001
,
0101
0000
0100
0010
0000
0010
1000
0000
1000
0100
0000
0100
,
0001
0100
1000
0100
0010
0100
1000
0010
0001
0010
1000
0100
,
0110
1100
0011
0101
,
1000
0010
0100
0010
1000
0000
1001
0000
1001
0000
0110
0000
,
0011
0000
0000
0000
;
