#TITLE:BELLS;
#SUBTITLE:;
#ARTIST:Rakuen no shuujin;
#TITLETRANSLIT:;
#SUBTITLETRANSLIT:;
#ARTISTTRANSLIT:;
#CREDIT:Grithokskulk;
#BANNER:BELLS.png;
#BACKGROUND:BELLS-bg.png;
#LYRICSPATH:;
#CDTITLE:GUITARFREAKS & drummania.png;
#MUSIC:BELLS.mp3;
#OFFSET:-4.037;
#SAMPLESTART:60.715;
#SAMPLELENGTH:15.000;
#SELECTABLE:YES;
#BPMS:0.000=186.000;
#STOPS:;
#BGCHANGES:;

//---------------dance-single - ----------------
#NOTES:
     dance-single:
     :
     Easy:
     3:
     0.268,0.327,0.130,0.130,0.000: // measure 1
1001
0000
0000
0000
,  // measure 2
0000
0000
0000
0000
,  // measure 3
0110
0000
0000
0000
,  // measure 4
0000
0000
0000
0000
,  // measure 5
0100
0000
0001
0000
,  // measure 6
0100
0000
0001
0000
,  // measure 7
1000
0000
0100
0000
,  // measure 8
1000
0000
0100
0000
,  // measure 9
0220
0000
0000
0000
,  // measure 10
0000
0000
0000
0330
,  // measure 11
0000
0100
0100
0100
,  // measure 12
0100
0100
0100
0000
,  // measure 13
0010
0200
0000
0000
,  // measure 14
0300
0000
1000
1000
,  // measure 15
0001
0000
0100
0000
,  // measure 16
0000
0000
0001
0001
,  // measure 17
1000
0000
0100
0000
,  // measure 18
1000
0000
0000
0000
,  // measure 19
0001
0001
0100
0100
,  // measure 20
0010
0010
0100
0001
,  // measure 21
1000
0002
0000
0000
,  // measure 22
0003
0000
0010
0010
,  // measure 23
0100
0010
0000
0000
,  // measure 24
0000
0000
0100
0100
,  // measure 25
1000
0100
0000
0000
,  // measure 26
1000
0000
0001
0000
,  // measure 27
1001
0000
1000
0000
,  // measure 28
0001
0000
1000
0000
,  // measure 29
0110
0000
0010
0000
,  // measure 30
0100
0000
0010
0000
,  // measure 31
0100
0100
0001
0001
,  // measure 32
0010
0000
0100
0000
,  // measure 33
0010
0010
0001
0001
,  // measure 34
0100
0000
0010
0000
,  // measure 35
0200
0000
0001
0000
,  // measure 36
0001
0000
0301
0000
,  // measure 37
2000
0000
0100
0000
,  // measure 38
0100
0000
3100
0000
,  // measure 39
0020
0000
0000
0000
,  // measure 40
0100
0000
0000
0000
,  // measure 41
0100
0000
0000
0000
,  // measure 42
0130
0000
0110
0000
,  // measure 43
0100
0001
0100
0000
,  // measure 44
0001
1000
0001
0000
,  // measure 45
1000
0100
1000
0000
,  // measure 46
0100
0000
0100
0000
,  // measure 47
0010
0100
0010
0000
,  // measure 48
0001
0000
0001
0000
,  // measure 49
2002
0000
0000
0000
,  // measure 50
3003
0000
1001
0000
,  // measure 51
0220
0000
0000
0000
,  // measure 52
0330
0000
0100
0000
,  // measure 53
0001
0010
0001
0000
,  // measure 54
1000
0000
0100
0000
,  // measure 55
0100
1000
0100
0000
,  // measure 56
1000
0000
1000
0000
,  // measure 57
0220
0000
0000
0000
,  // measure 58
0330
0000
0110
0000
,  // measure 59
2002
0000
0000
3003
,  // measure 60
0001
0001
0001
0000
,  // measure 61
1000
0100
1000
0000
,  // measure 62
0010
0001
0010
0000
,  // measure 63
0001
0100
0001
0000
,  // measure 64
1000
0100
1000
0000
,  // measure 65
0010
0100
0010
0000
,  // measure 66
1000
0001
1000
0000
,  // measure 67
0001
0010
0100
1000
,  // measure 68
0001
0010
0100
0000
,  // measure 69
0010
0001
0010
0000
,  // measure 70
0001
0000
0001
0000
,  // measure 71
0100
0010
0100
0000
,  // measure 72
0001
0000
0001
0000
,  // measure 73
1000
0100
1000
0100
,  // measure 74
1000
1000
1001
0000
,  // measure 75
0001
0100
0001
0100
,  // measure 76
0001
0001
1001
0000
,  // measure 77
1000
0100
0000
0100
,  // measure 78
0000
0100
0000
0100
,  // measure 79
0010
0100
0000
0100
,  // measure 80
0000
0100
0000
0100
,  // measure 81
1000
0001
0000
0010
,  // measure 82
0000
0100
0000
1000
,  // measure 83
1001
0000
0001
0000
,  // measure 84
0001
0100
0010
0000
;

//---------------dance-single - ----------------
#NOTES:
     dance-single:
     :
     Medium:
     6:
     0.457,0.584,0.235,0.244,0.000:
1000
0001
0000
0001
0000
1000
0000
0001
,
0000
1000
0000
0001
0000
1000
0000
0000
,
0010
0100
0000
0010
0000
0100
0000
0010
,
0000
0100
0000
0010
0000
0000
0000
0000
,
0100
0001
0000
0100
0000
0001
0000
1000
,
0000
0100
0000
1000
0000
0010
0000
0000
,
1000
0100
0000
0010
0000
0100
0000
1000
,
0000
0001
0000
0100
0000
0010
0000
0000
,
0220
0000
0000
0000
,
0000
0000
0000
0000
,
0330
1100
1100
1100
,
1100
1100
1100
1100
,
1000
0010
0200
0000
0000
0000
0000
0000
,
0300
0000
0000
0000
0001
0010
0001
0000
,
0010
0001
0022
0000
,
0000
0000
0033
0000
0001
0100
0001
0000
,
0100
0220
0000
0330
,
1000
0100
1000
0000
0001
0100
0001
0000
,
0010
0011
0011
0011
,
0011
0011
0011
0011
,
0001
0100
0020
0000
0000
0000
0100
0000
,
0130
0000
0000
0000
0001
1000
0001
0000
,
1000
0100
0010
0000
,
0100
1000
0010
0000
,
0100
0001
0100
0000
0010
1000
0010
0000
,
2000
0000
0002
3003
,
0210
0000
1000
0000
,
0001
0000
0010
0000
,
0302
0000
0010
0000
,
1000
0000
0103
0000
,
1000
0100
1000
0100
0000
1000
0010
1000
,
0000
0010
0100
0010
0000
0100
0001
0100
,
0001
0010
0001
0010
0000
0001
0010
0001
,
0010
0100
0010
0001
,
2001
0000
0100
0000
,
0010
0010
3200
0000
,
0320
0000
0100
0000
,
0001
0001
0130
0000
,
2000
0000
0010
0000
,
3002
0000
0010
0000
,
0203
0000
0010
0000
,
0301
1000
2002
3003
,
1000
0100
0010
0100
,
1000
0010
1000
0000
1001
0000
0000
0000
,
1000
0000
0100
0000
0010
0000
0100
1000
,
0000
0010
0000
0100
0000
0001
1000
0000
,
0001
0000
0010
0000
0100
0000
0010
0001
,
0000
0100
0000
0001
0000
1000
0100
0000
,
0020
0000
0100
0000
,
0130
0010
0100
0000
0110
0000
0000
0000
,
2001
0000
0001
0000
,
3001
1000
0001
0000
0100
0000
0010
0000
,
1000
0000
0001
0000
0010
0000
0001
1000
,
0000
0010
0000
0100
0000
0010
0100
0000
,
0001
0000
1000
0000
0100
0000
0010
0100
,
0000
1000
0000
0010
0000
0100
0010
0000
,
2010
0000
0001
0000
,
3010
0000
1001
0000
,
0220
0000
0000
0330
,
1000
0010
1000
0000
0001
0010
0001
0000
,
1000
0100
0000
1000
0100
0000
1000
0010
,
0000
1000
0010
0000
0100
0001
0000
0100
,
0001
0000
0010
0001
0000
0010
0100
0000
,
0010
0001
0000
0010
0100
0000
0010
0000
,
0001
0100
0000
0001
0010
0000
0001
0100
,
0000
0001
0010
0000
0001
0100
0001
0000
,
1000
0100
0010
0100
,
1000
0001
1000
0000
1001
0000
0000
0000
,
0010
0000
1000
0000
0100
0000
0010
0100
,
0000
0010
0000
0001
0000
0010
0001
0000
,
0100
0000
0010
0000
0100
0000
0001
0010
,
0000
0100
0000
0010
0000
0100
1000
0000
,
0020
0000
0100
0000
,
1000
1000
0230
0000
,
0302
0000
0010
0000
,
0100
0000
0100
0003
0001
0010
0001
0000
,
0010
0100
0000
0100
0000
0010
0000
0100
,
0000
0010
0000
0100
0000
0010
0000
0001
,
1000
0001
0000
1000
0000
0001
0000
1000
,
0000
0001
0000
1000
0000
0001
0000
0000
,
0100
0010
0000
0100
0000
0010
0000
0100
,
0000
0010
0000
0100
0000
0010
0000
0000
,
1000
0001
0000
1000
0000
0001
0000
0010
,
0000
0001
0000
1000
0000
0010
0100
0010
;

//---------------dance-single - ----------------
#NOTES:
     dance-single:
     :
     Hard:
     8:
     0.696,0.693,0.496,0.183,0.078:
1001
0110
0000
0010
0000
1000
0010
1000
,
0000
0001
0010
0001
0000
0100
0010
0100
,
1001
0100
0000
0010
0000
0100
1000
0010
,
0000
0000
0000
0100
0000
0000
0001
0000
0000
1000
0000
0000
0100
0000
0000
0000
0100
0000
0000
0000
0100
0000
0000
0000
,
0110
0010
0000
0001
0100
0001
0000
1000
,
0100
1000
0000
0010
0100
0010
1000
0000
,
1100
1000
0000
0010
0100
0010
0000
1000
,
0001
0000
0000
0010
0000
0000
0000
0000
0000
0001
0000
0000
0100
0000
0000
0000
0100
0000
0000
0000
0100
0000
0000
0000
,
0220
0000
0000
0000
,
0000
0000
0000
0330
,
0100
1000
0100
0010
0100
0001
0100
0010
,
0100
0001
0100
0010
0100
1000
0100
0010
,
0100
0001
0020
0000
0100
0000
1000
0000
,
0001
0000
0100
0000
0031
0001
0010
0100
,
2000
0010
0100
0010
,
0001
0000
3010
0000
0001
0001
0100
0010
,
0200
1000
0302
0010
,
2000
3003
1001
0000
,
0010
1000
0010
1000
0010
0100
0010
0100
,
0010
0001
0010
0001
0010
0100
0010
0100
,
0010
1000
0100
0000
0010
0010
0100
0000
,
1000
1000
0001
0000
0100
0100
0001
0010
,
0001
0100
0010
0000
0010
0100
0001
0000
,
0001
1000
0100
0000
0001
0100
1000
0010
,
0100
0001
0001
0000
0010
0001
0001
0000
,
0101
0001
1000
0000
1100
1000
0001
0000
,
0201
0001
0000
1000
0000
0010
0000
1000
,
0000
0010
0000
1000
0000
0010
0300
0000
,
0102
1000
0000
0010
0000
0100
0000
0010
,
0000
0100
0003
1000
0100
0010
0100
0000
,
1000
0000
0000
0000
1000
0000
0000
0000
1000
0000
0000
0000
0010
0000
0000
0100
0000
0000
0010
0000
0000
1000
0000
0000
,
0100
0000
0000
0000
0100
0000
0000
0000
0100
0000
0000
0000
0010
0000
0000
0100
0000
0000
1000
0000
0000
0010
0000
0000
,
1000
0000
1000
0000
1000
0000
0001
0000
0001
0000
0001
0000
,
0011
0000
0101
0000
0110
0000
1010
0000
1100
0000
1001
0000
,
0001
0010
0001
0000
0100
0000
0101
0000
,
0001
1000
0001
0000
1000
0000
1100
0000
,
1000
0010
1000
0000
0010
0000
0110
0000
,
0010
1000
0010
0000
1000
0000
1001
0000
,
0001
0010
0001
0000
1000
0010
1000
0000
,
0001
0100
0001
0000
1000
0100
1000
0000
,
0001
0010
0100
0000
0100
0010
0001
0000
,
0001
1000
0010
0100
0002
2000
3003
0000
,
1000
0100
0010
0100
1000
0010
0100
0001
,
0010
0000
0100
0000
0010
0000
2002
0000
0000
3003
0000
0000
,
1001
0000
1100
0000
0110
0000
0100
1000
,
0000
1000
0010
0100
0010
1000
0001
0000
,
0011
0000
0110
0000
1100
0000
1000
0001
,
0000
0001
0100
1000
0100
0001
0010
0100
,
0020
1000
0001
0100
,
0001
0000
0001
0000
0031
0010
0100
0000
,
0200
1000
0010
0000
0010
0000
1000
0000
,
0001
0000
0001
0000
0310
0100
0110
0000
,
0011
0000
0110
0000
1100
0000
1000
0001
,
0000
0001
0100
1000
0100
0001
0010
0000
,
0011
0000
1001
0000
1010
0000
1000
0010
,
0000
0010
0100
0010
1000
0100
0001
0100
,
2000
0010
0001
0010
,
0100
0000
0100
0000
3100
0010
0100
1000
,
0020
0001
1000
0001
,
0130
0001
0010
0100
0010
0010
0010
0001
,
1000
0010
0010
1000
0100
0100
1000
0010
,
0010
1000
0001
0001
1000
0100
0001
0100
,
0010
0001
0001
0010
0100
0100
0010
1000
,
1000
0010
0100
0100
0010
0001
0100
0010
,
0100
0001
0001
0100
0010
0010
0100
1000
,
1000
0100
0010
0010
0100
0001
0010
0100
,
1000
0001
0001
0100
0010
0010
1000
0001
,
2002
0000
0000
3003
,
1010
0000
0101
0000
0011
0000
0010
0100
,
0010
0001
0010
1000
0010
0001
0100
0000
,
0110
0000
1010
0000
0101
0000
1000
0100
,
0001
0100
0010
0100
1000
0100
0010
0100
,
2000
0010
0001
0010
,
3100
0010
0001
0000
0001
0100
0010
1000
,
0200
0010
1000
0010
,
1300
0010
0001
0010
0100
0100
0001
1000
,
1001
0100
0000
1000
0100
1000
0000
0010
,
0100
0010
0000
1000
0001
0010
0001
0000
,
0001
0100
0000
0010
0100
0010
0000
1000
,
0001
1000
0000
0001
0010
0100
1000
0010
,
0110
0001
0000
1001
0000
1100
0000
0110
,
0000
1100
0000
1010
0000
0110
0010
0000
,
0110
0001
0000
0011
0000
0110
0000
0011
,
0000
0110
0000
1100
0000
1010
0100
0001
;
