#TITLE:Attack on Dwarf;
#SUBTITLE:;
#ARTIST:unatra;
#TITLETRANSLIT:;
#SUBTITLETRANSLIT:;
#ARTISTTRANSLIT:;
#CREDIT:Grithokskulk;
#BANNER:Attack on Dwarf.png;
#BACKGROUND:Attack on Dwarf-bg.png;
#LYRICSPATH:;
#CDTITLE:SOUND VOLTEX.png;
#MUSIC:Attack on Dwarf.mp3;
#OFFSET:-8.438;
#SAMPLESTART:28.895;
#SAMPLELENGTH:15.000;
#SELECTABLE:YES;
#DISPLAYBPM:70.000;
#BPMS:0.000=140.000,48.000=70.000;
#STOPS:;
#BGCHANGES:;

//---------------dance-single - ----------------
#NOTES:
     dance-single:
     :
     Easy:
     2:
     0.159,0.172,0.000,0.208,0.000: // measure 1
0100
0000
0000
0100
,  // measure 2
1000
1000
1000
1000
,  // measure 3
0010
0000
0000
0010
,  // measure 4
0100
0100
0100
0100
,  // measure 5
0001
0000
0000
0001
,  // measure 6
0010
0010
0010
0010
,  // measure 7
0100
0000
0000
0100
,  // measure 8
0010
0010
0010
0010
,  // measure 9
0001
0000
0000
0001
,  // measure 10
1000
1000
1000
1000
,  // measure 11
0010
0000
0000
0010
,  // measure 12
0100
0100
0200
0300
,  // measure 13
0010
1000
0100
1000
,  // measure 14
0020
0030
0200
0300
,  // measure 15
0001
0010
0100
0010
,  // measure 16
0002
0003
2000
3000
,  // measure 17
0010
0100
0010
1000
,  // measure 18
0200
0300
0020
0030
,  // measure 19
0001
0100
0010
0100
,  // measure 20
0002
0003
2000
3000
,  // measure 21
0200
0000
0000
0300
,  // measure 22
0020
0000
0000
0030
,  // measure 23
0002
0000
0000
0003
,  // measure 24
0200
0000
0000
0300
,  // measure 25
0010
0010
0020
0030
,  // measure 26
1000
1000
2000
3000
,  // measure 27
0001
0001
0002
0003
,  // measure 28
0010
0010
0020
0030
,  // measure 29
0200
0010
0001
0300
,  // measure 30
0010
1000
0200
2300
,  // measure 31
3010
0100
0001
0100
,  // measure 32
0010
1000
0200
0300
,  // measure 33
0010
0001
0100
0001
,  // measure 34
0010
0100
2000
3002
,  // measure 35
0103
0010
1000
0100
,  // measure 36
1000
0010
0200
0000
,  // measure 37
0300
0000
0000
0000
;

//---------------dance-single - ----------------
#NOTES:
     dance-single:
     :
     Medium:
     5:
     0.333,0.312,0.260,0.407,0.000:
1000
0100
1000
0000
0010
0000
0100
0000
,
0110
0110
1001
1001
,
1000
0100
1000
0000
0001
0000
0010
0000
,
0110
0110
1001
1001
,
1000
0100
1000
0000
0001
0100
0001
0000
,
1010
1010
1100
1100
,
0001
0010
0001
0000
1000
0010
1000
0000
,
0110
0110
1001
1001
,
1000
0100
1000
0000
0001
0010
0001
0000
,
0101
0101
0110
0110
,
1000
0001
1000
0000
0001
0010
0001
0000
,
1100
0000
1100
0000
0001
1000
0001
0000
,
2000
0200
3300
0010
0002
0200
0303
0010
,
0100
0010
1000
1100
,
0002
2000
3003
0100
0020
0200
0330
1000
,
0010
0000
0100
0000
1001
0000
0100
0100
,
0020
0002
0033
0100
0002
2000
3003
1000
,
0100
0000
0010
0000
0001
0010
0100
1000
,
0020
0200
0330
1000
0002
0200
0303
0010
,
1000
0000
0100
1000
0010
0100
0110
0000
,
2000
0000
3200
0000
,
0320
0000
0000
0000
0230
0000
1300
1000
,
0020
0000
0230
0000
,
0320
0000
0000
0000
2030
0000
3001
0001
,
0020
0000
0130
1000
0002
0000
0103
0010
,
2000
0000
3100
1000
0020
0000
0130
0001
,
0020
0000
0031
0100
0002
0000
1003
0100
,
2000
0000
3100
0010
0100
1000
0001
1001
,
2000
0020
3030
0100
0002
2000
3003
0100
,
0010
0000
0100
0000
1000
0010
0100
0001
,
0020
0200
0330
0010
0002
0200
0303
0010
,
1000
0000
0100
1000
0001
0001
1000
1001
,
0200
0020
0330
1000
0002
0020
0033
0100
,
1000
0000
0010
0100
0001
1001
1000
1001
,
0002
0200
0303
0010
2000
0200
3300
1000
,
0001
0100
0010
0100
0001
0000
1000
0000
,
1001
0000
0000
0000
;

//---------------dance-single - ----------------
#NOTES:
     dance-single:
     :
     Hard:
     9:
     0.623,0.655,0.251,0.607,0.750:
1000
0100
1000
0000
0010
0000
0100
0000
0001
0000
0010
0000
0011
0000
0000
0000
,
1001
0000
0000
0000
1100
0000
0000
0000
1000
0010
0000
0010
0100
0000
0001
0000
,
0100
0010
0100
0000
0010
0000
1000
0000
0100
0000
0001
0000
0100
0000
1000
0000
,
1010
0000
0000
0000
0101
0000
0000
0000
0010
0100
0000
0100
0010
0000
0000
0000
,
1000
0100
1000
0000
0001
0000
0100
0000
0010
0000
1000
0000
0100
0000
0010
0000
,
0011
0000
0000
0000
1100
0000
0000
0000
1000
0010
0000
0010
0100
0000
0001
0000
,
0010
0100
0010
0000
0001
0000
0100
0000
1000
0000
0100
0000
0001
0000
1000
0000
,
1100
0000
0000
0000
0011
0000
0000
0000
0001
0100
0000
0100
0010
0000
0100
0000
,
0001
1000
0001
0000
1000
0000
0100
0000
0001
0000
0100
0000
1000
0000
0010
0000
,
1010
0000
0000
0000
0101
0000
0000
0000
0001
0010
0000
0010
0100
0000
1000
0000
,
0010
0100
0010
0000
1000
0000
0100
0000
0001
0000
0100
0000
1000
0000
0010
0000
,
0100
0000
0000
0100
0000
0000
0001
0000
0000
0001
0000
0000
1000
0000
0100
0000
0010
0000
0001
0000
0000
0000
0000
0000
,
2000
0000
0000
0000
3200
0000
0000
0000
0310
0100
0010
0100
0010
0100
0010
0000
0002
0000
0000
0000
0203
0000
0000
0000
0310
0000
0020
0000
0130
0000
0200
0000
,
0302
0000
0000
0000
0003
0000
1000
0000
0100
0000
0000
0010
0000
0100
0000
0000
1100
0000
0000
0000
0011
0000
0000
0000
0101
0000
0000
0000
0110
0000
0000
0000
,
2000
0000
0000
0000
3002
0000
0000
0000
1003
0001
1000
0001
1000
0001
1000
0001
0020
0000
0000
0000
0230
0000
0000
0000
1300
0000
2000
0000
3001
0000
0002
0000
,
0203
0000
0000
0000
0300
0000
0010
0000
0100
0000
0000
0001
0000
0010
0000
0000
1100
0000
0000
0000
0000
0000
1000
0000
1001
0000
0100
0000
0110
0000
0000
0000
,
2010
0000
0000
0000
3200
0000
0000
0000
0310
0001
0010
0001
0010
0001
0010
0001
0200
0000
0000
0000
0320
0000
0000
0000
1030
0000
2000
0000
3100
0000
0200
0000
,
0320
0000
0000
0000
0030
0000
0001
0000
0100
0000
0010
0100
0000
0001
0000
1000
0100
0000
0000
0000
0110
0000
0000
0000
0010
0000
0000
0000
0011
0000
0000
0000
,
0002
0000
0000
0000
2003
0000
0000
0000
3010
0100
0010
0100
0010
0100
0010
0100
0020
0000
0000
0000
2030
0000
0000
0000
3001
0000
0002
0000
0013
0000
0020
0000
,
0230
0000
0000
0000
0300
0000
0010
0000
0001
0000
0100
0001
0000
0100
0000
0010
1000
0000
0000
0000
0000
0000
0100
0000
1100
0000
1000
0000
1010
0000
0000
0000
,
0200
0000
0320
0000
,
2030
0000
0000
0000
3200
0000
0010
1000
,
0320
0000
0000
0000
0001
0000
0000
0001
0000
0001
0000
0000
0031
0000
0000
0000
0002
0000
0000
0000
0100
0000
0000
0100
0000
0100
0000
0000
0103
0000
0000
0000
,
0020
0000
0000
0000
0100
0000
0000
0100
0000
0100
0000
0000
0130
0000
0000
0000
0001
0000
0010
0000
0100
0000
1000
0000
0100
0000
0000
0000
0110
0000
0000
0000
,
0100
0000
1000
0100
1000
0000
0000
1000
0000
0020
0000
0000
0130
0000
0000
0000
0010
0000
0100
0001
0100
0000
0000
0001
0000
0020
0000
0000
0130
0000
0000
0000
,
0010
0000
0001
0100
0001
0000
0000
0100
0000
0020
0000
0000
0130
0000
0000
0000
0001
0000
1000
0100
1000
0000
0000
1000
0000
0010
0000
0100
0010
0000
0000
0000
,
1000
0000
0001
0100
0001
0000
0000
0010
0000
0200
0000
0000
0310
0000
0000
0000
0001
0000
0100
0001
0100
0000
0000
0010
0000
2000
0000
0000
3100
0000
0000
0000
,
1000
0000
0100
0010
0100
0000
0000
1000
0000
0020
0000
0000
0130
0000
0000
0000
0001
0010
0001
0000
1000
0010
1000
0000
0001
0000
1000
0000
1001
0000
0000
0000
,
2000
0000
0000
0000
3002
0000
0000
0000
0013
0001
0010
0001
0010
0001
0010
0001
0200
0000
0000
0000
0320
0000
0000
0000
1030
0000
2000
0000
3001
0000
0002
0000
,
0023
0000
0000
0000
0030
0000
0100
0000
1000
0000
0010
0100
0000
0010
0000
1000
0100
0000
0000
0000
0011
0000
0000
0000
1000
0000
0000
0000
1010
0000
0000
0000
,
0020
0000
0000
0000
0230
0000
0000
0000
0301
0010
0001
0010
0001
0010
0001
0010
0002
0000
0000
0000
2003
0000
0000
0000
3010
0000
0020
0000
0130
0000
0200
0000
,
0302
0000
0000
0000
0003
0000
1000
0000
0100
0000
0010
0100
0000
1000
0000
0010
0100
0000
0000
0000
0001
0000
1000
0000
0100
0000
0000
0000
1100
0000
0000
0000
,
0020
0000
0000
0000
0032
0000
0000
0000
0103
0010
0100
0010
0100
0010
0100
0010
2000
0000
0000
0000
3200
0000
0000
0000
1300
0000
2000
0000
3001
0000
0002
0000
,
0203
0000
0000
0000
0300
0000
0010
0000
0100
0000
0001
0010
0000
0001
0000
0100
0010
0000
0000
0000
1000
0000
0100
0000
0010
0000
0100
0000
1100
0000
0000
0000
,
0020
0000
0000
0000
0032
0000
0000
0000
0103
0010
0100
0010
0100
0010
0100
0010
2000
0000
0000
0000
3200
0000
0000
0000
0310
0000
0020
0000
0130
0000
2000
0000
,
3020
0000
0000
0000
0030
0000
0100
0000
0010
0000
0100
0001
0000
1000
0000
0100
0020
0000
0000
0000
0030
0000
0000
0100
1000
0100
1000
0100
1000
0100
1000
0100
,
0010
0000
0000
0000
;
