#TITLE:Agnus Dei;
#SUBTITLE:;
#ARTIST:Asaki;
#TITLETRANSLIT:;
#SUBTITLETRANSLIT:;
#ARTISTTRANSLIT:Asaki;
#CREDIT:;
#BANNER:Agnus Dei.png;
#BACKGROUND:Agnus Dei-bg.png;
#LYRICSPATH:;
#CDTITLE:GUITARFREAKS & drummania.png;
#MUSIC:Agnus Dei.mp3;
#OFFSET:-0.288;
#SAMPLESTART:71.754;
#SAMPLELENGTH:15.000;
#SELECTABLE:YES;
#DISPLAYBPM:70.000:168.000;
#BPMS:0.000=168.000,16.000=150.000,18.000=70.000,20.000=168.000,48.000=84.000,50.000=335.999,166.000=168.000,193.000=335.999,241.000=168.000,273.000=75.000,275.000=335.999,426.000=160.000;
#STOPS:426.000=1.280
;
#BGCHANGES:0.000=Agnus Dei.avi=1.000=1=1=0,
99999=-nosongbg-=1.000=0=0=0 // don't automatically add -songbackground-
;

//---------------dance-single - ----------------
#NOTES:
     dance-single:
     :
     Easy:
     4:
     0.283,0.459,0.018,0.009,0.000: // measure 1
0000
0000
0000
0000
,  // measure 2
0000
0000
0000
0000
,  // measure 3
0000
0000
0000
0000
,  // measure 4
0000
0000
0000
0000
,  // measure 5
0000
0000
0000
0000
,  // measure 6
1000
0000
0001
0001
,  // measure 7
0010
0000
0100
0000
,  // measure 8
0010
0000
0001
0100
,  // measure 9
0001
0000
1000
0000
,  // measure 10
0010
0000
0100
0000
,  // measure 11
0100
0000
0100
0010
,  // measure 12
0100
0000
0001
0000
,  // measure 13
2000
3000
0001
0000
,  // measure 14
0001
0000
0001
0000
,  // measure 15
0000
0000
0010
0000
,  // measure 16
0010
0000
0010
0000
,  // measure 17
0000
0000
0100
0000
,  // measure 18
0010
0000
0100
0000
,  // measure 19
0000
0000
1000
0000
,  // measure 20
1000
0000
0001
0000
,  // measure 21
0100
0000
0001
0000
,  // measure 22
0000
0000
0010
0000
,  // measure 23
0001
0000
0010
0000
,  // measure 24
0100
0000
0010
0000
,  // measure 25
0001
0000
0100
0000
,  // measure 26
0000
0000
0010
0000
,  // measure 27
0010
0000
0000
0000
,  // measure 28
0100
0000
0001
0000
,  // measure 29
1000
0000
0100
0000
,  // measure 30
0010
0000
0100
0000
,  // measure 31
1000
0000
0010
0000
,  // measure 32
0010
0000
0100
0000
,  // measure 33
0010
0000
0100
0000
,  // measure 34
0001
0000
1000
0000
,  // measure 35
0001
0000
0010
0000
,  // measure 36
0000
0000
0000
0000
,  // measure 37
0100
0000
0100
0000
,  // measure 38
0100
0000
0100
0000
,  // measure 39
0100
0000
0100
0000
,  // measure 40
0100
0000
0010
0000
,  // measure 41
0001
0000
0100
0000
,  // measure 42
0010
0000
0100
0000
,  // measure 43
0010
0100
0010
1000
,  // measure 44
0100
0010
0010
0100
,  // measure 45
1000
0001
0000
1000
,  // measure 46
0000
0001
0010
0001
,  // measure 47
0010
0001
0100
0001
,  // measure 48
0100
0010
0000
0100
,  // measure 49
0000
0001
0000
0001
,  // measure 50
0000
0001
0000
1000
,  // measure 51
0000
1000
0000
1000
,  // measure 52
0000
0100
0000
0100
,  // measure 53
0000
0100
0000
1000
,  // measure 54
0000
1000
0000
1000
,  // measure 55
0000
0010
0000
1000
,  // measure 56
0000
0001
0000
0100
,  // measure 57
0000
0001
0000
1000
,  // measure 58
0000
0100
0000
1000
,  // measure 59
0000
0010
0000
0100
,  // measure 60
0000
0000
0000
0000
,  // measure 61
0000
0001
0000
1000
,  // measure 62
0000
0100
0000
0010
,  // measure 63
0010
0100
1000
0000
,  // measure 64
1000
0100
0010
0100
,  // measure 65
1000
0010
0100
0000
,  // measure 66
0100
0001
0010
0001
,  // measure 67
1000
0010
0000
0010
,  // measure 68
0000
0100
0010
0000
,  // measure 69
0000
1001
0000
1000
,  // measure 70
0000
1000
0000
1000
,  // measure 71
0000
0100
0000
0100
,  // measure 72
0000
0100
0000
1000
,  // measure 73
0000
0010
0000
0100
,  // measure 74
0000
0001
0000
0000
,  // measure 75
0000
0001
0000
0010
,  // measure 76
0000
0010
0000
0010
,  // measure 77
0000
0100
0000
0010
,  // measure 78
0000
0100
0000
1000
,  // measure 79
0000
0100
0000
0010
,  // measure 80
0000
0001
0000
0000
,  // measure 81
0000
0000
0000
0001
,  // measure 82
0000
0001
0000
0001
,  // measure 83
0000
1000
0000
0010
,  // measure 84
0000
0100
0000
0010
,  // measure 85
0000
0010
0000
0010
,  // measure 86
0000
1000
0000
0100
,  // measure 87
0000
0010
0000
0001
,  // measure 88
0000
0001
0000
0001
,  // measure 89
0000
0010
0000
0001
,  // measure 90
0000
0100
0000
0010
,  // measure 91
0000
0100
0000
0001
,  // measure 92
0000
1000
0000
0100
,  // measure 93
0000
0010
0000
0100
,  // measure 94
0000
0100
0000
0100
,  // measure 95
0000
1000
0000
0010
,  // measure 96
0000
1000
0000
0010
,  // measure 97
0000
0010
0000
0010
,  // measure 98
0000
0100
0000
0001
,  // measure 99
0000
1000
0000
0100
,  // measure 100
0000
0100
0000
0100
,  // measure 101
0000
1000
0000
0001
,  // measure 102
0000
0010
0000
0001
,  // measure 103
0000
0100
0000
0010
,  // measure 104
0000
0100
0000
0001
,  // measure 105
0000
0010
0000
0001
,  // measure 106
0000
1000
0000
0010
,  // measure 107
0000
0100
0000
0010
,  // measure 108
0000
0000
0000
0000
,  // measure 109
0000
0100
0000
0000
,  // measure 110
0000
0000
0000
0000
,  // measure 111
0000
0000
0000
1001
;

//---------------dance-single - ----------------
#NOTES:
     dance-single:
     :
     Medium:
     7:
     0.475,0.663,0.295,0.175,0.000:
0000
0000
0000
0000
,
0000
0000
0000
0000
,
0000
0000
0000
0000
,
0000
0000
0000
0000
,
0000
0000
0000
0000
,
1001
0000
0000
0000
1000
0001
1000
0000
,
0200
0000
0320
0000
,
0130
0000
0000
1000
0000
0000
0010
0000
,
0110
0000
1001
0000
,
0011
0000
0001
0000
,
0100
0000
0010
0100
,
0001
0000
0000
0000
1000
0000
0100
0010
,
0200
0000
0000
0300
0010
0000
0100
0000
,
0010
0000
0010
0000
,
0001
0000
0100
0010
,
0100
0000
0001
1000
,
0001
0000
1000
0100
,
1000
0000
0010
0000
,
0100
0000
0010
0010
,
0010
0010
0100
0000
,
0001
0000
0010
0001
,
0010
0000
0001
0000
,
0100
0010
0100
0000
,
0001
1000
0001
1000
,
0001
1000
0200
0000
,
0300
0000
0010
0100
,
2000
0000
3000
0000
,
0001
0100
0001
0100
,
0001
0010
0001
0010
,
0100
0010
0100
1000
,
0010
0000
1010
0000
,
0101
0000
0011
0000
,
1100
0000
0001
1000
,
0001
0000
0020
0000
,
0000
0000
0000
0000
,
0000
0000
0030
0000
,
0100
0010
0100
0000
,
1000
0001
1000
0000
,
0001
0100
0001
0000
,
0010
0001
0010
0000
,
0100
1000
0010
0000
,
0100
0001
0010
0100
,
0010
0000
0001
0000
0100
0010
0100
0001
,
0100
0010
1000
0000
0100
0000
1000
0100
,
0010
0001
0100
0000
0010
0010
0000
0000
,
0000
0000
0001
0100
0001
0100
0010
0100
,
0010
0100
0001
0100
0001
0100
0010
0000
,
0100
0000
0001
0000
1000
0001
0000
0000
,
0000
1000
0100
0010
,
0100
1000
0000
0001
,
0100
0010
0100
0001
,
0000
0010
0100
0001
,
0100
0010
0000
0100
,
1000
0010
1000
0100
,
0000
1100
0000
1010
,
0000
0101
0000
0011
,
0000
1001
0000
0110
,
0000
1001
0000
1100
,
0000
0011
0000
2002
,
0000
0000
0000
3003
,
0000
0200
0010
0001
,
1000
0010
0310
1000
,
0000
1000
0100
1000
0100
0000
0010
0000
,
0001
0000
0100
0001
0100
0000
0010
0000
,
0100
0000
0001
0010
0001
0000
1000
0010
,
1000
0000
0001
0100
0001
0000
1000
0100
,
1000
0110
0000
1001
,
0000
0002
2000
0000
,
0000
0000
0000
0000
0000
3003
1000
0000
,
0000
0100
1000
0100
,
0000
0010
0100
0010
,
0000
0001
0000
0100
,
0010
0100
0010
0100
,
0000
2002
0000
3003
,
0000
1000
0000
1100
,
0000
0010
0000
0100
,
0000
1100
0000
0011
,
0000
0101
0000
0110
,
0000
0101
0000
1001
,
0000
0220
0000
0000
,
0000
0330
0000
1000
,
0100
1000
0100
1000
,
0000
0001
0100
0001
,
0100
0001
0000
0010
,
0100
0010
0100
0010
,
0000
1000
0100
0010
,
0001
1000
0100
0010
,
0100
0010
0100
0010
,
0000
1000
0100
1000
,
0100
1000
0000
0010
,
0100
0010
0000
0100
,
0001
0100
0001
0010
,
0001
0010
0000
0001
,
0010
0100
1000
0100
,
0000
1000
0100
0010
,
0001
0100
0000
0001
,
0100
0010
1000
0010
,
0000
1000
0010
0100
,
0001
1000
0000
0001
,
1000
0001
0000
0010
,
0000
0001
0100
0001
,
0000
1000
0000
0100
,
1000
0100
1000
0010
,
0000
0100
0001
0100
,
0001
0010
0000
0001
,
0000
0100
0000
0010
,
0000
1000
0100
0220
,
0000
0000
0000
0000
,
0330
2002
0000
0000
,
0000
0000
0000
0000
,
3003
0000
0000
0110
;

//---------------dance-single - ----------------
#NOTES:
     dance-single:
     :
     Hard:
     10:
     0.744,1.000,0.617,0.157,0.124:
0000
0000
0000
0000
,
0000
0000
0000
0000
0010
0000
0000
0010
,
0000
0000
0000
0000
0010
0000
0000
0000
0000
0000
0000
0000
1000
0001
1000
0000
,
0000
0000
0000
0000
0000
0000
0000
0000
0100
1000
0100
0000
0000
0000
0000
0000
,
1002
0000
0000
0103
,
0110
0000
0000
0000
0000
0000
0000
0000
0001
0010
0001
0100
0001
0000
0010
0000
,
0100
0000
0110
0000
,
1001
0000
0001
0100
0001
0000
1001
0000
1000
0100
1000
0000
1000
0010
0100
0010
,
2000
0000
0002
3003
,
1001
0000
0000
0000
0000
0000
0000
0000
0110
0000
0100
1000
0100
0000
1100
0000
,
1000
0010
1000
0000
0110
0000
0010
0100
0010
0000
0101
0000
0001
0010
0001
0000
,
0100
0000
0000
0000
0010
0000
1000
0100
,
0020
0000
0130
1000
,
0010
0100
0010
1000
,
0100
0010
0100
1000
,
0010
0100
0010
1000
,
0100
0001
0100
1000
,
0010
0100
0001
0010
,
0100
0010
0110
0110
,
0110
0110
0010
0001
,
0100
1000
0100
0010
,
1000
0100
0010
0100
,
1000
0010
0200
0000
,
0301
0010
0001
0100
,
0010
1000
0002
0000
,
0003
0000
0000
0000
1000
0100
1000
0010
,
0200
0000
0300
0000
,
0010
0100
1000
0010
,
0100
0010
1000
0100
,
0001
0100
1000
0010
,
0100
0001
0102
0000
,
1003
0000
1100
0000
,
1001
0000
0010
0001
,
0100
0000
0010
0100
,
0001
0100
0020
0100
,
0200
0000
0330
0000
,
0100
0001
0100
0000
0001
1000
0001
0000
,
0010
0001
0010
0000
0100
1000
0100
0000
,
1000
0010
1000
0000
0001
0100
0001
0000
,
0010
0001
0010
0000
0100
1000
0100
0000
,
1000
0010
1000
0000
0001
0010
0100
0010
,
0001
0000
0000
0000
0000
0000
0000
0000
1001
0000
0000
1000
0001
0000
0000
0000
,
0010
0000
0001
0000
0100
0000
0010
0100
0010
0000
0100
0000
0001
0000
0010
0000
,
0100
0000
0010
0000
0011
0000
0000
0000
1100
0000
0000
0000
1000
0010
0100
0010
,
1000
0010
0100
0000
0001
0000
0000
0000
0011
0000
2100
0000
0000
0000
0001
0000
,
0010
3001
0010
0100
0010
0001
0010
1000
,
0010
0001
0010
0100
0010
0001
0010
1000
,
0010
0001
0010
0000
0110
1001
0000
1000
,
0100
0010
0100
0000
1000
0000
0100
0000
,
0010
0100
1000
0100
,
0001
0100
1000
0100
,
0010
0100
1000
0010
,
0100
0001
0010
1000
,
0010
0001
0100
0010
,
0100
0000
0001
0100
0001
0000
1000
0100
,
1000
0000
0001
0010
0001
0000
1000
0010
,
1000
0000
0010
0100
0010
0000
1000
0001
,
1000
0000
0100
0010
0100
0000
0010
0001
,
0010
0000
0001
0000
0100
0010
2000
0000
,
0001
0001
0001
0001
,
3001
0000
0000
0000
1001
0000
0000
0001
0100
0000
0000
0100
0010
0000
0000
0010
,
0100
0000
0000
0100
0001
0000
0010
0000
0100
0000
0010
0000
0011
0000
0000
1100
,
0000
1001
0100
0010
1001
0000
1000
0100
,
0001
0100
1000
0010
0100
0010
1000
0010
,
0001
0000
0010
0000
0100
0000
0001
0000
0011
0000
0000
0000
1000
0001
1000
0000
,
0100
0010
0100
1000
0010
0100
1000
0100
,
0001
0010
0110
0000
1000
0001
0101
0000
,
0010
0000
0000
1000
0000
0000
1010
0000
0000
0000
0000
0000
1001
0000
0000
0000
0000
0000
0010
0000
0001
0000
0100
0000
,
1000
0100
0001
0020
0000
0000
0000
0000
0000
0130
0000
0000
,
0000
1000
0010
0100
,
0000
0010
1000
0001
,
0010
1000
0010
0001
,
0100
0010
0100
0001
,
1000
0000
0100
0010
0100
0010
0100
0010
,
0100
0010
0100
0000
1000
0000
1010
0000
,
0000
0100
0001
0010
,
0001
0011
0000
0101
,
0000
0110
0000
0101
,
0000
1001
0000
1100
,
0000
0010
0100
1000
,
0010
0110
0000
0100
,
0001
0010
1000
0010
,
0001
0100
0010
1000
,
0100
0001
0100
1000
,
0010
0100
0001
0010
,
0100
1000
0100
0010
,
0001
1000
0100
0010
,
1000
0010
0001
0100
,
1000
0100
0001
0010
,
0100
0010
0001
0100
,
0010
1000
0100
0010
,
0001
0011
0000
0100
,
1000
0100
0000
1100
,
1000
1010
0010
0110
,
0000
0101
0001
0011
,
0010
0110
0000
1001
,
0001
0101
0100
0110
,
0010
1010
1000
1100
,
0100
0110
0010
0011
,
0001
0101
0100
0101
,
0000
1001
1000
1100
,
0100
0110
0000
0110
,
0100
1100
1000
1010
,
0010
0100
0001
0010
,
1000
0010
0001
1000
,
0100
0010
0001
0010
,
0100
1000
0010
0220
,
0000
0000
0000
0000
,
0330
2002
0000
0000
,
0000
0000
0000
0000
,
3003
0000
0000
1010
;
