#TITLE:Acid Pumper;
#SUBTITLE:;
#ARTIST:ni-21;
#TITLETRANSLIT:;
#SUBTITLETRANSLIT:;
#ARTISTTRANSLIT:;
#CREDIT:Grithokskulk;
#BANNER:Acid Pumper.png;
#BACKGROUND:Acid Pumper-bg.png;
#LYRICSPATH:;
#CDTITLE:beatmania IIDX.png;
#MUSIC:Acid Pumper.mp3;
#OFFSET:-5.882;
#SAMPLESTART:77.880;
#SAMPLELENGTH:15.000;
#SELECTABLE:YES;
#BPMS:0.000=150.000;
#STOPS:;
#BGCHANGES:;

//---------------dance-single - ----------------
#NOTES:
     dance-single:
     :
     Easy:
     4:
     0.253,0.364,0.114,0.343,0.000: // measure 1
1000
0000
1001
0000
,  // measure 2
0002
0000
0000
0003
,  // measure 3
0020
0000
0000
0030
,  // measure 4
0002
0000
0000
0003
,  // measure 5
0200
0000
0000
0300
,  // measure 6
0010
0100
0100
0100
,  // measure 7
0001
0100
0100
0100
,  // measure 8
1000
0100
0100
0100
,  // measure 9
0010
0100
0100
0100
,  // measure 10
0010
0001
0001
0001
,  // measure 11
0100
0001
0001
0001
,  // measure 12
1000
0001
0001
0001
,  // measure 13
0010
0001
0001
0001
,  // measure 14
1001
0000
1000
1000
,  // measure 15
1000
0100
0100
0010
,  // measure 16
0110
0000
0100
0100
,  // measure 17
0100
0010
0010
0100
,  // measure 18
1001
0000
0110
0000
,  // measure 19
1001
1001
0110
0110
,  // measure 20
1000
0100
0010
0001
,  // measure 21
0200
0000
0300
0000
,  // measure 22
0020
0000
0000
0030
,  // measure 23
0200
0000
0000
0300
,  // measure 24
0002
0000
0000
0003
,  // measure 25
0200
0000
0000
0300
,  // measure 26
0020
0000
0000
0030
,  // measure 27
2000
0000
0000
3000
,  // measure 28
0002
0000
0000
0003
,  // measure 29
2002
0000
3003
0000
,  // measure 30
0020
0000
0000
0030
,  // measure 31
0200
0000
0000
0300
,  // measure 32
2000
0000
0000
3000
,  // measure 33
0200
0000
0000
0300
,  // measure 34
2000
0000
0000
3000
,  // measure 35
0002
0000
0000
0003
,  // measure 36
0020
0000
0000
0030
,  // measure 37
0000
0000
0000
0000
,  // measure 38
0100
0100
0100
0000
,  // measure 39
0010
0010
0010
0000
,  // measure 40
0001
0001
0001
0000
,  // measure 41
0100
0100
0100
0000
,  // measure 42
0010
0010
0010
0000
,  // measure 43
0100
0100
0100
0000
,  // measure 44
0001
0000
1000
0000
,  // measure 45
0200
0300
0020
0030
,  // measure 46
0002
0000
0003
0001
,  // measure 47
0200
0000
0300
0100
,  // measure 48
0020
0000
0030
0010
,  // measure 49
0200
0300
0002
0003
,  // measure 50
0020
0000
0030
0100
,  // measure 51
0200
0000
0300
0010
,  // measure 52
0020
0000
0030
0001
,  // measure 53
0002
0003
2000
3000
,  // measure 54
2002
0000
3003
0001
,  // measure 55
0200
0000
0300
0100
,  // measure 56
0020
0000
0030
0010
,  // measure 57
0100
0100
0010
0000
,  // measure 58
0002
0003
2000
3000
,  // measure 59
0100
0100
0100
0100
,  // measure 60
0020
0000
0000
0030
,  // measure 61
0220
0000
0330
0000
,  // measure 62
0001
0010
0100
1000
,  // measure 63
0001
0010
0100
0000
,  // measure 64
0010
0001
0100
0010
,  // measure 65
1000
0001
0100
0000
,  // measure 66
1000
0100
0010
0100
,  // measure 67
1000
0010
0100
0001
,  // measure 68
1000
1000
0001
0001
,  // measure 69
1001
0000
0110
0000
;

//---------------dance-single - ----------------
#NOTES:
     dance-single:
     :
     Medium:
     6:
     0.468,0.478,0.376,0.703,0.000:
1000
0100
1000
0000
0002
0000
0003
0000
,
0210
0000
0302
0000
,
0023
0000
0032
0000
,
0203
0000
0320
0000
,
0230
0000
0001
0300
,
0110
0000
1000
1000
1000
0000
0100
0000
,
1100
0000
0001
0001
0001
0000
0010
0000
,
0011
0000
0001
0001
0001
0000
0100
0000
,
0110
0000
0010
0010
0010
0000
1000
0000
,
1001
0000
0001
0001
0001
0000
0010
0000
,
0110
0000
0010
0010
0010
0000
0001
0000
,
0101
0000
0100
0100
0100
0000
0010
0000
,
1010
0000
0100
0100
0100
0000
1000
0000
,
1001
0000
0000
0000
0001
1000
0001
1000
,
0001
0000
0100
0100
0000
0010
0010
0000
,
0110
0000
0000
0000
1000
0100
1000
0100
,
1000
0000
0100
0100
0000
0010
0010
0000
,
0110
0000
1001
0000
,
0110
1001
0110
1001
,
0100
0010
0100
0010
0100
0000
0010
0000
,
2000
0000
3001
0000
,
0002
0000
0000
0000
,
2003
0000
0000
0000
,
3020
0000
0000
0000
,
2030
0000
0000
0000
,
3002
0023
0230
0320
,
0032
0203
0320
0000
,
0230
0302
2003
3200
,
0320
0000
0200
0330
,
2000
3020
0230
0320
,
2030
3002
0023
0030
,
0002
0203
0320
0230
,
0302
2003
3200
0300
,
2000
3200
0320
0230
,
0320
0032
0203
0300
,
0002
2003
3200
0320
,
0030
0000
0000
0000
,
0100
0100
0100
0100
0100
0000
0000
0000
,
0010
0010
0010
0010
0010
0000
0000
0000
,
0001
0001
0001
0001
0001
0000
0000
0000
,
1000
1000
1000
1000
1000
0000
0000
0000
,
0010
0010
0010
0010
0010
0000
0000
0000
,
1000
1000
1000
1000
1000
0000
0000
0000
,
0001
1000
0001
0000
0010
0000
0001
0000
,
0022
0033
2200
3300
,
0002
0000
0103
0001
0100
0000
0110
0000
,
1001
0000
1000
0100
1000
0000
1100
0000
,
0110
0000
0100
1000
0100
0000
0110
0000
,
0011
0000
1001
0000
,
0110
0000
1000
0001
1000
0000
1100
0000
,
0011
0000
0100
0010
0100
0000
0110
0000
,
1001
0000
1000
0100
1000
0000
1001
0000
,
0220
0330
2002
3003
,
0011
0000
0001
0100
0001
0000
0110
0000
,
1001
0000
1000
0100
1000
0000
0110
0000
,
1001
0000
0010
0001
0010
0000
0011
0000
,
1100
1100
0022
0033
,
1001
0000
0100
0010
0100
0000
0001
1000
,
0001
0000
0010
0000
0100
0100
0100
0100
,
0010
0100
0010
0000
0002
0000
1003
0000
,
2002
0000
3003
0000
,
2000
3200
0320
0230
,
2300
3020
0230
0300
,
0002
0023
0230
0320
,
0230
2300
3020
0030
,
0200
0302
0023
0032
,
0203
0320
0230
0300
,
0001
1000
0001
1000
0010
0100
0010
0100
,
0001
0000
1000
0100
1000
0000
0101
0000
;

//---------------dance-single - ----------------
#NOTES:
     dance-single:
     :
     Hard:
     9:
     0.635,0.761,0.433,0.883,0.258:
1000
0000
0000
1000
0100
0000
0010
0000
0200
0000
0000
0000
0310
0000
0000
0000
,
0200
0000
2000
0300
,
0020
3000
0200
0030
,
2000
0300
0200
3000
,
0002
0300
0020
0033
,
0011
0000
0001
0100
0001
0100
0010
0000
,
0110
0000
1000
0100
1000
0100
0010
0000
,
0110
0000
1000
0001
1000
0001
0100
0000
,
0101
0000
0001
0010
0001
0010
0001
0000
,
0101
0000
0100
0010
0100
0010
0100
0000
,
0101
0000
1000
0001
1000
0001
1000
0000
,
1100
0000
0010
0100
0010
0100
0010
0000
,
1100
0000
0010
0100
0010
0100
0010
0000
,
0102
0000
1003
0100
0010
0010
0010
0100
,
1000
0000
0001
0002
0103
0010
0020
0130
,
0102
0000
1003
0000
0100
0100
0100
0100
,
0010
0000
0100
0200
1300
0010
0020
0130
,
0102
0000
1003
0100
2100
0000
3010
0001
,
0011
1010
0101
1010
,
1000
0000
0100
0000
0010
0000
0001
0000
1000
0000
0100
0000
0010
0100
0010
0100
,
1000
0000
0000
0000
0010
0000
0100
0000
0010
0000
1000
0100
0000
0000
0000
0000
,
0012
0000
0000
0000
,
2000
0000
0000
0003
,
0200
0000
0000
3000
,
0020
0000
0000
0330
,
0200
2300
3020
0230
,
0320
0000
0000
0000
2030
0000
0000
0000
3002
0000
0000
0020
0003
0000
0230
0000
,
0020
0300
0000
0000
0032
0000
0000
0000
0203
0000
0000
0000
2300
0000
0000
0000
,
3200
0000
0000
0000
0000
0000
0000
0000
0020
0000
0000
0000
0000
0330
0000
0000
,
2000
0000
0000
0000
3200
0000
0000
0000
0002
0300
0000
0000
0203
0000
0000
0000
,
0320
0000
0000
0000
0032
0000
0000
0000
0203
0000
0000
2300
0000
0000
3200
0000
,
0320
2030
3200
0320
,
2030
0000
0000
0000
3020
0000
0000
0000
0032
0000
0000
0200
0003
0000
0320
0000
,
0230
0302
0023
2030
,
3002
0000
0000
0000
0203
0000
0000
0000
2300
0000
0000
0020
3000
0000
0230
0000
,
0320
2030
3200
0320
,
0031
0000
0010
0100
0010
0000
0001
0000
0100
0000
0000
0000
0000
0000
0000
0000
,
0110
0000
0010
0000
0110
0000
0010
0000
0110
0000
0000
0110
0000
0000
0110
0000
,
1001
0000
1000
0000
1001
0000
1000
0000
1001
0000
0000
1001
0000
0000
1001
0000
,
0011
0000
0001
0000
0011
0000
0001
0000
0011
0000
0000
0011
0000
0000
0011
0000
,
0110
0000
0100
0000
0110
0000
0100
0000
0110
0000
0000
0110
0000
0000
0110
0000
,
1001
0000
1000
0000
1001
0000
1000
0000
1001
0000
0000
1001
0000
0000
1001
0000
,
1010
0000
0010
0000
1010
0000
0010
0000
1010
0000
0000
1010
0000
0000
1010
0000
,
0200
0010
0310
0100
0002
0000
1003
0100
,
0020
0000
0100
0100
0200
0000
0330
0000
,
0011
0000
0000
0010
0001
0000
0000
0001
0100
0000
0000
0100
0010
0000
0100
0000
,
0001
0000
0000
0001
1000
0000
0000
1000
0100
0000
0000
0100
0010
0000
0100
0000
,
1000
0000
0000
1000
0010
0000
0000
0010
0100
0000
0000
0100
0001
0000
0010
0000
,
0001
0000
0000
0001
0100
0000
0000
0010
1000
0000
0000
0001
0010
0000
0000
0100
,
1000
0000
0000
1000
0010
0000
0000
0010
0100
0000
0000
0100
0010
0000
1000
0000
,
0100
0000
0000
0100
0010
0000
0000
0010
0100
0000
0000
0100
1000
0000
0010
0000
,
0100
0000
0000
0100
0001
0000
0001
0000
0010
0000
0000
0010
0001
0000
0100
0000
,
0020
0000
0200
0330
,
0002
0000
0000
0103
0010
0000
0000
0010
1000
0000
0000
1000
0100
0000
0010
0000
,
0100
0000
0000
0100
1000
0000
0000
1000
0001
0000
0000
0001
0100
0000
1000
0000
,
0200
0000
0000
0310
1000
0000
0000
1000
0100
0000
0000
0100
0001
0000
0100
0000
,
0110
0110
2002
3003
,
1000
0000
0000
1000
0100
0000
0000
0000
1000
0000
0000
1000
0010
0000
0000
0000
,
1010
0000
0000
0000
0101
0000
0000
0000
0001
0000
0010
0000
0100
0010
0100
0010
,
0002
0100
0103
0000
0020
0000
0001
0000
,
2030
0000
0002
3003
,
2000
0000
0000
0000
3200
0000
0000
0000
0302
0000
0000
0000
0200
0003
0000
0000
,
0320
0000
0000
0000
0032
0000
0000
0000
2003
0000
0000
3020
0000
0000
0032
0000
,
2003
3200
0320
2030
,
3200
0000
0000
0300
0002
0000
0000
0000
2003
0000
0000
0020
3000
0000
0032
0000
,
2003
3020
0230
0302
,
0023
0000
0000
0000
0032
0000
0000
0000
2003
0000
0000
3200
0000
0000
0320
0000
,
0130
1000
0100
1000
0100
1000
0100
1000
0001
0100
0001
0100
0001
0100
0001
0100
,
0010
0000
0000
0100
0001
0000
0010
0000
0100
0000
0010
0000
0001
1000
0001
1000
;
