#TITLE:ASTRAL VOYAGE;
#SUBTITLE:;
#ARTIST:EeL;
#TITLETRANSLIT:;
#SUBTITLETRANSLIT:;
#ARTISTTRANSLIT:;
#CREDIT:Grithokskulk;
#BANNER:ASTRAL VOYAGE.png;
#BACKGROUND:ASTRAL VOYAGE-bg.png;
#LYRICSPATH:;
#CDTITLE:beatmania IIDX.png;
#MUSIC:ASTRAL VOYAGE.mp3;
#OFFSET:-0.045;
#SAMPLESTART:42.755;
#SAMPLELENGTH:15.000;
#SELECTABLE:YES;
#BPMS:0.000=136.000;
#STOPS:;
#BGCHANGES:;

//---------------dance-single - ----------------
#NOTES:
     dance-single:
     :
     Easy:
     3:
     0.213,0.225,0.000,0.217,0.000:
0000
0002
0000
0000
,
0000
0000
0000
0000
,
0003
2000
0000
0000
,
0000
0000
0000
0000
,
3000
0001
0000
1000
,
0000
0001
0000
1000
,
0000
0001
1000
0001
,
1000
0001
1000
0001
,
1000
0001
0000
1000
,
0000
0001
0000
1000
,
0000
0001
0000
1000
,
0000
0001
0000
1000
,
0000
0001
0100
1000
,
0000
0001
0010
1000
,
0000
0001
0010
1000
,
0000
0001
0100
1000
,
0000
0001
0000
1000
,
0000
0001
0000
1000
,
0000
0001
0000
1000
,
0000
0001
0000
1000
,
0000
0001
0010
1000
,
0010
0001
0100
1000
,
0100
0001
0001
1000
,
1000
0001
0001
1000
,
1000
0010
0100
0001
,
0010
0100
0010
0001
,
0000
1000
0010
0100
,
0010
1000
0100
1000
,
0000
0001
0100
0010
,
0100
0001
0001
0010
,
0010
0200
0300
0200
,
0300
0200
0000
0000
,
0300
0100
1000
0010
,
1000
0100
0010
0001
,
0000
0100
0001
1000
,
0100
1000
0010
0100
,
0000
0010
1000
0100
,
1000
0001
0001
0100
,
0100
0020
0030
0020
,
0030
0020
0000
0000
,
0030
0100
0001
0000
,
0001
0000
0010
0000
,
0010
0100
0000
0010
,
0000
0001
0100
0001
,
0000
1000
0000
0100
,
0000
1000
0010
1000
,
0000
0010
0000
0100
,
0000
0001
1000
0001
,
0000
0010
0000
0100
,
0000
0010
0001
0010
,
0000
0001
0000
1000
,
0000
0010
1000
0010
,
0000
1000
0000
0100
,
0000
0010
0100
0010
,
0000
0002
0003
0002
,
0003
2000
3000
0002
,
0003
0020
0030
0200
,
0300
0020
0030
0002
,
0003
0200
0300
0020
,
0030
0200
0300
0002
,
0003
2000
3000
0200
,
0300
0020
0030
0200
,
0300
2000
3000
0020
,
0030
0200
0300
0002
,
0003
0010
0000
0000
;

//---------------dance-single - ----------------
#NOTES:
     dance-single:
     :
     Medium:
     5:
     0.418,0.424,0.210,0.722,0.000:
0000
2000
0100
0010
,
0001
0100
0010
0100
,
0001
3200
0001
0010
,
1000
0010
1000
0010
,
1300
0002
0003
2000
,
3000
0002
0003
2000
,
3000
0002
2003
3002
,
2003
3002
2003
3002
,
2003
3001
0010
0100
,
0010
0000
0001
0100
0010
0000
0100
0001
,
1000
0000
0100
0000
1000
0000
0010
1000
,
0100
0000
0010
0001
0100
0000
0010
0100
,
0010
0000
1000
0000
1001
0000
0001
0010
,
0100
0000
0010
0000
0011
0000
0001
0100
,
0010
0000
1000
0000
1100
0000
1000
0010
,
0100
0000
0010
0000
1010
0000
0001
0010
,
0100
0010
0001
0100
,
0100
0000
0010
0100
0001
0000
1000
0100
,
0010
0100
1000
0010
,
0010
0000
0100
0001
0100
0000
0001
1000
,
0001
0000
1000
0000
1100
0000
0001
0010
,
0100
0000
0010
0000
0011
0000
0001
0100
,
0010
2000
3002
2003
,
3002
2003
3002
2003
,
3002
0023
0032
0203
,
0320
0000
0130
0001
0000
0020
0000
0000
,
0030
0200
0320
0032
,
0203
0000
0320
0000
1030
0002
0000
0000
,
0003
2000
3200
0320
,
0230
0000
1300
0020
0000
0230
0000
0302
,
0000
2003
0000
0000
0000
0002
0000
0003
,
0002
0000
0000
0000
,
3003
0200
0320
2030
,
3200
0000
0310
0100
0000
2000
0000
0000
,
3000
0002
0203
0320
,
0230
0000
0302
0000
0013
0200
0000
0000
,
0300
0020
0032
0203
,
0320
0000
0130
0001
0000
0010
0000
0100
,
0000
0020
0000
0000
0000
0200
0000
0300
,
0200
0000
0000
0000
,
0330
0000
0001
0010
0001
0000
1000
0010
,
1000
0001
0010
0100
,
0010
0011
0011
0110
,
0110
2200
3300
2200
,
3300
0000
1010
0000
0001
0000
0100
0010
,
0100
0000
0001
0010
0001
0000
1000
0100
,
1000
1010
1010
0101
,
0101
0220
0330
0220
,
0330
0000
0001
1000
0001
0000
0010
0000
,
0100
0000
0010
0001
0010
0000
1000
0100
,
1000
1010
1010
0110
,
0110
0202
0303
0202
,
0303
0000
0010
0001
0010
0000
0100
0000
,
0110
0000
0100
0010
0100
0000
0010
0000
,
0011
0002
0003
0002
,
1003
2000
3001
0002
,
0103
0200
0310
0020
,
1030
2000
3100
0200
,
0301
0002
0103
0200
,
0310
0020
0031
0002
,
1003
2000
3010
0020
,
0130
0200
0301
0002
,
1003
2000
3100
0200
,
0310
0020
0130
0200
,
1300
1000
0000
0000
;

//---------------dance-single - ----------------
#NOTES:
     dance-single:
     :
     Hard:
     6:
     0.487,0.449,0.582,0.380,0.000: // measure 1
0000
2000
3200
0320
,  // measure 2
0230
2300
3020
2030
,  // measure 3
3200
0320
0032
0203
,  // measure 4
0320
0230
0302
0023
,  // measure 5
0230
0311
0000
1100
,  // measure 6
0000
0101
0000
1010
,  // measure 7
0000
0011
1100
0101
,  // measure 8
1010
0011
1100
0101
,  // measure 9
1010
0101
0010
0100
,  // measure 10
0010
0000
0001
0100
0000
0100
1000
0000
,  // measure 11
0100
0000
0010
1000
0100
0000
0010
0001
,  // measure 12
0000
0100
0010
0000
0100
0000
0001
1000
,  // measure 13
0100
0000
0010
0001
0100
0000
0010
0000
,  // measure 14
0110
0000
0001
1000
0100
0000
0010
0000
,  // measure 15
1100
0000
1000
0001
0010
0000
0001
1000
,  // measure 16
0010
0000
0100
0001
0010
0100
0010
0000
,  // measure 17
0011
1100
0000
1010
,  // measure 18
0000
0101
0000
0011
,  // measure 19
0000
1001
0000
0110
,  // measure 20
0000
0101
0000
1010
,  // measure 21
0000
0000
1000
0100
0010
0000
0100
1000
,  // measure 22
0100
0000
0010
0001
0100
0000
0010
0100
,  // measure 23
0010
0102
1003
2100
,  // measure 24
0001
3000
0102
0000
1003
0000
2010
0000
,  // measure 25
3001
0011
1100
1010
,  // measure 26
0101
0000
1000
0010
0100
0001
0010
0010
,  // measure 27
0110
0011
1100
1010
,  // measure 28
0101
0000
1000
0010
0001
0010
0100
0100
,  // measure 29
0101
1010
1100
0011
,  // measure 30
0101
0000
0001
0100
1000
0100
0010
1000
,  // measure 31
0100
0000
0020
0100
0130
0000
0200
0010
,  // measure 32
0310
0000
0020
0001
0031
0100
0010
0000
,  // measure 33
0110
0101
1010
1100
,  // measure 34
0010
0001
1000
0010
0001
0010
0100
0100
,  // measure 35
0110
0101
1001
1100
,  // measure 36
1001
0000
0100
0010
1000
0100
0010
0010
,  // measure 37
0110
1100
0011
0101
,  // measure 38
1010
0000
1000
0010
0001
0010
1000
0100
,  // measure 39
0001
0100
0020
0000
0001
0031
0200
0000
,  // measure 40
0010
0310
0100
0001
0010
0100
1000
0010
,  // measure 41
0100
0000
0001
0010
0100
0000
0100
0010
,  // measure 42
0001
0000
1000
0010
0001
0010
1000
0100
,  // measure 43
0010
0100
2000
0000
0010
0000
0001
0000
,  // measure 44
3100
0020
1000
0001
,  // measure 45
0130
0000
0010
0001
0100
0000
0010
0100
,  // measure 46
0010
0000
1000
0001
0010
1000
0010
0001
,  // measure 47
0100
1000
0200
0000
1000
0000
0010
0000
,  // measure 48
0001
0000
0310
0010
0010
0000
1000
1000
,  // measure 49
1000
0000
0001
0010
0100
0000
0010
0100
,  // measure 50
0010
0000
0100
0010
0001
0100
1000
0100
,  // measure 51
0010
1000
0200
0000
0001
0000
0010
0000
,  // measure 52
1300
0020
0001
1000
,  // measure 53
0130
0000
0001
0010
0100
0000
0010
0001
,  // measure 54
0010
0000
0001
0100
0010
1000
0100
0010
,  // measure 55
0100
2200
3300
2100
,  // measure 56
3001
0102
1003
2010
,  // measure 57
3001
0012
0103
2010
,  // measure 58
3100
0012
0103
2001
,  // measure 59
3100
0012
0103
0210
,  // measure 60
0301
2001
3100
0012
,  // measure 61
0103
2010
3001
0210
,  // measure 62
0301
0012
1003
2100
,  // measure 63
3001
0210
1300
0012
,  // measure 64
0103
0000
0010
1000
0100
0010
0100
1000
,  // measure 65
0001
0101
0000
0000
;

//---------------dance-single - ----------------
#NOTES:
     dance-single:
     :
     Challenge:
     9:
     0.724,0.748,0.264,0.544,0.610:
0000
2000
3020
0032
,
0023
0230
0302
0023
,
0230
0302
0203
2300
,
3020
0230
0302
0023
,
0130
0000
0021
0031
0000
0000
0102
0103
,
0000
0000
0210
0310
0000
0000
1020
1030
,
0000
0000
2001
3001
0012
0013
0120
0130
,
0210
0310
0021
0031
1002
1003
2010
3010
,
0120
0000
0130
0000
0101
0000
1000
0100
0000
0000
0010
0000
0110
0000
0100
1000
,
0000
0000
0010
0000
0110
0000
0100
0001
0000
0000
0010
0000
0110
0000
0010
0001
,
0000
0000
0100
0000
0110
0000
0010
0100
0000
0000
0001
0000
1001
0000
1000
0100
,
0000
0000
0010
0000
0110
0000
0100
1000
0000
0000
0010
0000
0110
0000
0010
1000
,
0000
0000
0001
0000
0010
0000
0100
0010
0000
0010
0001
0100
0010
0000
1000
0001
,
0000
0001
0010
0100
0010
0000
0100
0010
0000
0010
0001
0100
0010
0000
1000
0010
,
0000
0010
0100
0010
1000
0000
0100
1000
0000
1000
0010
0100
0010
0000
1000
0100
,
0000
0100
0001
0100
0010
0000
0010
0001
0000
0001
0100
0010
0100
0000
0001
1000
,
0000
1000
0010
0100
0010
0000
0010
1000
0000
0000
0100
0000
0110
0000
0010
0001
,
0000
0000
0100
0000
0110
0000
0100
0001
0000
0000
0001
0000
0011
0000
0010
0100
,
0000
0000
0010
0000
0011
0000
0001
0100
0000
0000
0010
0000
0110
0000
0100
0010
,
0000
0000
1000
0000
1100
0000
0100
0010
0000
0000
0100
0000
1100
0000
1000
0010
,
0000
0000
0010
0000
0110
0000
0100
0001
0000
0010
0100
0010
0001
0000
0100
0010
,
0000
1000
0010
0100
0010
0000
1000
0100
0000
0001
0100
1000
0010
0000
0100
0010
,
0000
1000
0010
0001
0020
0000
0000
0000
0230
0000
0000
0000
0302
0000
0000
0000
,
0023
0000
0000
0000
0130
0000
0200
0000
0310
0000
0020
0000
0031
0010
0001
0010
,
0001
0100
0001
0100
0010
0000
0100
0001
0010
0100
0010
0000
0001
0000
0100
0010
,
1000
0010
0100
0000
0010
0000
1000
0100
0010
0100
1000
0000
0010
0000
0010
0000
,
0100
0000
0100
0000
0001
0000
1000
0100
0010
0100
1000
0000
0010
0000
0100
0001
,
0010
0100
0010
0000
0001
0000
0100
1000
0100
0010
1000
0000
0100
0000
0100
0000
,
0010
0000
0010
0000
0100
0000
1000
0010
0100
0010
1000
0000
0001
0000
0010
0100
,
0010
0001
0100
0000
0010
0000
0001
0000
0010
0000
1000
0000
0100
0000
0001
0000
,
0100
0000
1000
0000
0010
0000
0100
0001
0000
0010
0100
0000
1000
0000
0010
0100
,
0000
0010
1000
0000
0001
0000
0010
0100
0000
0010
0001
0000
1000
0000
1000
0000
,
0001
0000
0001
0000
0100
0000
0010
0100
0001
0010
0100
0000
0010
0000
0001
0100
,
1000
0100
0010
0000
1000
0000
0100
0001
0100
1000
0010
0000
0100
0000
0100
0000
,
0010
0000
0010
0000
1000
0000
0001
0010
0001
0100
0010
0000
0100
0000
0001
1000
,
0100
1000
0010
0000
0100
0000
0010
1000
0100
0010
0100
0000
1000
0000
1000
0000
,
0001
0000
0001
0000
0100
0000
0010
0100
0001
0010
0100
0000
0010
0000
0001
1000
,
0010
0100
0010
0000
1000
0000
0100
0000
0001
0000
0100
0000
1000
0000
0010
0000
,
0001
0000
0010
0000
1000
0000
0100
0010
0000
0100
1000
0000
0001
0000
0100
1000
,
0000
0100
0010
0000
1000
0000
0100
0001
0000
0100
1000
0000
0010
0100
0010
0000
,
1000
0001
1000
0000
0010
0000
0100
0001
0000
0010
0001
0100
0001
0000
1000
0100
,
0000
1000
0010
0100
0010
0000
0010
0000
1000
0000
1000
0000
0100
0000
0100
0000
,
0001
0000
0001
0000
0100
0000
0010
0100
0000
0100
0010
0000
0001
0000
0100
0010
,
0000
0010
0100
0000
0001
0000
1000
0100
0000
0100
1000
0000
0010
0000
0100
0000
,
0010
0000
0100
0000
0001
0000
1000
0010
0000
0010
0100
0010
1000
0000
0100
0010
,
0000
0010
0100
1000
0001
0000
0010
1000
0000
1000
0010
0001
0100
0000
0100
0000
,
0010
0000
0010
0000
1000
0000
0100
0010
0000
0010
0100
0000
1000
0000
0010
0100
,
0000
0100
0010
0000
0100
0000
0001
0010
0000
0010
0001
0000
0100
0000
0010
0000
,
1000
0000
0100
0000
0010
0000
0100
1000
0000
1000
0010
0100
0001
0000
0010
0100
,
0000
0001
0100
1000
0100
0000
0010
0001
0000
0100
1000
0100
0010
0000
0010
0000
,
1000
0000
1000
0000
0100
0000
0010
0100
0000
0100
0010
0000
0001
0000
0100
0010
,
0000
0010
0100
0000
0001
0000
1000
0100
0000
0100
1000
0000
0010
0000
0000
0010
,
0100
0000
0001
0000
0010
0000
0100
0010
0000
0001
0010
0100
1000
0000
0010
0100
,
0000
0001
0100
0010
1000
0000
0100
1000
0000
0010
1000
0100
0010
0000
0100
1000
,
0000
0010
0100
1000
0200
0000
0000
0000
0300
0000
0000
0000
0110
0000
0000
0000
,
0101
0000
0012
0013
0120
0130
1200
1300
,
2010
3010
0200
0000
2300
0000
3200
0000
,
2300
3020
2030
3020
,
2030
3020
0032
0023
,
0032
0203
0302
0203
,
0302
0203
2300
3200
,
0302
0023
2030
3020
,
0230
2300
3020
0032
,
2003
3200
0302
0023
,
2030
3010
0000
0000
;
