#TITLE:ARACHNE;
#SUBTITLE:;
#ARTIST:MAX MAXIMIZER;
#TITLETRANSLIT:;
#SUBTITLETRANSLIT:;
#ARTISTTRANSLIT:;
#CREDIT:Grithokskulk;
#BANNER:ARACHNE.png;
#BACKGROUND:ARACHNE-bg.png;
#LYRICSPATH:;
#CDTITLE:REFLEC BEAT.png;
#MUSIC:ARACHNE.mp3;
#OFFSET:-6.079;
#SAMPLESTART:70.355;
#SAMPLELENGTH:15.000;
#SELECTABLE:YES;
#BPMS:0.000=179.000,112.000=89.500,152.000=179.000,216.000=89.500,224.000=179.000,242.000=89.500,243.000=179.000,245.000=89.500,246.000=179.000;
#STOPS:;
#BGCHANGES:;

//---------------dance-single - ----------------
#NOTES:
     dance-single:
     :
     Easy:
     4:
     0.315,0.402,0.271,0.136,0.000: // measure 1
0110
0000
0010
0000
,  // measure 2
1001
0000
0001
0000
,  // measure 3
1001
0000
0110
0000
,  // measure 4
1001
0110
1001
0110
,  // measure 5
2002
0000
0000
0000
,  // measure 6
0000
0000
0000
0000
,  // measure 7
0000
0000
0000
0000
,  // measure 8
0000
0000
0000
3003
,  // measure 9
1000
0000
1000
1000
,  // measure 10
1000
0000
1000
1000
,  // measure 11
1000
0000
1000
1000
,  // measure 12
1000
0000
1000
1001
,  // measure 13
0001
0010
0001
0010
,  // measure 14
1000
0010
1000
0010
,  // measure 15
0001
0010
0001
0010
,  // measure 16
1000
0010
0100
0100
,  // measure 17
0001
0100
0001
0100
,  // measure 18
1000
0100
1000
0100
,  // measure 19
1001
0000
0110
0000
,  // measure 20
1001
0000
0110
0000
,  // measure 21
1000
0001
1000
0001
,  // measure 22
0010
0100
0010
0100
,  // measure 23
1000
0001
0100
0010
,  // measure 24
1000
0001
0010
0100
,  // measure 25
1000
1000
1000
1001
,  // measure 26
0001
0001
0001
1001
,  // measure 27
1000
1000
0001
0001
,  // measure 28
1000
0001
1000
0001
,  // measure 29
2002
0000
0000
3003
,  // measure 30
0220
0000
0000
0330
,  // measure 31
2002
0000
0000
3003
,  // measure 32
0220
0000
0000
0330
,  // measure 33
0100
0010
0100
1000
,  // measure 34
0010
0100
0010
1000
,  // measure 35
0100
0010
0100
1000
,  // measure 36
0010
0100
0010
0100
,  // measure 37
2002
0000
0000
3003
,  // measure 38
0220
0000
0000
0330
,  // measure 39
1000
0100
1000
0010
,  // measure 40
0010
0100
0001
0010
,  // measure 41
0010
0001
0100
0010
,  // measure 42
0010
1000
0001
0010
,  // measure 43
0010
0001
1000
0100
,  // measure 44
0100
1000
0001
0100
,  // measure 45
0100
0001
0001
1000
,  // measure 46
1000
0001
1000
1001
,  // measure 47
0010
0100
0001
0010
,  // measure 48
0001
0100
0010
1000
,  // measure 49
1000
0100
0010
0100
,  // measure 50
1000
0001
0100
0001
,  // measure 51
0001
0010
0001
0100
,  // measure 52
0010
0100
0001
1000
,  // measure 53
1000
0100
1000
0010
,  // measure 54
0100
0010
1000
0001
,  // measure 55
2000
0000
0000
0000
,  // measure 56
0000
0000
0000
3000
,  // measure 57
1000
0100
1000
0000
,  // measure 58
0001
0100
0001
0000
,  // measure 59
1000
0010
0001
0010
,  // measure 60
1000
0010
0001
0010
,  // measure 61
1000
0001
1001
0100
,  // measure 62
0010
0110
1000
0001
,  // measure 63
0010
0001
1001
0110
,  // measure 64
1001
0110
1001
0000
;

//---------------dance-single - ----------------
#NOTES:
     dance-single:
     :
     Medium:
     6:
     0.415,0.460,0.271,0.081,0.000:
1000
0000
0000
1000
0100
0000
1100
0000
,
0010
0000
0000
0010
0100
0000
0110
0000
,
0001
0000
1000
0001
1000
0000
0010
0100
,
0110
1001
0110
1001
,
0220
0000
0000
0000
,
0000
0000
0000
0000
,
0000
0000
0000
0000
,
0000
0000
0000
0330
,
1000
0000
0000
1000
1000
1000
1000
0000
,
0001
0000
0000
0001
0001
0001
0001
0000
,
0010
0000
0000
0010
0010
0010
0010
0000
,
0001
0000
0000
0001
0001
0001
0001
0000
,
0100
0000
0010
0100
0010
0000
1000
0000
,
0100
0000
1000
0100
1000
0000
0001
0000
,
0100
0000
0010
0100
0010
0000
0100
0000
,
0001
0000
0010
0000
0100
0100
0100
0100
,
0010
0000
0100
0000
1000
0001
1000
0000
,
0001
0000
0100
0000
0010
0100
0010
0000
,
1000
0000
0000
1000
0001
0000
0000
0001
,
0010
0000
0100
0000
0010
0010
0010
0010
,
0100
0000
1000
0000
0010
0100
0010
0000
,
0100
0000
0001
0000
1000
0100
1000
0000
,
0001
0000
0100
0001
0100
0000
0010
1000
,
0010
0000
0100
0010
0100
0000
0010
0010
,
0010
0000
0100
0000
0001
0000
1000
0100
,
1000
0000
0010
0000
0100
0000
1000
0010
,
1000
0000
0001
0010
0001
0000
1000
0010
,
1000
0000
0001
0010
0001
1000
0010
0000
,
0200
0000
0000
0000
,
0320
0000
0000
0000
,
2030
0000
0000
0000
,
3200
0000
0000
0300
,
0110
0000
1000
0001
0100
0000
0010
0000
,
0110
0000
0001
0100
0010
0000
1000
0000
,
1100
0000
1000
0001
0010
0000
0001
0000
,
0101
0000
0010
0100
0000
0010
0100
0001
,
2002
0000
3000
0003
,
1001
0000
0000
0000
0010
0100
0010
0100
,
1000
0000
0100
0000
1000
0100
1000
0100
,
0010
0000
0100
0000
1000
0001
1000
0001
,
0100
0000
0001
0000
0010
0001
0010
0001
,
0100
0000
0010
0000
0100
0100
0100
0100
,
0010
0000
0100
0000
0001
0010
0001
0000
,
1000
0000
0100
0000
0010
0100
0010
0100
,
1000
0000
0000
1000
0001
0000
0000
0001
,
1000
1001
0110
1001
,
0010
0000
0010
0001
0010
0000
0011
0000
,
0001
0000
0100
0001
0100
0000
0110
0000
,
0010
0000
1000
0001
1000
0000
1001
0000
,
0001
0000
0010
0100
0010
0000
0011
0000
,
0001
0000
0100
0010
0100
0000
1010
0000
,
1000
0000
0100
1000
0100
0000
1100
0000
,
1000
0000
0010
0100
0010
0000
1000
0001
,
1000
0000
0001
0000
0010
0100
0010
0100
,
0020
0000
0000
0000
,
0000
0000
0000
0000
,
0130
0000
0000
0100
1000
0100
1000
0000
,
1010
0000
0000
0010
1000
0010
1000
0000
,
0110
0000
0000
0001
1000
0001
1000
0000
,
1100
0000
0000
0100
0010
0100
0010
0000
,
0001
0000
1000
0001
1000
0001
0100
0000
,
0010
0100
0010
0100
0010
0000
1000
0010
,
1000
0000
0001
0010
0011
0000
1100
0000
,
1001
0110
1001
0000
;

//---------------dance-single - ----------------
#NOTES:
     dance-single:
     :
     Hard:
     9:
     0.662,0.890,0.100,0.172,0.574:
2000
0000
0000
0001
0000
0000
3001
0000
0000
0000
0100
0010
0100
0000
0001
0000
,
0020
0000
0000
0100
0000
0000
0130
0000
0000
0000
1000
0000
0001
0000
1000
0000
,
0002
0000
0000
0100
0000
0000
0103
0000
0020
0000
0000
0100
0000
0000
0130
0000
,
0002
0103
2000
3100
0002
0103
2000
3100
,
0220
0000
0000
0000
,
0000
0000
0000
0000
,
0300
0000
0000
0000
,
0000
0000
0000
0030
,
1001
0000
0000
0001
0000
0000
0001
0000
0010
0000
0001
0000
0010
0000
0001
0000
,
0100
0000
0000
0100
0000
0000
0100
0000
0010
0000
0100
0000
0010
0000
0100
0000
,
0001
0000
0000
0001
0000
0000
0001
0000
1000
0000
0100
0000
1000
0000
0100
0000
,
0010
0000
0000
0010
0000
0000
0010
0000
0100
0000
1000
0010
0100
0000
0000
0000
,
0010
0000
0000
0010
1000
0000
0100
0000
0010
0000
0100
0000
1000
0000
0100
0000
,
0010
0000
0000
0010
0001
0000
0100
0000
1000
0000
0100
0000
0001
0000
0010
0000
,
0100
0000
0000
0100
0010
0000
0001
0000
0100
0000
0010
0000
0100
0000
0001
0000
,
0010
0000
0000
0010
0001
0000
0100
0000
0010
0000
1000
0000
0100
0000
0100
0000
,
0010
0000
0000
0010
0100
0000
1000
0000
0010
0000
0100
0000
0010
0000
1000
0000
,
0001
0000
0000
0001
0010
0000
0001
0000
0100
0000
0010
0000
0100
0000
0001
0000
,
0001
0000
0000
0001
1000
0000
0100
0000
0010
0000
0000
0010
0100
0000
1000
0000
,
0010
0000
0000
0010
0100
0000
0000
0100
0001
0000
1000
0000
0100
0000
0001
0000
,
0100
0000
0000
0100
1000
0000
0010
0000
0100
0000
0010
0000
1000
0000
0001
0000
,
0010
0000
0000
0010
0001
0000
0100
0000
0010
0000
0100
0000
0001
0000
1000
0000
,
0100
0000
0000
0100
1000
0000
0010
0000
0100
0000
0000
0100
0001
0000
0010
0000
,
0001
0000
0000
0001
0100
0000
1000
0000
0100
0000
0001
0000
0010
0000
0010
0000
,
0100
0000
0000
0100
0010
0000
0001
0000
0100
0000
0010
0000
1000
0000
1000
0000
,
0100
0000
0000
0100
1000
0000
0010
0000
0100
0000
0010
0000
1000
0000
0001
0000
,
0010
0000
0000
0010
0001
0000
0100
0000
0010
0000
0000
0010
0100
0000
0001
0000
,
1000
0000
0000
0100
0000
0000
1000
0000
0000
0000
0010
0100
0010
0000
1000
0000
,
2002
0000
0000
0000
0000
0000
0000
3000
,
0200
0000
0000
0000
0000
0000
0000
0300
,
0020
0000
0000
0000
0000
0000
0000
0030
,
0200
0000
0000
0000
0000
0000
0000
0303
,
0110
0000
0000
0000
1000
1000
1000
1000
0100
0000
0000
0000
0010
0100
0000
0100
,
0110
0000
0000
0000
0000
0000
0000
0000
0100
0000
0100
0000
0100
0000
0100
0000
0010
0000
0000
0000
0000
0000
0100
1000
0100
0000
1000
0000
0000
0000
0000
0000
,
1010
0000
0000
0000
0100
0100
0100
0100
0010
0000
0000
0000
0100
0010
0000
0010
,
1010
0000
0100
0000
0010
0010
0010
0010
0000
0100
0001
0000
0010
0000
0100
0010
,
2002
0000
3000
0003
,
1001
0000
0000
0000
0000
0000
0000
0000
0000
0000
0000
0000
0000
0000
0000
0000
0010
0100
0010
0100
0010
0100
0010
0100
0010
0100
0010
0100
0010
0000
0000
0000
,
0001
0000
0010
0001
0010
0000
0001
0000
0100
0000
0010
0100
0010
1000
0010
0000
,
1000
0000
0100
0010
0100
0000
1000
0000
0010
0000
0100
0001
0100
0010
0100
0000
,
0001
0000
0010
0100
0010
0000
0100
0000
0010
0000
0001
1000
0001
0100
0001
0000
,
1000
0000
0100
1000
0100
0000
0010
0000
0001
0000
0001
0000
1000
0000
1000
0000
,
0010
0000
0100
0010
0100
0000
0001
0000
0010
0000
0100
0010
0100
1000
0100
0000
,
1000
0000
0010
0100
0010
0000
1000
0000
0100
0000
0010
0001
0010
0100
0010
0000
,
0001
0000
0000
0001
0000
0000
0001
0000
0100
0000
0000
0100
0000
0000
0100
0000
,
0001
1000
0001
1000
0100
0010
0100
0010
,
0100
0000
0000
0100
1000
0000
0010
0000
0100
0000
0010
1000
0010
0100
0010
0000
,
0100
0000
0000
0100
0001
0000
0010
0000
0001
0000
0100
0010
0100
0001
0100
0000
,
0001
0000
0000
0001
1000
0000
0100
0000
0010
0000
0000
0010
0100
0000
1000
0000
,
0001
0000
0000
0001
0100
0000
0010
0000
0100
0000
0001
0010
0001
0100
0001
0000
,
0010
0000
0000
0010
0100
0000
0010
0000
0001
0000
0100
0010
0100
0001
0100
0000
,
0001
0000
0000
0001
1000
0000
0100
0000
1000
0000
0010
0100
0010
1000
0100
0000
,
0010
0000
0000
0010
0100
0000
1000
0000
0010
0000
0000
0010
0100
0000
0001
0000
,
0010
0000
0000
0010
0001
0000
0000
0001
0100
0000
0010
0000
0100
0010
0100
0000
,
0010
0000
0000
0010
0000
0000
0010
0000
0010
0000
0010
0000
0010
0000
0010
0000
0010
0000
0000
0010
0000
0000
0010
0000
0010
0000
0010
0000
0010
0000
0010
0000
,
0010
0000
0000
0010
0000
0000
0010
0000
0010
0000
0010
0000
0010
0000
0010
0000
0010
0000
0000
0010
0000
0000
0010
0000
0010
0000
0010
0000
0010
0100
0010
0100
,
0001
0000
0000
0001
0000
0000
0001
0000
0000
0000
1000
0001
1000
0000
0001
0000
,
0010
0000
0000
0010
0000
0000
0010
0000
0000
0000
0100
1000
0100
0000
1000
0000
,
0010
0000
0000
0010
0000
0000
0010
0000
0100
0000
0000
0100
0000
0000
0100
0000
,
0001
0000
0000
0001
0000
0000
0001
0000
0000
0000
1000
0001
1000
0000
0010
0000
,
0100
0000
1000
0010
0100
0000
0010
0000
2010
0000
3001
0000
0010
0000
0001
0100
,
0010
0100
0102
0013
0100
0010
0100
0000
,
0001
1000
0001
0000
0100
0010
0100
0010
,
0001
0000
1000
0000
0100
0010
0100
0010
0100
0000
0000
0000
0000
0000
0000
0000
;
