#TITLE:ARACHNE;
#SUBTITLE:(DJ Noriken Remix);
#ARTIST:DJ Noriken;
#TITLETRANSLIT:;
#SUBTITLETRANSLIT:;
#ARTISTTRANSLIT:;
#CREDIT:Grithokskulk;
#BANNER:ARACHNE (DJ Noriken Remix).png;
#BACKGROUND:ARACHNE (DJ Noriken Remix)-bg.png;
#LYRICSPATH:;
#CDTITLE:REFLEC BEAT.png;
#MUSIC:ARACHNE (DJ Noriken Remix).mp3;
#OFFSET:-6.735;
#SAMPLESTART:22.975;
#SAMPLELENGTH:15.000;
#SELECTABLE:YES;
#BPMS:0.000=177.000,41.000=88.500,43.000=177.000,168.000=88.500,182.000=177.000,211.000=88.500,213.000=177.000,270.000=88.500,272.000=177.000;
#STOPS:12.000=1.040
,103.000=1.000
,182.000=1.000
,213.000=1.020
;
#BGCHANGES:;

//---------------dance-single - ----------------
#NOTES:
     dance-single:
     :
     Easy:
     4:
     0.274,0.303,0.068,0.059,0.000: // measure 1
1000
0000
1000
1000
,  // measure 2
0001
0000
0001
0001
,  // measure 3
0100
0000
0100
0100
,  // measure 4
0110
0010
1000
0010
,  // measure 5
0000
1000
0001
1000
,  // measure 6
0000
0001
0010
0001
,  // measure 7
0000
0100
0010
0100
,  // measure 8
0000
0001
0001
1000
,  // measure 9
1000
0100
0100
1000
,  // measure 10
1000
0010
0100
0001
,  // measure 11
1000
1001
0000
1000
,  // measure 12
1000
1000
0000
0001
,  // measure 13
0001
0001
0000
0100
,  // measure 14
0100
0100
0000
0010
,  // measure 15
0010
0100
0100
0001
,  // measure 16
0001
0001
0000
0010
,  // measure 17
0010
0010
0000
0001
,  // measure 18
0001
1000
1000
0010
,  // measure 19
1000
0001
0020
0031
,  // measure 20
0001
0001
0000
0100
,  // measure 21
0100
0100
0000
0010
,  // measure 22
0010
0100
0100
0001
,  // measure 23
0001
0010
0000
0100
,  // measure 24
0100
0010
0010
0100
,  // measure 25
0100
1000
1000
0010
,  // measure 26
1000
0001
0010
0100
,  // measure 27
0010
0100
0010
0100
,  // measure 28
0010
0100
0010
0000
,  // measure 29
1000
0001
1000
0001
,  // measure 30
1000
0001
1000
0000
,  // measure 31
0001
0010
0001
0010
,  // measure 32
0001
0010
0001
0000
,  // measure 33
1000
0010
1000
0010
,  // measure 34
1000
0010
1000
0000
,  // measure 35
0010
0000
0110
0000
,  // measure 36
0100
0000
0110
0000
,  // measure 37
0001
0000
1001
0000
,  // measure 38
1000
0000
1001
0000
,  // measure 39
0001
0010
0001
0010
,  // measure 40
0001
0100
0001
0100
,  // measure 41
0010
0100
0010
0100
,  // measure 42
0020
0000
0000
0030
,  // measure 43
0200
0000
0000
0000
,  // measure 44
0000
0000
0000
0300
,  // measure 45
0020
0000
0000
0000
,  // measure 46
0000
0000
0030
1000
,  // measure 47
0100
1000
0000
0001
,  // measure 48
0100
0001
0000
0010
,  // measure 49
0001
0010
0000
0100
,  // measure 50
1000
0100
0000
1000
,  // measure 51
0010
0100
0010
1000
,  // measure 52
0010
0100
0010
1000
,  // measure 53
0100
0010
0001
2000
,  // measure 54
3000
1001
0001
0001
,  // measure 55
0001
0000
0100
0100
,  // measure 56
0100
0000
0010
0010
,  // measure 57
0010
0000
0100
0100
,  // measure 58
0100
0000
0001
0001
,  // measure 59
0001
0000
0010
0000
,  // measure 60
0100
0000
0010
0100
,  // measure 61
0010
0110
0100
1000
,  // measure 62
0100
0000
1000
0001
,  // measure 63
1000
0000
0001
0100
,  // measure 64
0001
0000
1000
0100
,  // measure 65
1000
0000
0010
0010
,  // measure 66
0100
0100
0001
0001
,  // measure 67
0010
0010
0100
0010
,  // measure 68
0001
1000
0002
0003
,  // measure 69
2000
0000
0000
0000
,  // measure 70
0000
0000
0000
0000
,  // measure 71
0000
0000
0000
0000
,  // measure 72
0000
0000
0000
3000
;

//---------------dance-single - ----------------
#NOTES:
     dance-single:
     :
     Medium:
     7:
     0.526,0.547,0.981,0.211,0.000:
1000
0000
0000
1000
0100
0000
0100
0000
,
0010
0000
0000
0010
0100
0000
0100
0000
,
1000
0000
0000
1000
0001
0000
0001
0000
,
1001
0010
0010
0010
,
0010
0010
0010
0010
,
0110
0110
0100
0100
,
0100
0100
0100
0100
,
0101
0101
0001
1001
,
1000
1010
0010
1010
,
1000
1100
0110
0011
,
1001
0220
0330
1010
,
1010
1010
0000
1100
,
1100
1100
0000
0011
,
0011
0011
0000
0101
,
0101
0000
0010
0100
0010
0000
1010
0000
,
1010
1010
0000
1100
,
1100
1100
0000
0011
,
0011
1001
1001
1010
,
1010
0010
0110
0101
,
0101
0101
0000
1001
,
1001
1001
0000
1100
,
1100
1001
1001
0101
,
0101
0000
0010
0100
0010
0000
0101
0000
,
0101
1010
1010
1100
,
1100
0000
0011
0000
0011
0000
1000
0010
,
1000
0010
1000
0010
1000
0000
0110
0000
,
0002
0010
0100
0010
,
0203
0000
0320
0000
,
2030
0100
0001
0010
,
0100
0100
0010
0010
,
3200
0001
0010
1000
,
0320
0001
0230
1000
,
0320
1000
0001
0100
,
0032
0000
2000
3003
,
1001
0000
0000
0000
0010
0010
0010
0010
,
0100
0000
0000
0000
0100
0100
0100
0100
,
0010
0000
0000
0000
1000
1000
1000
1000
,
0001
0000
0000
0000
0001
0001
0001
0001
,
1000
0000
0100
0000
1000
0100
1000
0100
,
1000
0000
0010
0000
0100
0001
0100
0001
,
0100
0000
0010
0000
0100
0001
0100
0001
,
1000
0000
0100
0010
0000
0010
0100
0000
,
0220
0000
0000
0330
,
2002
0000
3003
0000
,
2200
0000
0000
3300
,
0022
0000
0033
1000
,
1000
1100
0100
0010
,
0010
0110
0100
1000
,
1000
1001
0001
0100
,
0100
0101
0001
0010
,
0011
0001
1001
1000
,
1010
0010
0110
1010
,
0101
0011
1100
2002
,
3003
0110
1010
1010
,
1010
0000
0100
1000
1100
0000
1100
0000
,
1100
0000
0010
0001
0011
0000
0011
0000
,
0011
0000
0001
0100
0101
0000
0101
0000
,
0101
0000
0010
0100
0110
0000
0110
0000
,
0110
0000
1000
0001
1001
0000
1001
0000
,
0110
0110
1001
0110
,
2002
3003
0011
1100
,
0011
0000
0100
0001
0101
0000
1010
0000
,
1001
0000
1000
0100
1100
0000
0110
0000
,
1100
1010
1100
1001
,
0100
0001
0100
0000
0010
0000
0110
0000
,
0100
0101
0001
1001
,
1000
0000
1100
0000
1000
0100
1000
0100
,
0010
0100
0010
0100
2000
0000
3001
0000
,
1001
0000
0000
0000
0000
0010
0010
0010
,
0010
0000
0000
0000
0010
0010
0010
0010
,
0010
0000
0000
0000
0010
0010
0010
0010
,
0010
0000
0000
0000
0010
0010
0010
0010
;

//---------------dance-single - ----------------
#NOTES:
     dance-single:
     :
     Hard:
     9:
     0.700,0.882,0.254,0.059,0.465:
1000
0000
0000
0100
0000
0000
0100
0000
0000
0000
0010
0000
0100
0000
1000
0000
,
0010
0000
0000
0010
0000
0000
0010
0000
0100
0000
0000
0100
0000
0000
0100
0000
,
0010
0000
0000
1000
0000
0000
1000
0000
0000
0000
0100
0000
0010
0000
0001
0000
,
1001
0000
0000
0000
1000
0000
0000
0100
0000
0000
0100
0000
0000
0000
0010
0100
,
0010
0000
0100
0000
1000
0000
0000
0001
0000
0000
0001
0000
0000
0000
0100
0010
,
0100
0000
0010
0000
1000
0000
0000
0001
0000
0000
0001
0000
0000
0000
0010
0001
,
0010
0000
0001
0000
0100
0000
0000
0010
0000
0000
0010
0000
0100
0000
0100
0000
,
0001
0000
0001
0000
1000
0000
0000
0100
0000
0000
0100
0000
0010
0000
0000
0100
,
0000
0000
0100
0000
0001
0000
0000
0100
0000
0000
0100
0000
1000
0000
0000
0100
,
0000
0100
0010
0100
1000
0010
0100
0001
,
0010
0000
0100
0000
0010
0000
0100
0010
0000
0001
1001
0000
1000
0000
0000
1000
,
0100
0000
1000
0000
0010
0000
0100
0000
0010
0000
1000
0000
0001
0000
0000
0001
,
0010
0000
0001
0000
0100
0000
1000
0000
0100
0000
0010
0000
1000
0000
0000
1000
,
0100
0000
0010
0000
0100
0000
1000
0000
0010
0000
0010
0000
0100
0000
0000
0100
,
0001
0000
0010
0000
0001
0000
0100
0000
0010
0000
0010
0000
0100
0000
0000
0100
,
0001
0000
1000
0000
0100
0000
0001
0000
0100
0000
1000
0000
0010
0000
0000
0010
,
0100
0000
0010
0000
1000
0000
0001
0000
0010
0000
0010
0000
0001
0000
0000
0001
,
0100
0000
0010
0000
1000
0000
0000
1000
0100
0000
1000
0000
0010
0000
0000
0010
,
0100
0000
0001
0000
0010
0000
0001
0000
1001
0000
0000
0000
1000
0000
0000
1000
,
0100
0000
0010
0000
0100
0000
1000
0000
0010
0000
0010
0000
0100
0000
0000
0100
,
0001
0000
0010
0000
0001
0000
0100
0000
0010
0000
0010
0000
0100
0000
0000
0100
,
0001
0000
1000
0000
0100
0000
0000
0100
0001
0000
0100
0000
1000
0000
0000
1000
,
0010
0000
0100
0000
0010
0000
0100
0000
0001
0000
0001
0000
1000
0000
0000
1100
,
0000
0000
1000
0000
0010
0000
0000
0110
0000
0000
0010
0000
0100
0000
0000
0101
,
0000
0000
0001
0000
0010
0000
0000
0110
0000
0000
0010
0000
0001
0000
0100
0000
,
0010
0000
1000
0000
0100
0010
0100
0000
1000
0001
1000
0000
0100
0000
0000
0000
,
0010
0001
0100
0010
1000
0100
0010
0001
,
0100
0010
1000
0100
0010
0100
0010
0100
,
0001
0100
1000
0001
0010
1000
0001
0100
,
1000
0001
0010
1000
0010
0100
0010
0100
,
1000
0001
0010
0001
1000
0010
1000
0001
,
0010
0001
1000
0010
1000
0100
0010
0001
,
0100
0001
0010
0100
1000
0010
0100
0001
,
0010
0100
1000
0010
0100
0001
0100
0001
,
1001
0000
0000
0000
1100
1100
1100
1100
,
1100
0000
0000
0000
1001
1001
1001
1001
,
1001
0000
0000
0000
0110
0110
0110
0110
,
0110
0000
0000
0000
0000
0000
0000
0000
0100
0001
0100
0000
0001
0000
0001
0000
,
1000
0100
1000
0100
1000
0010
1000
0010
,
1000
0001
1000
0001
0010
0001
0010
0001
,
0010
0100
0010
0000
1000
0001
1000
0000
0001
0100
0001
0000
0100
0010
0100
0000
,
0020
0000
0200
0330
,
0010
0000
0000
0010
0000
0000
0010
0000
0010
0000
0010
0000
0010
0000
0010
0000
0010
0000
0000
0010
0000
0000
0010
0000
1000
0000
0000
0100
0000
0000
0010
0000
,
0100
0000
0000
0100
0000
0000
0100
0000
0100
0000
0100
0000
0100
0000
0100
0000
1000
0000
0000
0001
0000
0000
0001
0000
0001
0000
0001
0000
0001
1000
0001
0000
,
0100
0000
0000
0100
0000
0000
0100
0000
0100
0000
0100
0000
0100
0000
0100
0000
0100
0000
0000
0001
0000
0000
0010
0000
0100
0000
0000
1000
0000
0000
0010
0000
,
0100
0000
0000
0100
0000
0000
0100
0000
0100
0000
0100
0000
0100
0000
0100
0000
0100
0000
0000
0000
0000
0000
0000
0000
0010
0000
0000
0000
0000
0000
0010
0000
,
0100
0000
0000
0000
0010
0000
0000
0010
0100
0000
0000
0000
0010
0000
0000
0010
,
0100
0000
0000
0000
0001
0000
0010
0000
1000
0000
0010
0000
0001
0000
0000
0001
,
1000
0000
0000
0000
0001
0000
0000
0001
1000
0000
0000
0000
0001
0000
0000
0001
,
1000
0000
0000
0000
0001
0000
1000
0000
0100
0000
0010
0000
0100
0000
0000
0100
,
1000
0000
0000
0000
1000
0000
0000
1000
0010
0000
0000
0000
0010
0000
0000
0010
,
0100
0000
0000
0000
0100
0000
0000
0100
0001
0000
0000
0000
0001
0000
0010
0000
,
0100
0000
1000
0000
0010
0100
0010
0000
1000
0001
1000
0000
0200
0000
0000
0000
,
0020
0000
0330
0000
0110
0000
0000
0000
0100
0000
0000
0100
1000
0000
0100
0000
,
1000
0000
0010
0000
0010
0000
0000
0000
0100
0000
0000
0100
0001
0000
0010
0000
,
0001
0000
0100
0000
0100
0000
0010
0000
0100
0000
0000
0100
0001
0000
0010
0000
,
0001
0000
0100
0000
0010
0000
0010
0000
0100
0000
0000
0100
0001
0000
1000
0000
,
0100
0000
0010
0000
0010
0000
0100
0000
1000
0000
0000
1000
0010
0000
0100
0000
,
0010
0000
1000
0000
1000
0000
0100
0000
0010
0000
0000
0010
0100
0000
1000
0000
,
0010
0000
0000
0010
0100
0000
0001
0000
0010
0000
0000
0010
0001
0000
1000
0000
,
0100
0000
0000
0100
0020
0000
0030
0000
0100
0000
0000
0100
1000
0000
0010
0000
,
0100
0000
0010
0000
0010
0000
0100
0000
0001
0000
0000
0001
0010
0000
0001
0000
,
0100
0000
0010
0000
0010
0000
0010
0000
0100
0000
0000
0100
0001
0000
1000
0000
,
0100
0000
0000
0100
0010
0000
0100
0000
1000
0000
0000
1001
0000
0000
0001
0000
,
0000
0101
0000
0000
0010
0000
0000
0000
0100
0000
0000
0110
0000
0000
0010
0000
,
1000
0000
0000
1001
0000
0000
0001
0000
0100
0000
0000
0110
0000
0000
0010
0000
,
0100
0000
0000
0101
0000
0000
0001
0000
0010
0000
0100
0000
0010
0000
0001
0000
,
1000
0001
1000
0000
0010
0100
0010
0000
2000
0000
0000
0000
0002
0000
3003
0000
,
0010
0000
0000
0010
0000
0000
0010
0000
0010
0000
0010
0000
0010
0000
0010
0000
,
0010
0000
0000
0010
0000
0000
0010
0000
0010
0000
0010
0000
0010
0000
0010
0000
,
0010
0000
0000
0010
0000
0000
0010
0000
0010
0000
0010
0000
0010
0000
0010
0000
,
0010
0000
0000
0010
0000
0000
0010
0000
0010
0000
0010
0000
0100
0010
0100
0010
;
