#TITLE:2.14.13;
#SUBTITLE:;
#ARTIST:dj nagureo;
#TITLETRANSLIT:;
#SUBTITLETRANSLIT:;
#ARTISTTRANSLIT:;
#CREDIT:Grithokskulk;
#BANNER:2.14.13.png;
#BACKGROUND:2.14.13-bg.png;
#LYRICSPATH:;
#CDTITLE:beatmania.png;
#MUSIC:2.14.13.mp3;
#OFFSET:-7.468;
#SAMPLESTART:44.835;
#SAMPLELENGTH:15.000;
#SELECTABLE:YES;
#BPMS:0.000=130.000;
#STOPS:;
#BGCHANGES:;

//---------------dance-single - ----------------
#NOTES:
     dance-single:
     :
     Easy:
     2:
     0.166,0.210,0.000,0.168,0.000: // measure 1
1000
1000
0000
0000
,  // measure 2
0000
0000
0000
0000
,  // measure 3
0010
0010
0000
0000
,  // measure 4
0000
0000
0000
0000
,  // measure 5
1000
0100
1000
0100
,  // measure 6
1000
0001
1000
0001
,  // measure 7
1000
0010
1000
0010
,  // measure 8
1000
0100
1000
0100
,  // measure 9
1000
0002
0003
0020
,  // measure 10
0030
0200
0300
0020
,  // measure 11
0030
0002
0000
0000
,  // measure 12
0000
0003
0000
0000
,  // measure 13
0000
0000
1000
0000
,  // measure 14
0001
0000
0010
0000
,  // measure 15
0001
0000
0010
0000
,  // measure 16
0100
0000
0010
0000
,  // measure 17
0100
2000
0000
3000
,  // measure 18
0000
0002
0000
0003
,  // measure 19
0000
0200
0000
0300
,  // measure 20
0000
0020
0000
0030
,  // measure 21
0000
0200
0300
0020
,  // measure 22
0030
0200
0300
0002
,  // measure 23
0003
0020
0000
0000
,  // measure 24
0000
0030
0000
0000
,  // measure 25
0000
0000
0100
0000
,  // measure 26
1000
0000
0010
0000
,  // measure 27
1000
0000
0001
0000
,  // measure 28
0010
0000
0001
0000
,  // measure 29
0100
0020
0030
0200
,  // measure 30
0300
0002
0003
0000
,  // measure 31
1000
1000
1000
0100
,  // measure 32
0010
0010
0100
0010
,  // measure 33
0001
0001
0100
0010
,  // measure 34
0100
0001
1000
0100
,  // measure 35
0000
1000
0010
0100
,  // measure 36
0010
1000
0100
1000
,  // measure 37
0000
0001
0010
0001
,  // measure 38
0001
0100
0010
0100
,  // measure 39
0000
0001
1000
0100
,  // measure 40
0100
1000
0001
0100
,  // measure 41
0000
0001
0000
1000
,  // measure 42
0000
1000
0000
0100
,  // measure 43
0000
1000
0000
0000
,  // measure 44
0000
0001
0000
0000
,  // measure 45
0000
0100
0000
0000
,  // measure 46
0000
0010
0000
0000
,  // measure 47
0000
0100
0000
0000
,  // measure 48
0000
0001
0000
0000
;

//---------------dance-single - ----------------
#NOTES:
     dance-single:
     :
     Medium:
     5:
     0.344,0.403,0.266,0.533,0.000:
1000
0100
1000
0000
0000
0000
0000
0000
,
0000
0000
0000
0000
,
0001
0100
0001
0000
0000
0000
0000
0000
,
0000
0000
0000
0000
,
0100
0010
0100
0000
0001
0000
1000
0000
,
0100
0010
0100
0000
1000
0000
0010
0000
,
0100
0001
0100
0000
0001
0000
0010
0000
,
0001
0100
0001
0000
1000
0000
0100
0000
,
1000
2200
3300
0022
,
0033
0202
0303
0220
,
0330
2002
0000
0000
,
3003
0000
1000
0000
0100
0000
1000
0010
,
1000
0000
0010
0000
0100
0000
0001
0010
,
0001
0000
0010
0000
0100
0000
0010
0001
,
0010
0000
0001
0000
0100
0000
0010
0100
,
0010
0000
1000
0000
0001
0000
1000
0100
,
1000
2200
0000
3300
,
0000
0022
0000
0000
0000
0000
0000
0000
,
0033
0202
0000
0303
,
0000
0220
0000
0000
0000
0000
0000
0000
,
0330
2002
3003
2200
,
3300
0220
0330
2200
,
3300
2002
0000
0000
,
3003
0000
0001
1000
0001
0000
0100
0000
,
0100
0000
0010
0100
0010
0000
1000
0000
,
1000
0000
0100
1000
0100
0000
0010
0000
,
0010
0000
0001
0100
0001
0000
0010
0000
,
0010
0000
0100
0010
0100
0000
1000
0000
,
1000
2020
3030
0202
,
0303
0022
0000
0033
,
1000
0000
1000
0000
0100
1000
0100
0000
,
0010
0001
0010
0000
0001
0000
0100
0000
,
0010
0000
0100
0001
0100
0000
0001
0000
,
1000
0000
0100
1000
0100
0000
1000
0000
,
0010
0000
0100
0010
0100
0000
0001
1000
,
0001
0000
1000
0100
1000
0000
0001
0010
,
0001
0000
1000
0010
1000
0000
0001
0100
,
0001
0000
0010
0100
0010
0000
1000
0001
,
1000
0000
0010
0100
0010
0100
0001
0100
,
0001
0000
1000
0100
1000
0100
0010
0100
,
0010
2200
3300
0022
,
0033
0202
0303
0220
,
0330
2002
0000
0000
,
3003
0220
0000
0000
,
0330
2200
0000
0000
,
3300
0022
0000
0000
,
0033
0202
0000
0000
,
0303
0220
0000
0000
,
0330
0000
0000
0000
;

//---------------dance-single - ----------------
#NOTES:
     dance-single:
     :
     Hard:
     6:
     0.437,0.426,0.395,0.424,0.084:
1001
0100
1001
0000
0000
0000
0000
0000
,
0000
0000
0000
0000
,
0011
0100
0011
0000
0000
0000
0000
0000
,
0000
0000
0000
0010
,
0010
0100
0001
0010
0002
0000
2003
0000
,
3100
1000
0010
0100
0020
0000
0230
0000
,
0301
0010
1000
0010
0002
0000
0203
0000
,
0301
0100
1000
0100
0020
0000
2030
0000
,
3100
0010
0110
0000
1000
0010
1010
0000
,
0100
0001
0011
0000
0001
0100
0110
0000
,
1000
0001
2100
0000
0010
0000
0100
0100
,
0100
0000
0001
0000
0010
0000
0001
0001
,
3001
0000
0000
0000
0010
0000
0000
0000
1100
0000
0000
0000
0010
0000
0000
0010
,
0100
0000
0010
0000
1000
0000
0001
0000
0011
0000
0000
0000
0001
0000
0000
0001
,
0100
0000
0010
0000
0100
0000
0001
0000
1001
0000
0000
0000
1000
0000
0000
1000
,
0100
0000
0010
0000
0100
0000
1000
0000
1010
0000
0000
0000
0010
0000
0000
0010
,
0100
0001
0202
0000
0000
0000
0303
0000
,
0000
2020
0000
0000
0000
0000
0000
3030
,
0000
2200
0000
3300
,
0000
0022
0000
0000
0000
0030
0000
1003
,
0000
0000
1001
0000
0001
0100
0110
0000
,
0010
1000
1001
0000
0010
0100
0110
0000
,
1000
0000
0001
0000
0101
0000
0000
0000
0010
0000
0000
0000
0001
0000
0000
0001
,
0100
0000
0010
0000
0100
0000
0001
0000
1001
0000
0000
0000
1000
0000
0000
1000
,
0100
0000
0010
0000
0100
0000
1000
0000
1010
0000
0000
0000
0010
0000
0000
0010
,
0100
0000
0010
0000
1000
0000
0001
0000
0011
0000
0000
0000
0001
0000
0000
0001
,
1000
0000
0010
0000
0100
0000
0001
0000
0101
0000
0000
0000
1000
0000
0000
1000
,
0100
0000
0001
0000
0100
0000
1000
0000
1010
0000
0000
0000
0010
0000
0000
0010
,
0100
0000
0001
0000
0000
0202
0000
0303
0000
0000
0000
0000
0000
2020
0000
3030
,
0000
0000
0000
0000
0000
2200
0000
0300
0000
0000
0000
0000
0000
0000
0000
0000
,
0010
0000
0000
0000
3010
0000
0100
0001
0000
0000
0010
0001
0000
0000
0100
0000
,
0010
0000
1000
0000
0100
0000
0010
0100
0000
0000
1000
0000
0100
0000
0010
0100
,
0000
1000
0010
0100
0001
0010
0001
0100
,
0100
0000
0001
0010
0001
0100
0010
0100
,
0100
0000
0010
1000
0100
0010
0100
1000
,
1000
0001
0010
0100
0010
0001
0100
0010
,
0010
0000
0100
0001
0010
0001
1000
0010
,
0010
0000
1000
0100
0010
0100
1000
0001
,
0001
0000
0100
0001
0100
0000
0010
1000
,
0010
0000
1000
0100
0010
0100
1000
0001
,
0001
0100
0202
0000
0303
0000
0220
0000
,
0330
0220
0330
0202
,
0303
2002
0000
0000
,
3003
2200
0000
0000
,
3300
0220
0000
0000
,
0330
0022
0000
0000
,
0033
2002
0000
0000
,
3003
0202
0000
0000
,
0303
0000
0000
0000
;
