#TITLE:199024club -ReBounceKiller-;
#SUBTITLE:;
#ARTIST:DJ Mass MAD Izm*;
#TITLETRANSLIT:;
#SUBTITLETRANSLIT:;
#ARTISTTRANSLIT:;
#CREDIT:Grithokskulk;
#BANNER:199024club -ReBounceKiller-.png;
#BACKGROUND:199024club -ReBounceKiller--bg.png;
#LYRICSPATH:;
#CDTITLE:beatmania IIDX.png;
#MUSIC:199024club -ReBounceKiller-.mp3;
#OFFSET:-7.549;
#SAMPLESTART:67.915;
#SAMPLELENGTH:15.000;
#SELECTABLE:YES;
#BPMS:0.000=143.000;
#STOPS:;
#BGCHANGES:;

//---------------dance-single - ----------------
#NOTES:
     dance-single:
     :
     Easy:
     3:
     0.242,0.241,0.039,0.016,0.000: // measure 1
0100
0100
0000
0000
,  // measure 2
1000
1000
0000
0000
,  // measure 3
0001
0001
0000
0000
,  // measure 4
1000
1000
0000
0000
,  // measure 5
0010
0000
0010
0000
,  // measure 6
0100
0000
0100
0000
,  // measure 7
0020
0030
0000
0100
,  // measure 8
0200
0000
0300
0000
,  // measure 9
0001
0001
0001
0000
,  // measure 10
1000
1000
1000
0000
,  // measure 11
0100
0100
0100
0000
,  // measure 12
1000
1000
1000
0000
,  // measure 13
0010
0100
0010
0000
,  // measure 14
0100
0001
0100
0000
,  // measure 15
0001
1000
0001
0000
,  // measure 16
1000
0100
0100
1000
,  // measure 17
0010
0100
0010
0000
,  // measure 18
0100
0001
0100
0000
,  // measure 19
0001
1000
0001
0000
,  // measure 20
1000
1000
1001
0000
,  // measure 21
0001
0100
0001
0000
,  // measure 22
1000
1000
1001
0000
,  // measure 23
0010
0100
0010
0000
,  // measure 24
0100
0100
0110
0000
,  // measure 25
0001
0010
0001
0000
,  // measure 26
1000
1000
1001
0000
,  // measure 27
0100
1000
0100
0000
,  // measure 28
1000
1000
1001
0000
,  // measure 29
0010
0000
0010
0100
,  // measure 30
0001
0000
0001
0010
,  // measure 31
0100
0000
0100
0010
,  // measure 32
0100
0000
0100
1000
,  // measure 33
0010
0000
0010
0100
,  // measure 34
0010
0000
1000
0001
,  // measure 35
1000
0000
1000
0100
,  // measure 36
1000
0000
0010
0100
,  // measure 37
1000
1000
1000
0000
,  // measure 38
0001
0001
0001
0000
,  // measure 39
0100
0100
0100
0000
,  // measure 40
0010
0010
0010
0000
,  // measure 41
0100
0100
0001
0000
,  // measure 42
1000
1000
0100
0000
,  // measure 43
1000
0000
0001
0000
,  // measure 44
0010
0100
0010
0100
,  // measure 45
1000
0100
0010
0100
,  // measure 46
1000
0010
0100
0010
,  // measure 47
0100
0001
0010
0001
,  // measure 48
0100
0001
1000
1000
,  // measure 49
0100
1000
0010
1000
,  // measure 50
0100
0010
0100
0100
,  // measure 51
0010
0001
0100
0001
,  // measure 52
0010
0010
0100
0100
,  // measure 53
1000
0001
0000
0001
,  // measure 54
0000
0001
0000
0001
,  // measure 55
0100
0010
0000
0010
,  // measure 56
0000
0010
0000
0010
,  // measure 57
1000
0100
0000
0100
,  // measure 58
0000
0100
0000
0100
,  // measure 59
0010
0001
0000
0001
,  // measure 60
0000
0001
0000
0001
,  // measure 61
0100
0001
0010
0001
,  // measure 62
0100
0001
0010
0010
,  // measure 63
0100
1000
0010
1000
,  // measure 64
0001
1000
0100
0100
,  // measure 65
1000
0010
0100
0010
,  // measure 66
0100
0010
1000
1000
,  // measure 67
0100
0001
0100
0010
,  // measure 68
0100
1000
0010
0010
;

//---------------dance-single - ----------------
#NOTES:
     dance-single:
     :
     Medium:
     6:
     0.395,0.401,0.071,0.000,0.000:
0100
0000
0000
0100
0000
0000
0000
0000
,
0001
0000
0000
0001
0000
0000
0000
0000
,
0010
0000
0000
0010
0000
0000
0000
0000
,
0001
0000
0000
0001
0000
0000
0000
0000
,
1000
0100
0000
1000
,
0010
0000
0000
0010
0000
0000
0100
0000
,
0001
0000
0000
0010
0000
0000
0100
0000
,
0010
0000
0000
0100
0000
0000
1000
0000
,
0010
0010
0010
0100
,
0010
0000
0010
0000
1000
0001
1000
0000
,
0100
0100
0010
0000
,
0100
0000
0100
0000
1000
0100
1000
0000
,
0010
0100
0010
0100
0010
0000
0100
0000
,
0001
0010
0001
0010
0001
0000
1000
0000
,
0100
1000
0100
1000
0100
0000
1000
0000
,
0010
0100
0010
1000
0010
0000
0100
0000
,
0001
0000
0000
0001
0000
0010
0100
0000
,
0010
0001
0010
0000
0100
0000
0000
0000
,
1000
0000
0000
1000
0000
0010
0010
0000
,
0100
0000
0001
0000
0010
0001
0010
0000
,
0001
0100
0010
0000
,
0010
0100
0010
0000
1000
0000
0001
0000
,
1000
0100
1000
0000
0010
0000
0000
0000
,
1000
0010
1000
0000
0010
0100
0010
0000
,
0100
0001
0100
0000
0001
0000
0000
0000
,
0010
0001
0010
0000
0100
1000
0100
0000
,
1000
0001
1000
0000
0001
0000
0000
0000
,
0100
0000
0010
0000
0100
0010
0100
0000
,
0001
0000
0000
0001
0010
0000
0011
0000
,
1000
0000
0000
1000
0010
0000
1010
0000
,
0010
0000
0000
0010
0100
0000
0110
0000
,
1000
0000
0000
1000
0001
0000
1001
0000
,
0001
0000
0000
0001
0010
0000
0011
0000
,
0100
0000
0000
0100
0010
0000
0110
0000
,
0001
0000
0000
0001
0100
0000
0101
0000
,
0010
0100
0010
0000
1000
0001
1000
0001
,
0010
0000
0010
0000
0100
0010
0100
0000
,
1000
0000
1000
0000
0001
1000
0001
0000
,
0100
0000
0100
0000
0010
0100
0010
0000
,
1000
0000
1000
0000
0001
0100
0001
0000
,
0010
0000
0010
0000
0001
0010
0001
0000
,
1000
0000
1000
0000
0010
1000
0010
0000
,
0110
0000
1001
0000
,
0100
0100
0100
0000
0010
0010
0010
0000
,
0100
1000
0100
0010
0100
1000
0100
0000
,
0010
0001
0100
0000
0010
0010
0010
0000
,
0100
0001
0010
0001
0100
0001
0010
0000
,
0001
0100
0001
0000
0100
0100
0100
0000
,
0010
1000
0010
0100
0010
1000
0010
0000
,
1000
0100
1000
0000
0100
0100
0100
0000
,
0010
0100
1000
0100
0010
0100
1000
0000
,
0010
1000
0010
0100
0010
0010
0010
0000
,
0100
0001
0000
0001
0010
0001
0000
0001
,
0100
0001
0000
0001
1000
0001
0000
0001
,
0100
0001
0000
0001
0010
0001
0000
0001
,
0100
0001
0000
0001
0010
0001
0000
0001
,
0100
0010
0000
0010
1000
0010
0000
0010
,
0100
0010
0000
0010
0001
0010
0000
0010
,
0100
0010
0000
0010
1000
0010
0000
0010
,
0100
0000
0100
0000
0010
0100
0010
0100
,
0001
0010
0001
0010
0001
0001
0100
0000
,
0010
0100
0010
0000
1000
0001
1000
0000
,
0100
1000
0100
1000
0100
0100
0010
0000
,
0100
0010
0100
0000
1000
1000
0001
0000
,
0100
0001
0100
0001
0100
0100
0010
0000
,
0100
0001
0010
0000
0001
0010
0001
0000
,
1000
0010
0100
0010
1000
1000
0100
0000
,
1000
0001
1000
0000
0001
0010
0100
0000
;

//---------------dance-single - ----------------
#NOTES:
     dance-single:
     :
     Hard:
     9:
     0.692,0.749,0.150,0.000,0.702:
1000
0000
0000
1000
0000
0000
1000
0000
0000
0000
0100
0000
0000
0100
0000
0000
,
1000
0000
0000
1000
0000
0000
1000
0000
0000
0000
0001
0000
0000
0001
0000
0000
,
0010
0000
0000
0010
0000
0000
0010
0000
0000
0000
0100
0000
0100
0010
0100
0000
,
0010
0000
0000
0010
0000
0000
0010
0000
0000
0000
0001
0000
0000
0001
0000
0000
,
0100
0000
0000
0100
0000
0000
0100
0000
0000
0000
1000
0000
0000
1000
0000
0000
,
0100
0000
0000
0100
0000
0000
0100
0000
0000
0000
0001
0000
0000
0001
0000
0000
,
0010
0000
0000
0010
0000
0000
0010
0000
0000
0000
0100
0000
0100
0010
0100
0000
,
0010
0000
0000
0010
0000
0000
0010
0000
0000
0000
0001
0000
0000
0001
0000
0000
,
0100
0000
0000
0010
0000
0000
0100
0000
0000
0000
0001
0000
0001
1000
0000
0000
,
0100
0000
0000
0100
0000
0000
0100
0000
0010
0000
0010
0000
0100
0010
0000
0000
,
0001
0000
0000
0001
0000
0000
0001
0000
0000
0000
0100
0000
0100
0010
0100
0000
,
0010
0000
0000
0010
0000
0000
0010
0000
1000
0000
0100
0000
0001
0000
0100
0000
,
1000
0010
1000
0010
0100
0010
0100
0000
0010
0000
1000
0000
0100
0010
0000
0000
,
0100
0000
0010
0100
0010
0000
0100
0000
1000
0010
1000
0000
0010
0100
0010
0100
,
0001
0000
0010
0001
0000
0100
0001
0000
0010
0001
0010
0100
0010
0100
0000
0000
,
0010
0100
0000
1000
0100
0000
0010
0100
0000
1000
0010
0000
0100
0000
0000
0000
,
0010
0000
0000
0010
0000
0000
0010
0000
0000
0000
1000
0000
0000
1000
0000
0000
,
0001
0000
0010
0001
0010
0000
0001
0000
0000
0000
0100
0000
0000
0100
0000
0000
,
0010
0000
0000
0010
0000
0000
0010
0000
0000
0000
0100
0000
0100
0001
0100
0000
,
0001
0000
1000
0001
0000
1000
0001
0000
0010
0100
0010
0000
0001
0000
0100
0000
,
0010
0000
0000
0010
0100
0000
0001
0000
0000
0000
0010
0000
0000
0001
0000
0000
,
0001
0000
1000
0001
0000
1000
0001
0000
1000
0000
0010
0100
0000
0010
0100
0000
,
0001
0000
0000
0001
0000
0000
0001
0000
0000
0000
0010
0000
0010
0100
0010
0000
,
0010
0000
0001
0010
0000
0001
0000
0000
1000
0000
0010
1000
0000
0010
0000
0000
,
0100
0000
0000
0100
0000
0000
0100
0000
0000
0000
0010
0000
0000
0010
0000
0000
,
1000
0001
1000
0001
0000
1000
0001
0000
0010
0000
0100
0010
0000
0010
0100
0000
,
1000
0000
0000
1000
0000
0000
1000
0000
0000
0000
0001
0000
0001
1000
0001
0000
,
0100
0000
0001
0100
0000
0001
0100
0000
0001
0000
1000
0100
0000
1000
0100
0000
,
0010
0000
0100
0010
0000
0000
0100
0000
1000
0010
1000
0000
0010
0100
0000
0010
,
0100
0000
0001
0000
0010
0001
0010
0000
0001
0000
0100
0000
0010
0000
0000
0000
,
0100
0000
0100
0000
0010
0000
0000
0000
0100
0010
0100
0010
1000
0000
1000
0100
,
1000
0100
0010
0100
1000
0001
0001
0000
,
0100
0000
0010
0100
0010
0000
0100
0000
0001
0000
0010
0001
0010
0001
0000
0000
,
0100
0000
0010
0100
0010
0100
0010
0000
1000
0000
0001
0000
0010
0000
0000
0000
,
0100
0000
0000
0010
0100
0000
0010
0000
0000
0000
0100
0000
0100
0010
0100
0000
,
1000
0001
0100
0001
1000
0000
1000
0000
0100
0000
0010
0000
0110
0000
0000
0000
,
1000
0000
0100
0000
1000
0000
0100
0000
0000
0000
0010
0000
0000
0010
0000
0000
,
0001
0000
0100
0000
0001
0000
0100
0000
0000
0000
0010
0000
0000
0010
0000
0000
,
0100
0000
0001
0000
1000
0000
0001
0000
0000
0000
0010
0000
0010
0100
0010
0000
,
0100
0000
1000
0000
0010
0000
1000
0000
0000
0000
0001
0000
0000
0001
0000
0000
,
0100
0000
0010
0000
0100
0000
0001
0000
0000
0000
0010
0000
0000
0010
0000
0000
,
0100
0000
0010
0000
0001
0000
0100
0000
0000
0000
0010
0000
0000
0010
0000
0000
,
0110
0000
0001
1000
1001
0000
0100
0010
,
0100
0000
0100
0000
0100
0000
0100
0000
0010
1000
0010
0100
0010
1000
0100
0000
,
0010
0100
0010
0000
0100
1000
0100
0000
0010
0000
0100
0010
0100
0000
0010
0000
,
0001
0100
0010
0100
0001
0000
0010
0000
0100
0000
0010
0000
0110
0000
0100
0000
,
0000
0000
1000
0100
1000
0100
0000
1000
0010
0000
0100
0000
0010
0100
0001
0100
,
0010
0000
1000
0100
0010
0000
0100
0000
1000
0000
0001
0000
1001
0000
0100
0000
,
0001
0000
0010
0001
0010
0000
0001
0100
0010
0100
0001
0000
0010
0100
1000
0100
,
0010
0100
1000
0001
0100
0010
0100
0000
0001
0000
1000
0000
1001
0000
1000
0100
,
1000
0010
0100
0001
0010
0001
0100
0001
0010
0000
0010
0100
0000
0010
0100
0000
,
0010
0000
0001
1000
0000
0001
1000
0000
0010
0000
0100
0010
0000
0100
0010
0000
,
1000
0100
0110
0010
0100
1000
1001
0001
,
0100
0010
0110
0100
0001
0010
0011
0001
,
1000
0000
0100
1000
0100
1000
0000
0010
0000
0000
0010
0000
0100
0000
0100
0000
,
0001
0010
0011
0001
1000
0100
1100
1000
,
0010
0100
1001
0100
0010
0001
0101
0010
,
1000
0100
0011
0100
0010
0100
0101
1000
,
0100
0010
1100
0001
0100
0010
0101
0001
,
0010
0100
0010
0100
1000
0001
1000
0001
0100
0010
1000
0100
0010
0000
0100
0000
,
1000
0000
0010
0100
0010
1000
0001
0010
0001
0100
0001
0000
0001
0000
1000
0010
,
0100
0000
0001
0010
0001
0100
0001
0010
0100
0000
1000
0000
1000
0000
0001
0000
,
0100
0000
0001
0010
0100
0010
0001
0100
0010
0100
0010
0100
0001
1000
0001
1000
,
0100
1000
0010
0100
0001
0010
0001
0000
0100
0000
0100
0000
0110
0000
0010
0000
,
1000
0100
1000
0000
0010
0100
0001
0100
0010
1000
0100
0010
0100
0000
1000
0100
,
0010
0000
0100
1000
0010
0000
0100
0001
0010
0001
0100
0000
0001
0000
0010
0100
,
0010
0001
0100
0000
1000
0000
0100
0010
0100
0001
0010
0000
0100
1000
0100
0010
,
0100
1000
0100
1000
0010
1000
0010
0100
0001
0010
0100
1000
0010
0000
0000
0000
;
