#TITLE:Dance In The Dark;
#SUBTITLE:;
#ARTIST:Lady Gaga;
#TITLETRANSLIT:;
#SUBTITLETRANSLIT:;
#ARTISTTRANSLIT:;
#CREDIT:;
#BANNER:;
#BACKGROUND:;
#LYRICSPATH:;
#CDTITLE:;
#MUSIC:Dance In The Dark2.mp3;
#OFFSET:-0.420;
#SAMPLESTART:100.000;
#SAMPLELENGTH:12.000;
#SELECTABLE:YES;
#BPMS:0.000=121.000;
#STOPS:;
#BGCHANGES:;

//---------------dance-single - ----------------
#NOTES:
     dance-single:
     :
     Beginner:
     1:
     0.067,0.134,0.000,0.000,0.000:
0000
0000
0000
0000
,
0000
0000
0000
0000
,
0000
0000
0000
0000
,
0000
0000
0000
0000
,
0000
0000
0000
0000
,
0000
0000
0000
0000
,
0000
0000
0000
0000
,
0000
0000
0000
0000
,
0001
0000
0000
0000
,
0000
0000
0000
0000
,
1000
0000
0000
0000
,
0000
0000
0000
0000
,
0010
0000
0000
0000
,
0000
0000
0000
0000
,
0100
0000
0000
0000
,
0000
0000
0000
0000
,
0001
0000
0000
0000
,
0100
0000
0000
0000
,
0010
0000
0000
0000
,
0001
0000
0000
0000
,
0001
0000
0000
0000
,
0010
0000
0000
0000
,
0100
0000
0000
0000
,
1000
0000
0000
0000
,
1000
0000
0001
0000
,
1000
0000
0000
0000
,
0001
0000
0100
0000
,
0001
0000
0000
0000
,
1000
0000
0100
0000
,
1000
0000
0000
0000
,
0010
0000
0100
0000
,
0010
0000
0000
0000
,
1000
0000
0000
0000
,
0001
0000
0000
0000
,
1000
0000
0000
0000
,
0001
0000
0000
0000
,
0010
0000
0000
0000
,
0100
0000
0000
0000
,
0010
0100
0010
0000
,
1000
0000
0001
0000
,
1000
0000
0000
0000
,
1000
0000
0100
0000
,
0010
0000
0000
0000
,
0001
0000
0010
0000
,
0100
0000
0000
0000
,
1000
0000
0000
0000
,
0001
0000
0000
0000
,
0010
0000
0100
0000
,
0010
0000
0000
0000
,
1000
0000
0001
0000
,
0010
0000
0000
0000
,
0001
0000
0010
0000
,
0100
0000
0000
0000
,
1000
0000
0000
0000
,
0001
0000
0000
0000
,
0001
0000
0001
0000
,
1000
0000
1000
0000
,
0000
0000
0000
0000
,
0100
0000
0000
0000
,
1000
0000
0100
0000
,
0010
0000
0001
0000
,
0000
0000
0000
0000
,
1000
0000
0000
0000
,
0100
0000
0000
0000
;

//---------------dance-single - Copied from----------------
#NOTES:
     dance-single:
     Copied from:
     Easy:
     4:
     0.179,0.270,0.078,0.106,0.000:
0000
0000
0000
0000
,
0000
0000
0000
0000
,
0000
0000
0000
0000
,
0000
0000
0000
0000
,
0000
0000
0000
0000
,
0000
0000
0000
0000
,
0000
0000
0000
0000
,
0000
0000
0000
0000
,
1000
0000
0000
0000
,
0001
0000
0000
0000
,
0100
0000
0000
0000
,
0010
0000
0000
0000
,
0001
0000
0000
0000
,
0001
0000
0000
0000
,
1000
0000
0000
0000
,
1000
0100
0010
0000
,
0001
0010
0001
0000
,
1000
0100
1000
0000
,
0100
0010
0100
0000
,
0001
0010
0001
0000
,
0001
0000
0001
0000
,
0001
0000
0110
0000
,
1000
0000
1000
0000
,
1000
0000
1001
0000
,
0100
0000
1000
0100
,
0010
0000
1000
0000
,
0001
0000
0001
0010
,
0100
0000
0010
0000
,
0100
0000
1000
0001
,
1000
0000
0100
0000
,
0002
0003
2000
3000
,
1000
0100
0010
0001
,
2000
3000
0100
0000
,
0002
0003
0010
0000
,
0200
0300
0010
0000
,
0020
0030
0100
1000
,
0002
0000
1003
0000
,
2000
0000
3001
0000
,
1000
1000
0001
0001
,
1000
0100
0001
0100
,
2000
3100
0020
0031
,
0001
0010
1000
0010
,
0002
0013
0200
1300
,
0001
0100
0010
1000
,
0020
0031
0200
1300
,
0110
0000
1001
0000
,
0001
0001
1000
1000
,
0110
1000
0010
0001
,
1001
0100
1001
0010
,
1001
0000
0001
0100
,
0110
1000
0110
0001
,
0110
0000
0001
0010
,
1000
0100
0001
0010
,
1000
0000
0001
0000
,
0001
0000
1000
0000
,
0100
0010
1000
0001
,
1000
1000
0001
0001
,
0010
0000
1000
0000
,
0001
0000
0010
0000
,
1000
0100
0010
0001
,
0010
0100
0010
0100
,
1000
0000
0001
0000
,
1000
0100
0010
0001
,
0020
0000
0030
0000
;

//---------------dance-single - Copied from Copied f----------------
#NOTES:
     dance-single:
     Copied from Copied f:
     Medium:
     7:
     0.265,0.315,0.156,0.135,0.000:
0000
0000
0000
0000
,
0000
0000
0000
0000
,
0000
0000
0000
0000
,
0000
0000
0000
0000
,
0000
0000
0000
0000
,
0000
0000
0000
0000
,
0000
0000
0000
0000
,
0000
0000
0000
0000
,
1000
0000
0100
0000
,
0001
0000
1000
0000
,
0100
0000
0100
0000
,
0010
0000
0010
0000
,
0001
0000
0100
0000
,
0001
0000
0010
0000
,
1000
0000
0001
0000
,
0001
0100
0010
1000
,
0100
0000
0010
0000
0001
0010
0100
0000
,
1000
0000
0001
0010
1000
0000
0010
0000
,
1000
0000
0010
0000
0100
1000
0001
0000
,
0001
0000
1000
0100
0001
0000
1000
0000
,
0200
0000
0301
0000
1000
0000
0010
0001
,
0000
0010
0001
0010
,
0020
0000
1030
0000
0001
0000
0010
0100
,
0000
1000
0100
0010
,
0001
2000
3100
0002
,
0013
0000
0010
0000
1000
0100
0010
0000
,
0001
1000
0001
0010
,
0001
1000
0010
0100
,
1000
0020
0130
0200
,
0310
0000
1000
0000
0100
0000
0010
1000
,
0010
0010
0100
0100
,
0010
0100
1000
0001
,
0020
0130
1000
0100
,
0200
0310
0001
0010
,
2000
3001
1000
0001
,
0002
1003
0001
1000
,
1010
0001
0010
0100
,
0101
0100
1000
0001
,
1000
0001
1000
0000
0001
1000
0001
0000
,
0010
0000
0100
0000
1000
0100
0001
0000
,
1100
0110
0011
1001
,
0000
0000
0001
0000
0010
0100
1000
0000
,
0110
0011
0101
1100
,
0000
0000
0001
0000
1000
0001
1000
0000
,
1010
0011
0101
1010
,
0000
1000
0010
0001
,
0010
0100
0010
0000
0100
0010
0100
0000
,
1001
0000
0000
0000
0001
0100
1000
0000
,
2000
3020
0032
0203
,
0300
0000
0000
0000
1000
0001
0100
0000
,
0002
0203
0320
2030
,
3000
0000
0000
0000
0010
0001
0010
0000
,
0100
0000
0001
1000
0010
0000
0010
0000
,
1000
0000
0100
0010
0001
0000
0000
0000
,
1100
0101
1010
0100
,
0001
0000
1000
0000
0100
0000
0001
0100
,
1000
0000
0001
0000
0100
0000
1000
0100
,
0001
1000
0010
0100
,
0001
0000
0100
0000
0010
0000
0100
0001
,
1000
0000
0100
0000
0010
0000
0001
1000
,
0010
0000
1000
0000
0100
0000
0001
1000
,
0010
0100
0001
0010
,
1100
0101
1100
0101
,
2000
0000
3000
0000
;

//---------------dance-single - Copied from Copied from Copied f----------------
#NOTES:
     dance-single:
     Copied from Copied from Copied f:
     Hard:
     9:
     0.365,0.450,0.021,0.283,0.106: // measure 1
0000
0000
0000
0000
,  // measure 2
0000
0000
0000
0000
,  // measure 3
0000
0000
0000
0000
,  // measure 4
0000
0000
0000
0000
,  // measure 5
0000
0000
0000
0000
,  // measure 6
0000
0000
0000
0000
,  // measure 7
0000
0000
0000
0000
,  // measure 8
0000
0000
0000
0000
,  // measure 9
1000
0000
0001
0000
0100
0000
0010
0010
,  // measure 10
0100
0000
1000
0000
0001
0000
0001
0001
,  // measure 11
0100
0000
1000
0000
0100
0000
0010
0010
,  // measure 12
0001
0000
1000
0000
0010
0000
1000
1000
,  // measure 13
0100
0000
0100
0000
0001
0000
1000
0001
,  // measure 14
0010
0000
0100
0000
1000
0000
0100
0010
,  // measure 15
0001
0000
0010
0000
0001
0010
0000
1000
,  // measure 16
0000
0100
0000
0010
0000
0001
0000
0010
,  // measure 17
2000
3100
0010
0000
0100
0010
0100
0000
,  // measure 18
0002
0013
0100
0010
1000
0000
0010
0000
,  // measure 19
0200
0310
0001
0000
0001
1000
0001
0000
,  // measure 20
0200
0310
1000
0100
0001
0000
1000
0001
,  // measure 21
0200
0000
0301
0000
1000
0000
0010
0100
,  // measure 22
0000
0001
0000
1000
0000
0000
0001
0100
,  // measure 23
2000
0000
3001
0000
0001
0000
0010
0100
,  // measure 24
0000
0001
0000
1000
0000
0100
0000
0010
,  // measure 25
0001
0000
0001
0000
0200
0300
1000
0000
,  // measure 26
0020
0030
0001
0100
1000
0100
0010
0000
,  // measure 27
0001
0000
0100
0000
0010
0000
1000
0001
,  // measure 28
0001
0100
1000
0001
,  // measure 29
0100
0000
1000
0000
0002
0003
1000
0200
,  // measure 30
0300
0000
1000
0010
0100
0000
0010
1000
,  // measure 31
0002
0003
0002
0003
2000
3000
2000
3000
,  // measure 32
0001
0001
1000
1000
0010
0010
0100
0100
,  // measure 33
0020
0000
0130
0000
1000
0000
1000
0100
,  // measure 34
2000
0000
3001
0000
0100
0000
1000
0001
,  // measure 35
0200
0000
0301
0000
1000
0000
1000
0100
,  // measure 36
0002
0000
1003
0000
0100
0000
0001
0010
,  // measure 37
0002
0000
0103
0000
0010
0000
0001
0100
,  // measure 38
0020
1030
0001
0001
,  // measure 39
1000
0001
1000
0001
1000
0000
0000
0000
0001
1000
0001
1000
0001
1000
0001
0000
,  // measure 40
0200
0300
0010
0000
1000
0100
0001
0100
,  // measure 41
1000
0100
0000
0000
0100
0010
0000
0000
0001
0010
0000
0000
0010
0000
0100
0000
,  // measure 42
0020
0030
0001
0000
0001
0100
1000
0100
,  // measure 43
0001
1000
0000
0000
1000
0100
0000
0000
0100
0010
0000
0000
0010
0000
0001
0000
,  // measure 44
0200
0300
0001
0000
0001
0010
0100
1000
,  // measure 45
0010
0100
0000
0000
0100
0010
0000
0000
0001
0010
0000
0000
1000
0000
0100
0000
,  // measure 46
1000
0000
0100
0020
0000
0032
0000
0003
,  // measure 47
1000
0100
1000
0000
1000
0000
0000
0000
0001
0100
0001
0100
0001
0000
0001
0000
,  // measure 48
1001
0000
0000
0000
0100
0010
1000
0001
,  // measure 49
0020
0130
0000
0000
0200
1300
0000
0000
2000
3100
0000
0000
0200
0310
0000
0000
,  // measure 50
1001
0000
0000
0000
1000
0001
0100
0010
,  // measure 51
0002
0013
0000
0000
0020
0130
0000
0000
0200
1300
0000
0000
2000
0000
3100
0000
,  // measure 52
0011
0000
0000
0000
1000
0100
0010
0001
,  // measure 53
1000
0000
0001
1000
0001
0010
0100
0001
,  // measure 54
0000
0000
1000
0001
0000
1000
0000
0010
,  // measure 55
1000
0000
1000
0000
0001
0000
0001
0000
1000
0100
1000
0010
1000
0000
0001
0010
,  // measure 56
0002
0000
0013
0000
0100
0000
0010
0100
,  // measure 57
2000
0000
3001
0000
1000
0000
0001
0010
,  // measure 58
0200
0000
0310
0001
0000
1000
0000
0100
,  // measure 59
0000
0001
0000
0100
0000
1000
0000
0001
,  // measure 60
2000
0000
3100
0000
0001
0000
0100
1000
,  // measure 61
0002
0000
0103
0000
1000
0000
0001
0010
,  // measure 62
0002
0000
0103
0010
0000
1000
0000
0001
,  // measure 63
0100
0000
0100
0000
0010
0000
0010
0000
0100
0010
0001
1000
0000
0000
1000
0100
,  // measure 64
0002
0000
0003
0000
;
