#TITLE:Born This Way;
#SUBTITLE:;
#ARTIST:Lady Gaga;
#TITLETRANSLIT:;
#SUBTITLETRANSLIT:;
#ARTISTTRANSLIT:;
#CREDIT:;
#BANNER:Born This Way -bn.png;
#BACKGROUND:Born This Way -bg.png;
#LYRICSPATH:;
#CDTITLE:./CDTITLES/;
#MUSIC:Born This Way.mp3;
#OFFSET:-19.520;
#SAMPLESTART:57.500;
#SAMPLELENGTH:16.000;
#SELECTABLE:YES;
#BPMS:0.000=124.000;
#STOPS:;
#BGCHANGES:;

//---------------dance-single - ----------------
#NOTES:
     dance-single:
     :
     Beginner:
     1:
     0.073,0.084,0.000,0.000,0.000:
1000
0000
0000
0000
,
0001
0000
0000
0000
,
0010
0000
0000
0000
,
0100
0000
0000
0000
,
1000
0000
0000
0000
,
1000
0000
0000
0000
,
0001
0000
0000
0000
,
0001
0000
0000
0000
,
0001
0000
1000
0000
,
0001
0000
0000
0000
,
0100
0000
0010
0000
,
0100
0000
0000
0000
,
1000
0000
0000
0000
,
0010
0000
0000
0000
,
0100
0000
0000
0000
,
0001
0000
0000
0000
,
1000
0000
0001
0000
,
1000
0000
0000
0000
,
0001
0000
0010
0000
,
0001
0000
0000
0000
,
1000
0000
0000
0000
,
0010
0000
0000
0000
,
0001
0000
0000
0000
,
0100
0000
0000
0000
,
0100
0000
0010
0000
,
0001
0000
0000
0000
,
0001
0000
0010
0000
,
1000
0000
0000
0000
,
1000
0000
0000
0000
,
0001
0000
0000
0000
,
0001
0000
0000
0000
,
1000
0000
0000
0000
,
0010
0000
1000
0000
,
0001
0000
0000
0000
,
0001
0000
0010
0000
,
1000
0000
0000
0000
,
1000
0000
0000
0000
,
0001
0000
0000
0000
,
0010
0000
0000
0000
,
0100
0000
0000
0000
,
0001
0000
0100
0000
,
1000
0000
0000
0000
,
0100
0000
1000
0000
,
0010
0000
0000
0000
,
0100
0000
0000
0000
,
0100
0000
0000
0000
,
0010
0000
0000
0000
,
0010
0000
0000
0000
,
1000
0000
0000
0000
,
1000
0000
0000
0000
,
0001
0000
0000
0000
,
0001
0000
0000
0000
;

//---------------dance-single - ----------------
#NOTES:
     dance-single:
     :
     Easy:
     4:
     0.151,0.191,0.016,0.090,0.000:
1000
0000
0000
0000
,
0001
0000
0000
0000
,
1000
0000
0000
0000
,
0001
0000
0000
0000
,
0100
0000
1000
0000
,
0001
0000
0100
0000
,
0010
0000
0001
0000
,
1000
0100
0010
0000
,
0100
0000
1000
0000
,
0001
0000
1000
0000
,
0100
0000
1000
0000
,
2000
3001
0002
1003
,
1000
0000
0001
0000
,
1000
0000
0001
0000
,
0010
0100
1000
0000
,
0100
0000
1000
0000
,
0001
0000
1000
0000
,
0001
0000
0010
0000
,
0001
0010
0100
1000
,
0200
0300
0000
1000
,
0010
0100
0001
0000
,
0010
1000
0100
0000
,
0100
0001
0100
0000
,
1001
0001
1000
0000
,
0010
0100
0001
0000
,
0100
0010
1000
0000
,
1000
0001
0010
0000
,
0110
0010
0010
0000
,
0001
1000
0002
0003
,
1000
0001
2000
3000
,
0010
0000
0100
0000
,
0010
0000
0001
0000
,
0010
0100
0020
0030
,
0100
0010
0200
0300
,
0100
1000
0001
0000
,
1000
0000
0001
0000
,
1000
0100
0010
0000
,
0001
0010
0100
0000
,
1000
0000
0010
0000
,
0100
0000
0001
0000
,
0001
1000
0001
0000
,
1000
0001
1000
0000
,
0100
0000
0010
0000
,
0100
0000
0010
0000
,
2000
0000
3000
0000
,
0001
0000
0000
0000
,
0002
0000
0003
0000
,
1000
0000
0000
0000
,
0200
0000
0300
0000
,
0010
0000
0000
0000
,
0020
0000
0030
0000
,
0100
0000
0000
0001
;

//---------------dance-single - ----------------
#NOTES:
     dance-single:
     :
     Medium:
     8:
     0.228,0.275,0.025,0.074,0.000: // measure 1
0001
0000
1000
0000
,  // measure 2
0001
0000
1000
0000
,  // measure 3
1000
0100
0001
0000
,  // measure 4
0001
0100
1000
0000
,  // measure 5
0010
0000
1000
0000
,  // measure 6
0001
0000
0100
0000
,  // measure 7
1000
0000
0000
0000
0001
0010
0100
0000
,  // measure 8
2000
3020
0230
0302
,  // measure 9
1003
0000
0010
0000
,  // measure 10
0100
0000
0001
0000
,  // measure 11
0010
0000
0000
0000
0001
1000
1000
0000
,  // measure 12
0010
0010
0010
0010
,  // measure 13
1001
0000
0010
0000
0001
0000
0010
0100
,  // measure 14
1000
0010
0100
0000
,  // measure 15
0001
0100
0010
0000
0100
0000
0001
0000
,  // measure 16
1000
0100
0010
0001
,  // measure 17
0100
0000
0010
0100
1000
0000
0100
0010
,  // measure 18
0001
1000
0001
0000
,  // measure 19
0001
0000
1000
0000
0001
0010
0100
0000
,  // measure 20
0020
0000
0000
0000
0030
0100
0001
0000
,  // measure 21
1000
0010
0100
0000
0010
0000
0001
0000
,  // measure 22
1000
0001
1000
0000
0010
0001
0100
0000
,  // measure 23
1000
0000
0001
0000
0100
1000
0100
0000
,  // measure 24
0001
0000
0000
1000
0000
0001
1000
0000
,  // measure 25
0010
0001
1000
0000
0001
0000
1000
0000
,  // measure 26
0010
0100
0010
0000
0100
0000
1000
0010
,  // measure 27
1000
0100
1000
0100
,  // measure 28
0010
0100
0010
0000
1001
0000
1001
0000
,  // measure 29
0001
1000
0001
0000
1000
0000
0100
0000
,  // measure 30
1000
0001
1000
0000
0001
0000
0010
0000
,  // measure 31
1000
0010
0100
0000
0010
0000
0001
0000
,  // measure 32
1000
0000
0001
0000
,  // measure 33
0001
1000
0001
0001
,  // measure 34
1000
0001
0001
1000
,  // measure 35
0010
0000
0100
0000
0010
0000
0001
1000
,  // measure 36
0001
0000
0010
0100
0000
0000
0001
0000
,  // measure 37
1000
0000
1000
0001
0000
0000
1000
0000
,  // measure 38
0001
0000
0001
1000
0000
0000
0100
0000
,  // measure 39
0001
0010
1000
0100
,  // measure 40
0010
0000
0100
0010
0000
0000
1000
0000
,  // measure 41
0001
0000
1000
0001
0000
0000
0001
0000
,  // measure 42
1000
0000
0001
1000
0000
0000
0010
0000
,  // measure 43
0100
1000
0010
0001
,  // measure 44
0100
0000
1000
0001
0000
0000
0000
0000
,  // measure 45
0200
0000
0300
0000
,  // measure 46
0001
0000
0000
0000
,  // measure 47
0020
0000
0030
0000
,  // measure 48
1000
0000
0000
0000
,  // measure 49
2000
0000
3000
0000
,  // measure 50
0001
0000
0000
0000
,  // measure 51
0002
0000
0003
0000
,  // measure 52
1000
0000
0000
0100
0000
0000
0001
0000
;

//---------------dance-single - ----------------
#NOTES:
     dance-single:
     :
     Hard:
     9:
     0.322,0.424,0.115,0.180,0.020:
1000
0100
0001
0100
,
1000
0010
0001
0010
,
1000
1000
0001
0001
,
2000
3000
0020
0030
0200
0300
0002
0003
,
1000
0010
1000
0010
,
0001
1000
0100
0001
,
1000
0000
1000
0100
0001
0100
1000
0000
,
2000
0000
0000
0000
3200
0000
0320
0000
0032
0000
0203
0000
0300
0001
0000
0000
,
1000
0001
1000
0001
0010
0000
1000
0010
,
0100
1000
1001
0000
,
0100
0010
1000
0000
0010
0001
1000
0000
,
0000
2000
3200
0320
0032
0023
0230
0300
,
1001
0000
0010
0000
0001
0000
0010
0100
,
1000
0001
0010
0001
0000
0100
0010
0000
,
1000
0001
0100
0000
0011
0000
1100
0000
,
1000
1000
0001
0001
1000
0010
0100
0001
,
0000
1000
0010
0100
1000
0000
0001
0010
,
0001
0000
1000
0001
0000
0001
1000
0000
,
0001
0010
1000
0100
0001
0010
0100
0000
,
0200
0000
0010
0010
0000
0000
0010
0000
0300
0000
0010
0000
0001
0000
0010
0000
,
1000
0010
0001
0000
1000
0000
0100
0001
,
0010
0000
1001
0000
0001
0100
1000
0000
,
1100
0000
0101
0000
0001
0010
0100
0000
,
0001
0000
0010
1000
0000
0100
1000
0100
,
1000
0001
1000
0000
0001
0000
1000
0100
,
0010
0100
0000
0010
0100
0000
1000
0010
,
1001
1001
1001
0100
,
0001
1000
0001
1000
0010
0000
0010
0000
,
1000
0000
0100
0000
1000
0000
0000
0000
1000
0000
0000
1100
0000
0000
0000
0000
,
0001
0000
0010
0000
0001
0000
0000
0000
0001
0000
0000
0011
0000
0000
0000
0000
,
1000
0000
0010
0000
0100
0000
0001
0000
1000
0000
0000
0001
0000
0000
2000
0000
,
0000
3000
1001
1001
,
0001
1000
0001
0001
,
1000
0001
1000
1000
,
0010
0000
0100
0000
0010
1000
0100
0010
,
0100
0000
0010
0100
0000
0000
0001
0000
,
1000
0100
0001
0100
,
1000
0100
0001
0100
,
1000
0000
0010
0000
1000
0010
0100
0001
,
0010
0000
0100
0010
0000
0000
2000
3000
,
0001
0010
1000
0010
,
0001
0010
1000
0010
,
0001
0000
1000
0000
0010
1000
0001
0010
,
0100
0000
1000
0001
0000
0000
0000
0000
,
0200
0000
0000
0000
,
0301
0000
0000
0010
0000
0000
1000
0000
,
0020
0000
0000
0000
,
1030
0000
0000
0100
0000
0000
0001
0000
,
2000
0000
0000
0000
,
3010
0000
0000
0100
0000
0000
1000
0000
,
0002
0000
0000
0000
,
0103
0000
0000
0010
0000
0000
0001
0000
;
