#TITLE:Alejandro;
#SUBTITLE:;
#ARTIST:Lady Gaga;
#TITLETRANSLIT:;
#SUBTITLETRANSLIT:;
#ARTISTTRANSLIT:;
#CREDIT:;
#BANNER:;
#BACKGROUND:;
#LYRICSPATH:;
#CDTITLE:;
#MUSIC:Alejandro - Lady Gaga.mp3;
#OFFSET:0.000;
#SAMPLESTART:100.000;
#SAMPLELENGTH:12.000;
#SELECTABLE:YES;
#BPMS:0.000=99.000;
#STOPS:;
#BGCHANGES:;

//---------------dance-single - ----------------
#NOTES:
     dance-single:
     :
     Beginner:
     1:
     0.060,0.077,0.000,0.000,0.000:
0000
0000
0000
0000
,
0000
0000
0000
0000
,
0000
0000
0000
0000
,
0000
0000
0000
0000
,
0010
0000
0000
0000
,
0100
0000
0000
0000
,
0010
0000
0000
0000
,
0100
0000
0000
0000
,
0001
0000
0000
0000
,
1000
0000
0000
0000
,
0010
0000
0000
0000
,
0001
0000
0000
0000
,
0100
0000
0000
0000
,
1000
0000
0000
0000
,
0001
0000
0000
0000
,
1000
0000
0000
0000
,
0001
0000
1000
0000
,
0001
0000
0000
0000
,
1000
0000
0001
0000
,
1000
0000
0000
0000
,
0100
0000
0000
0000
,
0001
0000
0000
0000
,
1000
0000
0000
0000
,
0001
0000
0000
0000
,
1000
0000
0010
0000
,
1000
0000
0000
0000
,
0001
0000
0100
0000
,
0001
0000
0000
0000
,
1000
0000
0000
0000
,
0001
0000
0000
0000
,
0010
0000
0000
0000
,
0100
0000
0000
0000
,
1000
0000
0000
0000
,
1000
0000
0000
0000
,
0001
0000
0000
0000
,
0001
0000
0000
0000
,
0010
0000
0100
0000
,
0010
0000
0000
0000
,
0001
0000
1000
0000
,
0001
0000
0000
0000
,
0100
0000
0000
0000
,
0010
0000
0000
0000
,
0100
0000
0010
0000
,
0100
0000
0000
0000
,
0001
0000
0000
0000
;

//---------------dance-single - ----------------
#NOTES:
     dance-single:
     :
     Easy:
     4:
     0.180,0.212,0.061,0.044,0.000:
0001
0000
0000
0000
,
1000
0000
0000
0000
,
0010
0000
0100
0000
,
0010
0000
0000
0000
,
1001
0000
1000
0001
,
1000
0000
0010
0100
,
0010
0000
0001
0100
,
1000
0000
1000
0100
,
0010
0000
1000
0000
,
0001
0000
0100
0000
,
0010
0000
0100
0001
,
1000
0000
0100
0000
,
0001
0000
1000
0000
,
0010
0000
0010
0000
,
0100
0000
0100
0010
,
0001
0000
0001
0000
,
1000
0001
0100
0000
,
0010
0100
0001
0000
,
1000
0100
0001
0000
,
0001
0100
1000
0000
,
0020
0030
0100
0001
,
1000
0100
0010
1000
,
0200
0300
0010
0001
,
1000
0100
0010
0100
,
2000
3100
0002
0013
,
1000
0010
0001
0010
,
2000
3000
0100
1000
,
0001
0100
0010
1000
,
0101
0000
0100
1000
,
0100
0010
1000
0001
,
1100
0000
0001
0001
,
1000
0100
0010
1000
,
0011
0000
0001
0100
,
1000
0100
0010
1000
,
1010
0000
1000
0100
,
0010
1000
0001
0000
,
1001
0100
0010
0000
,
0010
0100
1000
0000
,
0001
0010
0100
0000
,
1000
0100
0010
0000
,
1000
0100
0001
0010
,
1000
0100
0001
0001
,
0100
1000
0010
0100
,
0010
0100
1000
1000
,
1001
0000
0000
0000
;

//---------------dance-single - ----------------
#NOTES:
     dance-single:
     :
     Medium:
     7:
     0.291,0.272,0.017,0.122,0.000:
1000
0001
0010
0001
,
1000
0100
1000
0010
,
0100
0001
0000
1000
,
0000
0001
0000
1000
,
1001
0000
1000
0100
0010
0000
0001
0010
,
0100
0000
0001
0010
0001
0000
1000
0100
,
1000
0000
1000
0001
1000
0000
0001
1000
,
0002
0003
1000
0001
,
0010
0000
0100
0000
1000
0000
1000
0100
,
0010
0000
0001
0000
0010
0000
0001
0010
,
0001
0000
1000
0000
0100
0000
1000
0100
,
1000
0000
0010
0000
0100
0000
0001
0010
,
0100
0000
1000
0000
0001
0000
0010
0100
,
1000
0000
0001
0000
0100
0000
0010
0001
,
0010
0000
1000
0000
0100
0000
0010
0100
,
0001
0000
1000
0000
0001
1000
0001
0000
,
0001
0010
0100
0000
1000
0100
0010
0000
,
1000
0000
0001
0000
0010
0100
1000
0000
,
1000
0100
0010
0000
0010
0100
0010
0000
,
0100
0000
0001
0000
0000
0100
0100
0100
,
1001
0000
1000
0100
0010
0000
0000
0001
,
0100
0000
0200
0300
0000
0010
0100
1000
,
0100
0000
0100
0010
0001
0000
0000
1000
,
0100
0000
0200
0300
0000
0001
0010
0100
,
1000
0000
1000
0100
0010
0000
0001
1000
,
0100
0000
0001
0000
1000
0000
0010
0100
,
1000
0000
1000
0010
0001
0000
0000
1000
,
0100
0000
0002
0003
0000
0000
0000
0001
,
1000
0000
0002
0103
0010
0000
2000
3000
,
0000
1000
0000
0001
0000
1000
0000
0001
,
1000
0100
1000
0100
0001
0010
0001
0000
,
0020
0030
0000
1000
0000
0001
0000
1000
,
0001
0000
0020
0130
1000
0000
2000
3000
,
0000
0010
0000
0100
0000
0010
0000
0100
,
0001
0010
0001
0010
0100
1000
0100
0000
,
0200
0300
0000
1000
0000
1000
0001
1000
,
0001
0000
0010
0100
1000
0000
0000
0001
,
1000
0000
2000
3000
0000
0001
0010
0100
,
0001
0000
0010
0100
0010
0000
0000
1000
,
0001
0000
0002
0003
0000
1000
0010
0000
,
0001
0010
0100
0000
1000
0001
0010
0001
,
0100
0000
0100
0000
0100
0000
0010
0001
,
0010
0000
1000
0100
1000
0000
0000
1000
,
0001
0000
0002
0003
0000
0000
0000
0100
,
0010
0020
0030
0000
;

//---------------dance-single - ----------------
#NOTES:
     dance-single:
     :
     Hard:
     9:
     0.400,0.389,0.122,0.096,0.275: // measure 1
0001
0000
1000
0000
0010
0100
1000
0000
,  // measure 2
0001
0000
0100
0000
0010
1000
0100
0000
,  // measure 3
0010
0001
0010
1000
,  // measure 4
0100
0001
0100
1000
,  // measure 5
0110
0000
0000
1000
0100
0000
0010
0000
0001
0000
0000
0001
0010
0000
0001
0000
,  // measure 6
0001
0000
0000
0100
1000
0000
0100
0000
0010
0000
0000
1000
0100
0000
1000
0000
,  // measure 7
1000
0000
0000
0100
0010
0000
1000
0000
0001
0000
1000
0000
0000
0000
0010
0000
,  // measure 8
0100
0001
0000
0000
1000
0000
0100
0000
,  // measure 9
0010
1000
0000
0001
0000
0010
0000
0100
,  // measure 10
1000
0010
0000
1000
0000
0001
0000
0010
,  // measure 11
1000
0000
0000
0100
1000
0000
0100
0000
1000
0000
0000
0010
0001
0000
0010
0000
,  // measure 12
0002
0003
0000
0000
1000
0000
0100
0000
,  // measure 13
0010
0000
0000
0001
0010
0000
0100
0000
1000
0000
0000
0100
0010
0000
0100
0000
,  // measure 14
0010
0000
0000
1000
0010
0000
0100
0000
0001
0000
0000
0010
0100
0000
0100
0000
,  // measure 15
0010
1000
0000
0010
0000
0100
0000
0001
,  // measure 16
0020
0130
0000
1000
0000
0100
0000
0001
,  // measure 17
1000
0100
0002
0003
0001
0100
2000
3000
,  // measure 18
0100
0000
0010
0000
0001
0000
0010
0100
0000
0000
0001
0000
0001
0000
0000
0000
,  // measure 19
1000
0100
0010
0000
0001
0010
0100
1000
,  // measure 20
0001
0000
1000
0200
0000
0000
0000
0000
0300
0000
0001
0000
0010
0000
0100
1000
,  // measure 21
0001
0000
0000
0010
0001
0000
0001
0000
1000
0000
1000
0000
0000
0000
0001
0010
,  // measure 22
0001
0000
0000
1000
0100
0000
0000
0100
0010
0000
0000
0010
0001
0000
0000
0001
,  // measure 23
1000
0000
0000
0100
1000
0000
1000
0000
1000
0000
0100
0000
0010
0000
0000
0001
,  // measure 24
0010
0000
0000
0100
1000
0000
0000
0001
0010
0000
0000
1000
0001
0000
0001
0000
,  // measure 25
1001
0000
0010
0000
0100
0000
1000
0010
0000
0000
0100
0000
0010
0000
1000
0000
,  // measure 26
0011
0000
0000
1100
0000
0000
1001
0000
0000
0000
0100
0000
0010
0000
0001
0010
,  // measure 27
0000
0000
1000
0000
0100
0000
0001
1000
0000
0000
0000
0000
1000
0000
0000
0001
,  // measure 28
1000
0000
0000
1000
0100
0000
0000
0010
0001
0000
0000
1000
0001
0000
1000
0100
,  // measure 29
1000
0000
0000
0200
0000
0300
0001
0010
0001
0000
0000
0020
0000
0030
1000
0000
,  // measure 30
0000
0001
0000
0010
0000
1000
0000
0010
,  // measure 31
1000
0100
1000
0100
1000
0000
0100
0000
0010
0001
0010
0001
0010
0000
0001
2000
,  // measure 32
0000
3000
0001
0000
0000
0000
0100
0000
0000
0000
0010
0000
0000
0000
1100
0000
,  // measure 33
0100
0000
0000
0101
0000
0000
0011
0000
0010
0000
0000
1100
0000
0000
1000
0000
,  // measure 34
0000
0100
0000
0001
0000
0100
0000
1000
,  // measure 35
0001
0100
0002
0103
1000
0100
1000
0200
,  // measure 36
0300
0000
0010
0000
0000
0000
0001
0000
0000
0000
1000
0000
0100
0000
0001
0010
,  // measure 37
0000
0000
0100
0000
0010
0000
1000
0001
0000
0000
0001
0000
0000
0000
0000
0001
,  // measure 38
0010
0000
0000
0010
0100
0000
0000
0100
1000
0000
0010
0000
0100
0000
0010
0001
,  // measure 39
0000
0000
0100
0000
0010
0000
0100
1000
0000
0000
0000
1000
0001
0000
0000
0001
,  // measure 40
0010
0000
0000
0100
1000
0000
0000
0001
1000
0000
0001
0000
1000
0000
0001
0000
,  // measure 41
0011
0010
0100
1000
1100
1000
0001
1000
,  // measure 42
0110
0000
0000
1100
0000
0000
0011
0000
0000
0000
1000
0000
0001
0000
1000
0001
,  // measure 43
0000
0000
0010
0000
0100
0000
0010
0100
0000
0000
0010
0000
0000
0000
0000
0001
,  // measure 44
0010
0000
0000
1000
0100
0000
0000
0010
0001
0000
0000
0100
1000
0000
0001
1000
,  // measure 45
0001
0200
0300
0000
;
