#VERSION:0.83;
#TITLE:kuronuri sekaiate shokan;
#SUBTITLE:Letter to the Black World;
#ARTIST:フロクロ(Frog96);
#TITLETRANSLIT:;
#SUBTITLETRANSLIT:;
#ARTISTTRANSLIT:;
#GENRE:;
#CREDIT:;
#MUSIC:kuronuri_sekaiate_shokan.ogg;
#BANNER:kuronuri_sekaiate_shokan-bn.png;
#BACKGROUND:kuronuri_sekaiate_shokan-bg.png;
#CDTITLE:cdtitlelninja.png;
#SAMPLESTART:12.648;
#SAMPLELENGTH:26.108;
#SELECTABLE:YES;
#OFFSET:-0.324;
#BPMS:0.000=185.000;
#STOPS:;
#BGCHANGES:;
#FGCHANGES:;

//--------------- dance-single - LNinja ----------------
#NOTEDATA:;
#STEPSTYPE:dance-single;
#DESCRIPTION:LNinja;
#DIFFICULTY:Beginner;
#METER:14;
#RADARVALUES:0,0,0,0,0;
#NOTES:
0000
0000
0000
0010
,
0010
0000
0100
0100
0001
0010
0000
1000
,
1000
0010
0010
0100
,
0001
0000
1000
1000
0000
0010
0000
0001
,
0000
0001
0000
0001
0000
0001
0000
0001
,
0000
0001
0010
0010
0400
0000
1300
0000
,
0020
0000
0000
0030
0010
0000
1000
0000
0100
0000
1000
0000
0010
0000
0100
0000
,
0001
0000
0100
0000
0010
0000
0100
0000
0001
0000
1000
0000
0002
0000
0000
0003
,
0002
0000
0000
0003
0100
0000
0010
0000
1000
0000
0200
0000
0300
0000
0010
0000
,
0001
0100
0020
1000
0430
0000
0320
0030
,
0010
0000
0010
1000
0100
0010
0001
0100
,
1000
0010
0100
0001
0100
0010
2000
3000
,
2000
0000
3000
0000
1000
0000
0001
0000
0100
0000
0020
0000
0000
0030
1000
0000
,
0000
0010
0000
0000
0400
0000
0300
0000
0010
0000
0000
0000
2002
0000
0000
0000
,
0000
0000
0000
0000
0000
0000
0000
3003
0100
0000
1000
0000
0100
0000
0010
0000
,
0100
1000
0010
1000
0010
0100
0010
0010
,
2000
3000
0000
2002
3003
0022
0033
1000
,
0010
0100
0001
0000
0020
0030
0400
0300
,
1000
0010
0001
0100
0010
0100
1000
0200
,
0300
0100
2000
3000
1000
0010
0100
0001
,
0002
0000
0003
2002
3003
2020
3030
0001
,
0010
0100
1000
0000
4004
0000
3003
0001
,
0100
1000
0100
0010
0001
1000
0100
0200
,
0300
0000
0001
0000
0400
0000
0000
0000
0000
0300
1000
0000
0100
0000
0001
0000
,
0010
0100
1000
0100
2000
0000
3000
0001
,
0010
0000
0100
0000
0010
0000
0001
1000
0010
0000
1000
0000
0400
0000
0000
0300
,
0010
0001
0100
2000
3000
1000
0100
0010
,
0002
0003
0001
0010
1000
0000
2002
3003
,
0202
0303
2200
3300
2020
3030
0022
0033
,
0002
0000
0023
0000
2030
0000
3000
0000
0440
0000
0000
0330
0001
0000
0010
0000
,
1000
0100
0010
0020
0000
0030
0100
0001
,
0100
0010
0001
0010
0100
1000
0100
0010
,
0001
1000
0010
0001
0100
0020
0000
0031
,
0010
1000
0100
0010
0001
0000
1000
0100
,
0001
0200
0300
0100
0001
0010
0100
1000
,
0100
0010
0001
0100
0010
0001
0010
0100
,
1000
0010
0100
1000
0100
0010
1000
0001
,
0000
1100
0011
0000
1010
0000
0001
0010
,
0001
0100
0001
0010
0002
0003
1000
0100
,
1000
0010
1000
0100
1000
0001
0200
0300
,
0020
0000
0030
0000
0000
0000
0202
0303
0000
0000
2020
0000
3030
0000
0100
0000
,
0010
0001
0100
0001
0010
0100
0001
0100
,
0010
0001
0100
0010
1000
0001
0100
0010
,
0001
0010
0100
1000
0001
0100
0010
0010
,
0200
0300
0000
2002
3003
0220
0330
0010
,
1000
0100
0010
0100
1000
0001
0010
1000
,
0010
0000
0000
0100
0000
0000
0001
0000
0000
0100
0000
0000
0010
0000
0000
1000
0000
0000
0040
0000
0000
0000
1000
0000
,
0000
0000
1000
0000
0000
0000
1030
0000
0000
0000
0101
0000
0000
0000
0011
0000
0000
0000
1000
0000
0000
0010
0000
0000
,
1000
0010
0001
0100
0001
0010
0100
0010
,
1000
0000
0001
0000
0010
0000
0100
1000
0001
0000
0010
0000
1000
0000
0010
0000
,
0100
0001
0010
0100
0001
1000
0100
0010
,
0002
0003
0001
0100
2000
3000
2002
3003
,
2020
3030
0022
0033
0440
0330
0001
1000
,
0020
0000
0030
1000
0100
0010
0001
0010
,
0100
1000
0010
0100
0001
0100
0010
1000
,
0100
0010
0001
0100
0001
2000
0000
3001
,
0010
0100
1000
0010
0002
0003
0001
0100
,
0010
0100
0010
1000
0100
1000
0001
0100
,
0001
0010
0001
0100
0010
1000
0001
0100
,
0010
0100
0001
0010
0100
1000
0022
0033
,
2020
0000
3030
0000
0202
0000
0303
0000
2200
0300
3004
0000
0013
0000
1000
0000
,
0040
0130
1000
0400
0000
0310
1000
4000
,
3100
0001
0010
0400
0340
0034
1003
0010
,
0100
0001
1000
0100
0010
0001
4000
0000
,
3010
0100
0200
0000
0301
0004
0000
1003
,
0040
0100
4030
0000
3001
0010
4000
3400
,
0340
0034
0103
0010
1000
4000
3000
0001
,
0001
0100
0100
0010
0001
1000
0400
0000
,
1300
0100
0002
0000
0013
4000
0000
3010
,
0100
0004
0043
1030
0010
0400
0000
0304
,
1003
0040
0000
0130
0010
1000
0004
0000
,
1003
0040
0000
0130
4000
0000
3100
0010
,
0100
1000
0010
0100
0001
0100
0004
0013
,
0100
1000
0004
0013
0100
1000
0400
0000
,
1300
0100
0010
0001
1000
0010
0100
0001
,
1000
0000
0100
0000
0010
0000
0001
0000
0010
0000
0100
0000
0022
0033
0000
0000
,
2020
3030
0000
0000
1000
0000
0100
0000
4000
0000
0001
0000
3020
0000
0030
0000
,
0020
0030
1000
0001
0100
0001
0010
1000
,
0100
0010
0001
0100
0010
0001
2000
3000
,
2000
3000
0100
0010
0001
0200
0300
0010
,
1000
0100
0020
0001
0430
0000
0320
0030
,
0010
0000
1000
0001
0100
0010
1000
0100
,
0001
0010
0100
1000
0100
0010
0002
0003
,
0002
0000
0003
0000
0100
0000
0010
0000
0001
0000
0020
0000
0000
0030
0001
0000
,
0000
0010
0000
0000
0400
0000
0300
0000
0010
0000
0000
0000
1000
0000
0000
0000
,
0200
0300
0100
1000
0010
1000
0100
0010
,
1000
0001
0100
0010
1000
0010
0002
0003
,
0002
0003
0010
0100
1000
0020
0030
0100
,
0001
0010
0200
1000
0340
0000
0230
0300
,
0100
0000
0001
1000
0010
0100
0001
0010
,
1000
0100
0010
0001
0010
0100
2000
3000
,
2000
0000
3000
0000
0100
0000
0010
0000
0001
0000
0200
0000
0000
0300
1000
0000
,
0000
0100
0000
0000
0040
0000
0030
0000
MMMM
0000
MMMM
0000
MMMM
0000
0000
0000
;

//--------------- dance-single - LNinja ----------------
#NOTEDATA:;
#STEPSTYPE:dance-single;
#DESCRIPTION:LNinja;
#DIFFICULTY:Easy;
#METER:15;
#RADARVALUES:0,0,0,0,0;
#NOTES:
0000
0000
0000
0100
,
0100
0000
0010
0010
1000
0100
0000
0001
,
0001
0100
0100
0010
,
1000
0000
0001
0001
0000
0100
0000
1000
,
0000
1000
0000
1000
0000
1000
0000
1000
,
0000
1000
0100
0100
0040
0000
0031
0000
,
0200
0000
0000
0300
0100
0000
0001
0000
0010
0000
0001
0000
0100
0000
1000
0000
,
0100
0000
0001
0000
0010
0000
0100
0000
0010
0000
0001
0000
2000
0000
0000
3000
,
2000
0000
0000
3000
0010
0000
0100
0000
0001
0000
0020
0000
0030
0000
0100
0000
,
1000
0010
0200
0001
0040
0300
0230
0300
,
0100
0000
0100
0001
0010
0100
1000
0010
,
0001
0100
0010
0001
0010
0100
0002
0003
,
0002
0000
0003
0000
0001
0000
1000
0000
0010
0000
0200
0000
0000
0300
0001
0000
,
0000
0100
0000
0000
0040
0000
0030
0000
0100
0000
0000
0000
2002
0000
0000
0000
,
0000
0000
0000
0000
0000
0000
0000
3003
0010
0000
0001
0000
0100
0000
0010
0000
,
0001
0010
0100
0001
1000
0010
0100
0100
,
0002
0003
0000
2002
3003
2200
3300
0001
,
0100
0010
1000
0000
0200
0300
0040
0030
,
0001
0100
1000
0010
0100
1000
0100
0020
,
0030
0010
0002
0003
0001
0100
0010
1000
,
2000
0000
3000
2002
3003
0202
0303
1000
,
0100
0010
0001
0000
4004
0000
3003
1000
,
0010
0001
0010
0100
1000
0001
0010
0020
,
0030
0000
1000
0000
0040
0000
0000
0000
0000
0030
0001
0000
0010
0000
1000
0000
,
0010
0001
1000
0100
0002
0000
0003
1000
,
0100
0000
0001
0000
0100
0000
1000
0010
0100
0000
0001
0000
0040
0000
0000
0030
,
1000
0100
0010
0002
0003
0001
0010
0100
,
2000
3000
1000
0100
0001
0000
2002
3003
,
2020
3030
0022
0033
0202
0303
2200
3300
,
2000
0000
3200
0000
0302
0000
0003
0000
0440
0000
0000
0330
1000
0000
0100
0000
,
0001
0010
0100
0200
0000
0300
0010
1000
,
0010
0100
1000
0100
0010
0001
0010
0100
,
1000
0001
0100
1000
0010
0200
0000
1300
,
0100
0001
0010
0100
1000
0000
0001
0010
,
1000
0020
0030
0010
1000
0100
0010
0001
,
0010
0100
1000
0010
0100
1000
0100
0010
,
0001
0100
0010
0001
0010
0100
0001
1000
,
0000
0011
1100
0000
0101
0000
1000
0100
,
1000
0010
1000
0100
2000
3000
0001
0010
,
0001
0100
0001
0010
0001
1000
0020
0030
,
0200
0000
0300
0000
0000
0000
2020
3030
0000
0000
0202
0000
0303
0000
0010
0000
,
0100
1000
0010
1000
0100
0010
1000
0010
,
0100
1000
0010
0100
0001
1000
0010
0100
,
1000
0001
0010
1000
0100
0001
0100
0100
,
0020
0030
0000
2002
3003
0220
0330
0100
,
0001
0010
0100
0010
0001
1000
1100
0001
,
0100
0000
0000
0010
0000
0000
1000
0000
0000
0010
0000
0000
0100
0000
0000
0001
0000
0000
0401
0000
0000
0000
0001
0000
,
0000
0000
0001
0000
0000
0000
0301
0000
0000
0000
1010
0000
0000
0000
1100
0000
0000
0000
0011
0000
0000
0100
0000
0000
,
0001
0100
1000
0010
0001
0100
1000
0100
,
0010
0000
0100
0000
1000
0000
0010
0100
0001
0000
1000
0000
0001
0000
0100
0000
,
0010
0001
1000
0100
0001
0100
0010
0001
,
0200
0300
1000
0010
0002
0003
2002
3003
,
0202
0303
2200
3300
0440
0330
1000
0001
,
0200
0000
0300
0001
0010
0100
1000
0100
,
0010
0001
0100
0010
1000
0010
0100
0001
,
0010
0100
1000
0010
1000
0002
0000
1003
,
0100
0010
0001
0100
2000
3000
1000
0010
,
0100
0010
0100
0001
0010
0001
1000
0010
,
1000
0100
1000
0010
0100
0001
1000
0010
,
0100
0010
1000
0100
0010
0001
2200
3300
,
0202
0000
0303
0000
2020
0000
3030
0000
0022
0030
4003
0000
3100
0000
0001
0000
,
4000
3010
0001
0040
0000
1030
0100
0004
,
0013
0000
0000
1000
0000
0000
0100
0000
0000
0004
0043
0430
4300
3000
0000
0004
0000
0000
0103
0000
0000
1000
0000
0000
,
0100
0010
0001
1000
0001
0010
0400
0000
,
1300
0010
0020
0000
1030
4000
0000
3001
,
0400
0000
0000
0010
0000
0000
0304
0000
0000
0000
0000
0000
1003
0000
0000
0100
0000
0000
0004
0000
0000
4003
3400
0340
,
0034
0003
0000
4000
0000
0000
3010
0000
0000
0100
0000
0000
0001
0000
0000
0004
0000
0000
0003
0000
0000
1000
0000
0000
,
1000
0010
0010
0100
1000
0001
0040
0000
,
0031
0010
2000
0000
3100
0004
0000
0103
,
0010
4000
3400
0301
0100
0040
0000
4030
,
3001
0400
0000
0310
0100
0001
4000
0000
,
3001
0400
0000
0310
0004
0000
0013
0100
,
0010
0001
0100
0010
1000
0010
4000
3100
,
0010
0001
4000
3100
0010
0001
0040
0000
,
0031
0010
0100
1000
0001
0100
0010
1000
,
0001
0000
0010
0000
0100
0000
0001
0000
0100
0000
1000
0000
2200
3300
0000
0000
,
0202
0303
0000
0000
0010
0000
0100
0000
0014
0000
1000
0000
0203
0000
0300
0000
,
0200
0300
0100
1000
0010
1000
0100
0001
,
0100
1000
0010
0100
0010
1000
0002
0003
,
0002
0003
0010
0100
1000
0020
0030
0100
,
0001
0010
0200
1000
0040
0300
0230
0300
,
0100
0000
0100
1000
0010
0100
0001
0010
,
1000
0100
0010
1000
0010
0100
2000
3000
,
2000
0000
3000
0000
1000
0000
0001
0000
0010
0000
0200
0000
0000
0300
1000
0000
,
0000
0100
0000
0000
0040
0000
0030
0000
0100
0000
0000
0000
0001
0000
0000
0000
,
0020
0030
0010
0001
0100
0001
0010
1000
,
0010
0001
0100
0010
0100
0001
2000
3000
,
2000
3000
0100
0010
0001
0200
0300
0010
,
1000
0100
0020
0001
0430
0000
0320
0030
,
0010
0000
0010
0001
0100
0010
1000
0100
,
0001
0010
0100
0001
0100
0010
0002
0003
,
0002
0000
0003
0000
0001
0000
1000
0000
0100
0000
0020
0000
0000
0030
0001
0000
,
0000
0010
0000
0000
0400
0000
0300
0000
MMMM
0000
MMMM
0000
MMMM
0000
0000
0000
;

//--------------- dance-single - LNinja - 17.6 ----------------
#NOTEDATA:;
#STEPSTYPE:dance-single;
#DESCRIPTION:LNinja - 17.6;
#DIFFICULTY:Medium;
#METER:17;
#RADARVALUES:0,0,0,0,0;
#NOTES:
0000
0000
0000
0001
,
0001
0000
0100
1000
0010
0001
0000
1000
,
1100
0100
0001
0100
,
1000
0000
0001
0101
0000
0010
0000
2001
,
0000
0001
0000
0001
0000
0001
0000
0001
,
0000
3001
0010
0010
0400
0000
1300
0100
,
0020
0000
0001
0130
0001
0100
0010
0000
1000
0000
0100
0010
0001
0000
0100
0010
,
1000
0000
0100
0010
0100
0010
0001
0000
1000
0000
0001
0010
0200
0000
1000
0000
,
0320
0000
0001
0130
0010
0100
0001
0000
1000
0000
2000
0100
3010
0000
0100
1000
,
0001
0000
0100
0010
0200
0010
1300
0000
0400
0000
0000
0000
0320
0000
0031
0000
,
0010
0000
1000
0010
0100
0010
0100
0000
0001
0000
1000
0100
0010
0000
0100
0000
,
1000
0000
0010
0100
0001
0100
0010
0000
1000
0000
0100
0010
0200
0000
1300
0000
,
0002
0000
0103
0010
0100
0001
1000
0000
0100
0000
2000
0000
3000
0000
0002
0000
,
0003
0020
0000
0030
0400
0000
0300
0000
0020
0000
0030
0000
2002
0000
0000
0000
,
0000
0000
0000
0000
0000
0000
0000
3003
0100
0000
1000
0000
0010
0000
0100
0000
,
1000
0000
0100
0010
0100
0010
0001
0000
1000
0000
0100
0010
0001
0000
0010
0100
,
2000
0000
3001
0100
0001
0100
2002
0003
3010
0000
0002
0103
0001
0000
1000
0000
,
0010
0000
1000
0100
1000
0100
0010
0000
0002
0000
0103
0000
4000
0000
3001
0000
,
0100
0010
1000
0000
0001
0000
0100
0000
1000
0000
0100
0010
0001
0000
0002
0000
,
0003
0000
0100
0010
2000
0100
3010
0000
1000
0000
0010
0000
0001
0000
1000
0000
,
0002
0003
0100
0010
0100
0001
2000
0000
3000
0000
0002
0100
0013
0000
1000
0000
,
0010
0000
0100
0001
0100
0001
1000
0000
4004
0000
0000
0000
3103
0000
1000
0000
,
0010
0000
1000
0010
1000
0010
0100
0000
0001
0000
1000
0100
0010
0000
0002
0000
,
0103
0000
0000
0000
0000
0000
0000
0000
0000
0000
0000
0000
0000
0000
0000
0000
0000
0000
0000
0000
0000
0000
0000
0000
0010
0000
0000
0000
0000
0000
0000
0000
0000
0000
0000
0000
1000
0000
0000
0000
0000
0000
0000
0000
0000
0000
0000
0000
0400
0000
0000
0000
0000
0000
0000
0000
0000
0000
0000
0000
0010
0000
0000
0000
0000
0000
0000
0000
0000
0000
0000
0300
0400
0000
0000
0000
0000
0000
0000
0000
0000
0000
0000
0000
0000
0000
0000
0000
0000
0000
0000
0000
0000
0000
0000
0000
1000
0000
0000
0000
0000
0000
0000
0000
0000
0000
0000
0000
0300
0000
0000
0000
0000
0000
0000
0000
0000
0000
0000
0000
0001
0000
0000
0000
0000
0000
0000
0000
0000
0000
0000
0000
0000
0000
0000
0000
0000
0000
0000
0000
0000
0000
0000
0000
0100
0000
0000
0000
0000
0000
0000
0000
0000
0000
0000
0000
0000
0000
0000
0000
0000
0000
0000
0000
0000
0000
0000
0000
0001
0000
0000
0000
0000
0000
0000
0000
0000
0000
0000
0000
0010
0000
0000
0000
0000
0000
0000
0000
0000
0000
0000
0000
,
0100
0000
1000
0010
0100
0001
0100
0000
0020
0000
1000
0031
1000
0000
0100
0000
,
0010
0000
0001
0100
0001
0100
0010
1000
0001
0000
0010
0000
0400
0000
0000
0300
,
0010
0000
0001
1000
0010
0100
0002
0000
0003
0000
1000
0000
0010
0000
0001
0000
,
0200
0000
1300
0100
1000
0001
0100
0000
0010
0000
1000
0000
2002
0000
3003
0000
,
0202
0303
2200
3300
2020
3030
0022
0033
,
0002
0000
0023
0000
2030
0000
3000
0000
0440
0000
0000
0330
0001
0000
0010
0000
,
1000
0000
0100
0010
0100
1000
0002
0000
0000
0000
1003
0000
0100
0000
0001
0000
,
0100
0000
0010
1000
0010
0000
0100
0010
0100
0000
0001
0100
0001
0000
0010
0000
,
0100
0000
1000
0010
1000
0010
0100
0000
0001
0000
0020
0100
1030
0000
0001
0000
,
0010
0000
1000
0010
0100
0010
0100
0000
0001
0000
0000
0000
1000
0000
0100
0000
,
0001
0000
0200
0010
1300
0010
0100
0000
0001
0000
0010
0100
0010
0000
0001
1000
,
0001
0000
0100
0010
0100
0010
1000
0001
0010
0000
0100
0000
1000
0000
0001
0100
,
0001
0000
1000
0100
1000
0100
0010
0100
0010
0000
0001
0000
0100
0000
0010
0000
,
1000
1100
0022
0033
2200
3300
0001
0010
,
0001
0100
0010
0100
0010
1000
0001
0000
2000
0000
3000
0000
0001
0000
0010
0100
,
0010
0000
0100
1000
0100
1000
0010
0100
0001
0000
0010
0100
0020
0000
0030
0000
,
0200
0000
1300
0100
0010
0001
0020
0000
0030
0000
2200
0000
3310
0000
0001
0000
,
0010
0000
0100
0010
0100
0010
0001
0000
1000
0000
0010
0000
0001
0000
0100
0010
,
0100
0000
0001
0010
0001
1000
0100
0000
0001
0000
0100
0010
1000
0000
0010
0000
,
0100
0010
0100
0001
0100
0001
0010
0000
0100
0000
1000
0100
0010
0000
0001
0010
,
0200
0300
0000
2002
3003
0220
0330
0010
,
1000
0000
0100
0010
0100
0010
0001
1000
0001
0000
0100
0000
0101
0000
1000
0000
,
0010
0000
0000
0000
0000
0000
0100
0000
0000
0001
0000
0000
1000
0000
0000
0001
0000
0000
0100
0000
0000
0000
0000
0000
0010
0000
0000
0000
0000
0000
1000
0000
0000
0010
0000
0000
4010
0000
0000
0000
0000
0000
0000
0000
0010
0000
0000
0000
,
0000
0000
0000
0000
0010
0000
0000
0000
0000
0000
0000
0000
3010
0000
0000
0000
0000
0000
0000
0000
0101
0000
0000
0000
0000
0000
0000
0000
1001
0000
0000
0000
0000
0000
0000
0000
1100
0000
0000
0000
0000
0000
0010
0000
0000
0001
0000
0000
,
1000
0000
0010
0100
0010
1000
0010
0000
0100
0000
0001
0000
0010
0000
1000
0000
,
0100
0000
0001
0100
0001
0100
0010
0000
1000
0000
0001
0000
0100
0000
0010
1000
,
0010
0000
1000
0100
1000
0100
0010
0000
0001
0000
0100
0010
0100
0000
0001
0000
,
2000
0000
3010
1000
0001
1000
0100
0000
0020
0000
0031
0010
2002
0000
3003
0000
,
2020
0000
3030
0000
0022
0000
0033
0000
0440
0000
0330
0000
0001
0000
1000
0100
,
0020
0000
0031
1000
0001
1000
0001
0000
0100
0000
0010
0000
0001
0000
0010
0100
,
0010
0000
0001
1000
0100
1000
0001
0000
1000
0000
0010
0000
0001
0000
1000
0100
,
0010
0000
0001
0100
0001
0100
0010
0000
1000
0000
0200
1000
0301
0000
0100
0000
,
0010
0000
0100
0001
0100
0010
0100
0001
2000
0000
3000
0000
0001
0000
0010
0000
,
0100
0010
0100
1000
0100
1000
0001
0000
0100
0000
0010
0000
0100
0010
0100
0000
,
0001
0000
0010
0100
0010
0001
1000
0000
0100
0000
1000
0000
0010
0000
0001
0100
,
0001
0000
1000
0010
1000
0001
0010
0001
1000
0000
0010
0100
0002
0000
0003
0000
,
2020
0000
3030
0000
2200
0000
3300
0000
0022
0030
4003
0000
3010
0100
0010
0000
,
4000
0000
3100
0010
0100
0010
0004
0000
1000
0000
0103
0010
0100
0000
4000
0000
,
3010
0000
0000
0000
0000
0000
0100
0000
0000
0010
0000
0000
0100
0000
0000
0001
0000
0000
4000
0000
3400
0000
0340
0000
0034
0000
0003
0000
0000
0000
0400
0000
0000
0000
0000
0000
0310
0000
0000
0100
0000
0000
0010
0000
0000
0000
0000
0000
,
1000
0000
0001
0010
0001
0010
0100
0000
1000
0000
0010
0100
0004
0000
0000
0000
,
0013
0100
0010
0001
2000
0000
0010
0000
3100
0000
0004
0000
0000
0000
1003
0100
,
0040
0000
0000
0000
0000
0000
0001
0000
0000
0100
0000
0000
0034
0000
0000
0000
0000
0000
0000
0000
0000
0000
0000
0000
1003
0000
0000
0010
0000
0000
1000
0000
0000
0000
0000
0000
4000
0000
0000
0000
0000
0000
3004
0000
0043
0000
0430
0000
,
4300
0000
3000
0000
0000
0000
0004
0000
0000
1000
0000
0000
0103
0000
0000
1000
0000
0000
0001
0000
0000
0000
0000
0000
0100
0000
0000
0001
0000
0000
0400
0000
0000
0010
0000
0000
1300
0000
0000
0000
0000
0000
0001
0000
0000
0000
0000
0000
,
0100
0000
0010
1000
0010
0100
0010
0000
1000
0000
0100
0010
0004
0000
0000
0000
,
1003
0000
0000
0000
0000
0000
0000
0000
0000
0000
0000
0000
0000
0000
0000
0000
0000
0000
0000
0000
0000
0000
0000
0000
0100
0000
0000
0000
0000
0000
0000
0000
0000
0000
0000
0000
0010
0000
0000
0000
0000
0000
0000
0000
0000
0000
0000
0000
0002
0000
0000
0000
0000
0000
0000
0000
0000
0000
0000
0000
1000
0000
0000
0000
0000
0000
0000
0000
0000
0000
0000
0000
0100
0000
0000
0000
0000
0000
0000
0000
0000
0000
0000
0000
0000
0000
0000
0000
0000
0000
0000
0000
0000
0000
0000
0003
0001
0000
0000
0000
0000
0000
0000
0000
0000
0000
0000
0000
0000
0000
0000
0000
0000
0000
0000
0000
0000
0000
0000
0000
4000
0000
0000
0000
0000
0000
0000
0000
0000
0000
0000
0000
0000
0000
0000
0000
0000
0000
0000
0000
0000
0000
0000
0000
0010
0000
0000
0000
0000
0000
0000
0000
0000
0000
0000
0000
0000
0000
0000
0000
0000
0000
0000
0000
0000
0000
0000
0000
3100
0000
0000
0000
0000
0000
0000
0000
0000
0000
0000
0000
0000
0000
0000
0000
0000
0000
0000
0000
0000
0000
0000
0000
,
0001
0000
0000
0000
0000
0000
0000
0000
0000
0000
0000
0000
0000
0000
0000
0000
0000
0000
0000
0000
0000
0000
0000
0000
0020
0000
0000
0000
0000
0000
0000
0000
0000
0000
0000
0000
0001
0000
0000
0000
0000
0000
0000
0000
0000
0000
0000
0030
0040
0000
0000
0000
0000
0000
0000
0000
0000
0000
0000
0000
0100
0000
0000
0000
0000
0000
0000
0000
0000
0000
0000
0000
1030
0000
0000
0000
0000
0000
0000
0000
0000
0000
0000
0000
0000
0000
0000
0000
0000
0000
0000
0000
0000
0000
0000
0000
0010
0000
0000
0000
0000
0000
0000
0000
0000
0000
0000
0000
0000
0000
0000
0000
0000
0000
0000
0000
0000
0000
0000
0000
0400
0000
0000
0000
0000
0000
0000
0000
0000
0000
0000
0000
0001
0000
0000
0000
0000
0000
0000
0000
0000
0000
0000
0300
0400
0000
0000
0000
0000
0000
0000
0000
0000
0000
0000
0000
0010
0000
0000
0000
0000
0000
0000
0000
0000
0000
0000
0000
2300
0000
0000
0000
0000
0000
0000
0000
0000
0000
0000
0000
0000
0000
0000
0000
0000
0000
0000
0000
0000
0000
0000
0000
,
3001
0000
0000
0000
0000
0000
0000
0000
0000
0000
0000
0000
0000
0000
0000
0000
0000
0000
0000
0000
0000
0000
0000
0000
0040
0000
0000
0000
0000
0000
0000
0000
0000
0000
0000
0000
0100
0000
0000
0000
0000
0000
0000
0000
0000
0000
0000
0030
0040
0000
0000
0000
0000
0000
0000
0000
0000
0000
0000
0000
0001
0000
0000
0000
0000
0000
0000
0000
0000
0000
0000
0000
1030
0000
0000
0000
0000
0000
0000
0000
0000
0000
0000
0000
0000
0000
0000
0000
0000
0000
0000
0000
0000
0000
0000
0000
0010
0000
0000
0000
0000
0000
0000
0000
0000
0000
0000
0000
0000
0000
0000
0000
0000
0000
0000
0000
0000
0000
0000
0000
0100
0000
0000
0000
0000
0000
0000
0000
0000
0000
0000
0000
0010
0000
0000
0000
0000
0000
0000
0000
0000
0000
0000
0000
4000
0000
0000
0000
0000
0000
0000
0000
0000
0000
0000
0000
0000
0000
0000
0000
0000
0000
0000
0000
0000
0000
0000
0000
0001
0000
0000
0000
0000
0000
0000
0000
0000
0000
0000
0000
0000
0000
0000
0000
0000
0000
0000
0000
0000
0000
0000
0000
,
3100
0000
0000
0000
0000
0000
0000
0000
0000
0000
0000
0000
0000
0000
0000
0000
0000
0000
0000
0000
0000
0000
0000
0000
0004
0000
0000
0000
0000
0000
0000
0000
0000
0000
0000
0000
1000
0000
0000
0000
0000
0000
0000
0000
0000
0000
0000
0003
0004
0000
0000
0000
0000
0000
0000
0000
0000
0000
0000
0000
0100
0000
0000
0000
0000
0000
0000
0000
0000
0000
0000
0000
0013
0000
0000
0000
0000
0000
0000
0000
0000
0000
0000
0000
0000
0000
0000
0000
0000
0000
0000
0000
0000
0000
0000
0000
4000
0000
0000
0000
0000
0000
0000
0000
0000
0000
0000
0000
0000
0000
0000
0000
0000
0000
0000
0000
0000
0000
0000
0000
0001
0000
0000
0000
0000
0000
0000
0000
0000
0000
0000
0000
0010
0000
0000
0000
0000
0000
0000
0000
0000
0000
0000
0000
3100
0000
0000
0000
0000
0000
0000
0000
0000
0000
0000
0000
0000
0000
0000
0000
0000
0000
0000
0000
0000
0000
0000
0000
1000
0000
0000
0000
0000
0000
0000
0000
0000
0000
0000
0000
0000
0000
0000
0000
0000
0000
0000
0000
0000
0000
0000
0000
,
0001
0000
0100
0010
0100
0001
1000
0000
0001
0000
0010
0100
4000
0000
3100
0000
,
0010
0000
0000
0000
0000
0000
0000
0000
0000
0000
0000
0000
0000
0000
0000
0000
0000
0000
0000
0000
0000
0000
0000
0000
0001
0000
0000
0000
0000
0000
0000
0000
0000
0000
0000
0000
0010
0000
0000
0000
0000
0000
0000
0000
0000
0000
0000
0000
0400
0000
0000
0000
0000
0000
0000
0000
0000
0000
0000
0000
0010
0000
0000
0000
0000
0000
0000
0000
0000
0000
0000
0300
0100
0000
0000
0000
0000
0000
0000
0000
0000
0000
0000
0000
0000
0000
0000
0000
0000
0000
0000
0000
0000
0000
0000
0000
1000
0000
0000
0000
0000
0000
0000
0000
0000
0000
0000
0000
0000
0000
0000
0000
0000
0000
0000
0000
0000
0000
0000
0000
0100
0000
0000
0000
0000
0000
0000
0000
0000
0000
0000
0000
0010
0000
0000
0000
0000
0000
0000
0000
0000
0000
0000
0000
0004
0000
0000
0000
0000
0000
0000
0000
0000
0000
0000
0000
0000
0000
0000
0000
0000
0000
0000
0000
0000
0000
0000
0000
0010
0000
0000
0000
0000
0000
0000
0000
0000
0000
0000
0000
0000
0000
0000
0000
0000
0000
0000
0000
0000
0000
0000
0000
,
0103
0010
0001
1000
0001
0010
0100
0000
1000
0000
0100
0000
0001
0100
0001
0000
,
1000
0000
0010
0000
1000
0010
0100
0000
0001
0000
1000
0100
0022
0033
0000
0000
,
0202
0303
0000
0000
0010
0000
1000
0000
4100
0000
0001
0000
3200
0000
0310
0000
,
0020
0000
0100
0031
1000
0100
1000
0000
0100
0000
0010
0001
0010
0000
0100
0000
,
1000
0000
0010
0100
0010
1000
0001
0000
0010
0000
0100
0010
0002
0000
0003
0000
,
0002
0000
1003
0100
1000
0001
0100
0000
0001
0000
0200
0010
1300
0000
0100
0000
,
1000
0000
0000
0000
0000
0000
0000
0000
0000
0000
0000
0000
0000
0000
0000
0000
0000
0000
0000
0000
0000
0000
0000
0000
0100
0000
0000
0000
0000
0000
0000
0000
0000
0000
0000
0000
0010
0000
0000
0000
0000
0000
0000
0000
0000
0000
0000
0000
0200
0000
0000
0000
0000
0000
0000
0000
0000
0000
0000
0000
1000
0000
0000
0000
0000
0000
0000
0000
0000
0000
0000
0300
0200
0000
0000
0000
0000
0000
0000
0000
0000
0000
0000
0000
0000
0000
0000
0000
0000
0000
0000
0000
0000
0000
0000
0300
4000
0000
0000
0000
0000
0000
0000
0000
0000
0000
0000
0000
0000
0000
0000
0000
0000
0000
0000
0000
0000
0000
0000
0000
0000
0000
0000
0000
0000
0000
0000
0000
0000
0000
0000
0000
0000
0000
0000
0000
0000
0000
0000
0000
0000
0000
0000
0000
3020
0000
0000
0000
0000
0000
0000
0000
0000
0000
0000
0000
0000
0000
0000
0000
0000
0000
0000
0000
0000
0000
0000
0000
0130
0000
0000
0000
0000
0000
0000
0000
0000
0000
0000
0000
0000
0000
0000
0000
0000
0000
0000
0000
0000
0000
0000
0000
,
0001
0000
1000
0100
0010
0001
0010
0000
0100
0000
0010
0001
0010
0000
0001
0000
,
1000
0000
0001
0010
0100
1000
0100
0000
0010
0000
0100
0010
0002
0000
0003
0000
,
0002
0000
0000
0000
0000
0000
0000
0000
0000
0000
0000
0000
0000
0000
0000
0000
0000
0000
0000
0000
0000
0000
0000
0000
0013
0000
0000
0000
0000
0000
0000
0000
0000
0000
0000
0000
0100
0000
0000
0000
0000
0000
0000
0000
0000
0000
0000
0000
0010
0000
0000
0000
0000
0000
0000
0000
0000
0000
0000
0000
0001
0000
0000
0000
0000
0000
0000
0000
0000
0000
0000
0000
0010
0000
0000
0000
0000
0000
0000
0000
0000
0000
0000
0000
0000
0000
0000
0000
0000
0000
0000
0000
0000
0000
0000
0000
0100
0000
0000
0000
0000
0000
0000
0000
0000
0000
0000
0000
0000
0000
0000
0000
0000
0000
0000
0000
0000
0000
0000
0000
2000
0000
0000
0000
0000
0000
0000
0000
0000
0000
0000
0000
0010
0000
0000
0000
0000
0000
0000
0000
0000
0000
0000
3000
2000
0000
0000
0000
0000
0000
0000
0000
0000
0000
0000
0000
0000
0000
0000
0000
0000
0000
0000
0000
0000
0000
0000
0000
3001
0000
0000
0000
0000
0000
0000
0000
0000
0000
0000
0000
0000
0000
0000
0000
0000
0000
0000
0000
0000
0000
0000
0000
,
0100
0010
1000
0010
0400
0000
0300
0000
0001
0000
0010
0000
1000
0000
0010
0000
,
0200
0000
0000
0000
0000
0000
0000
0000
0000
0000
0000
0000
0000
0000
0000
0000
0000
0000
0000
0000
0000
0000
0000
0000
0001
0000
0000
0000
0000
0000
0000
0000
0000
0000
0000
0300
0100
0000
0000
0000
0000
0000
0000
0000
0000
0000
0000
0000
0001
0000
0000
0000
0000
0000
0000
0000
0000
0000
0000
0000
1000
0000
0000
0000
0000
0000
0000
0000
0000
0000
0000
0000
0001
0000
0000
0000
0000
0000
0000
0000
0000
0000
0000
0000
0000
0000
0000
0000
0000
0000
0000
0000
0000
0000
0000
0000
0010
0000
0000
0000
0000
0000
0000
0000
0000
0000
0000
0000
0000
0000
0000
0000
0000
0000
0000
0000
0000
0000
0000
0000
0100
0000
0000
0000
0000
0000
0000
0000
0000
0000
0000
0000
0010
0000
0000
0000
0000
0000
0000
0000
0000
0000
0000
0000
0001
0000
0000
0000
0000
0000
0000
0000
0000
0000
0000
0000
0000
0000
0000
0000
0000
0000
0000
0000
0000
0000
0000
0000
0010
0000
0000
0000
0000
0000
0000
0000
0000
0000
0000
0000
0000
0000
0000
0000
0000
0000
0000
0000
0000
0000
0000
0000
,
0001
0000
0010
0100
0010
0001
1000
0000
0100
0000
0001
0100
0020
0000
0030
0000
,
0020
0000
1030
0100
1000
0001
0100
0000
0010
0000
2000
0001
3100
0000
0001
0000
,
0010
0000
0000
0000
0000
0000
0000
0000
0000
0000
0000
0000
0000
0000
0000
0000
0000
0000
0000
0000
0000
0000
0000
0000
0001
0000
0000
0000
0000
0000
0000
0000
0000
0000
0000
0000
1000
0000
0000
0000
0000
0000
0000
0000
0000
0000
0000
0000
0200
0000
0000
0000
0000
0000
0000
0000
0000
0000
0000
0000
1000
0000
0000
0000
0000
0000
0000
0000
0000
0000
0000
0300
0200
0000
0000
0000
0000
0000
0000
0000
0000
0000
0000
0000
0000
0000
0000
0000
0000
0000
0000
0000
0000
0000
0000
0000
0340
0000
0000
0000
0000
0000
0000
0000
0000
0000
0000
0000
0000
0000
0000
0000
0000
0000
0000
0000
0000
0000
0000
0000
0000
0000
0000
0000
0000
0000
0000
0000
0000
0000
0000
0000
0000
0000
0000
0000
0000
0000
0000
0000
0000
0000
0000
0000
0032
0000
0000
0000
0000
0000
0000
0000
0000
0000
0000
0000
0000
0000
0000
0000
0000
0000
0000
0000
0000
0000
0000
0000
0003
0000
0000
0000
0000
0000
0000
0000
0000
0000
0000
0000
0000
0000
0000
0000
0000
0000
0000
0000
0000
0000
0000
0000
,
0100
0000
0010
1000
0010
0100
0001
0000
1000
0000
0100
0010
0001
0000
1000
0000
,
0100
0000
0001
0010
0100
1000
0001
0000
0100
0000
1000
0100
2000
0000
3000
0000
,
2000
0000
3001
0100
0010
0100
0001
0000
0010
0000
0200
0010
0301
0000
1000
0000
,
0000
0100
0000
0000
0040
0000
0030
0000
MMMM
0000
MMMM
0000
MMMM
0000
0000
0000
;

//--------------- dance-single - LNinja - 18.2 ----------------
#NOTEDATA:;
#STEPSTYPE:dance-single;
#DESCRIPTION:LNinja - 18.2;
#DIFFICULTY:Hard;
#METER:18;
#RADARVALUES:0,0,0,0,0;
#NOTES:
0000
0000
0000
0001
,
0001
0000
0100
1000
0010
0001
0000
1000
,
1100
0100
0001
0100
,
1000
0000
0001
0101
0000
0010
0000
2001
,
0000
0001
0000
0001
0000
0001
0000
0001
,
0000
3001
0010
0010
0400
0000
1300
0100
,
0020
0000
0001
0130
0010
1000
0001
0000
0100
0000
1000
0010
0100
0000
0001
0010
,
0100
0000
1000
0010
0100
0001
1000
0000
0100
0000
0001
0010
0200
0000
1000
0000
,
0320
0000
0001
0130
0010
1000
0001
0000
0100
0000
2000
0100
3001
0000
0100
0010
,
1000
0000
0100
0010
0002
1000
0103
0000
0400
0000
0000
0000
0320
0000
0031
0000
,
0010
0000
1000
0010
0100
0001
0010
0000
0100
0000
1000
0100
0010
0000
0100
0000
,
1000
0000
0010
0100
0001
0100
0010
0000
1000
0000
0100
0010
0200
0000
1300
0000
,
0002
0000
0103
0010
1000
0100
0010
0000
0100
0000
2000
0000
3000
0000
0002
0000
,
0003
0020
0000
0030
0400
0000
0300
0000
0020
0000
0030
0000
2002
0000
0000
0000
,
0000
0000
0000
0000
0000
0000
0000
3003
0100
0000
1000
0000
0010
0000
0100
0000
,
1000
0000
0100
0010
0001
0100
0010
0000
0001
0000
1000
0100
0010
0000
0010
0100
,
2000
0000
3001
0100
0001
0010
2002
0003
3010
0000
0002
0103
0010
0000
1000
0000
,
0010
0000
0001
0010
0100
0010
0001
0000
0020
0000
0130
0000
4000
0000
3001
0000
,
0100
0010
1000
0000
0001
0000
0100
0000
1000
0000
0100
0010
0001
0000
0002
0000
,
0003
0000
0100
0010
2000
0100
3010
0000
1000
0000
0010
0000
0001
0000
1000
0000
,
0002
0003
0100
0010
1000
0001
2002
0000
3003
0000
2020
3100
0031
0000
0001
0000
,
0010
0000
0100
1000
0001
0100
0010
0000
4004
0000
0000
0000
3103
0000
1000
0000
,
0010
0000
0001
0010
0001
1000
0010
0000
0100
0000
1000
0100
0010
0000
0002
0000
,
0103
0000
0010
1000
0400
0010
1000
0000
0000
0300
1000
0000
0010
0000
0001
0010
,
0100
0000
1000
0010
0100
0001
0010
0000
2000
0000
0010
3100
0001
0000
0001
0000
,
0010
0000
1000
0100
0010
0001
0010
0100
1000
0000
1000
0000
0400
0000
0000
0300
,
0010
0000
0001
0100
0010
1000
0002
0000
0003
0000
1000
0000
0010
0000
0001
0000
,
0200
0000
1300
0100
0010
0001
1000
0000
0100
0000
0010
0000
2002
0000
3003
0000
,
0202
0303
2200
3300
2020
3030
0022
0033
,
0002
0000
0023
0000
2030
0000
3000
0000
0440
0000
0000
0330
0001
0000
0010
0000
,
1000
0000
0100
0010
0001
1000
0002
0000
0000
0000
1003
0000
0100
0000
0001
0000
,
0100
0000
0010
1000
0001
0000
0010
0100
1000
0000
0010
0100
0001
0000
0010
0000
,
0100
0000
0001
0100
0010
1000
0001
0000
0100
0000
0020
1000
0130
0000
0001
0000
,
0010
0000
1000
0010
0100
0001
0010
0000
0001
0000
0000
0000
1000
0000
0100
0000
,
0001
0000
0200
0010
1300
0001
0100
0000
0001
0000
0010
0100
1000
0000
1000
0001
,
0100
0000
0010
0100
0001
0010
0100
1000
0010
0000
0001
0000
0010
0000
1000
0010
,
0100
0000
0001
0010
0100
1000
0100
0010
0001
0000
1000
0000
0100
0000
0001
0000
,
0100
1100
0022
0033
2200
3300
0001
0010
,
0001
0010
0100
0010
0001
1000
0010
0000
0002
0000
0003
0000
1000
0000
0010
0100
,
0001
0000
0010
0100
1000
0001
0100
0001
1000
0000
0100
0010
0002
0000
0003
0000
,
0020
0000
0130
1000
0010
0100
0002
0000
0003
0000
2020
0000
3130
0000
0001
0000
,
0010
0000
1000
0100
0010
0100
1000
0000
0010
0000
0100
0000
0001
0000
0100
1000
,
0010
0000
0100
0001
0010
0100
1000
0000
0001
0000
0001
0010
0100
0000
0010
0000
,
0001
0100
0010
1000
0100
0010
0001
0000
0100
0000
0001
0010
0100
0000
1000
0100
,
0020
0030
0000
2002
3003
0220
0330
0010
,
1000
0000
0100
0010
0001
0100
0010
1000
0100
0000
0001
0000
0101
0000
1000
0000
,
0010
0000
0000
0000
0000
0000
0100
0000
0000
0010
0000
0000
1000
0000
0000
0010
0000
0000
0100
0000
0000
0000
0000
0000
0001
0000
0000
0000
0000
0000
1000
0000
0000
0001
0000
0000
1040
0000
0000
0000
0000
0000
0000
0000
1000
0000
0000
0000
,
0000
0000
0000
0000
1000
0000
0000
0000
0000
0000
0000
0000
1030
0000
0000
0000
0000
0000
0000
0000
0101
0000
0000
0000
0000
0000
0000
0000
0011
0000
0000
0000
0000
0000
0000
0000
1100
0000
0000
0000
0000
0000
0010
0000
0000
0100
0000
0000
,
0001
0000
0010
0100
0010
0001
0010
0000
0100
0000
1000
0000
0010
0000
0001
0000
,
0100
0000
1000
0100
0010
0001
0100
0000
0010
0000
0001
0000
1000
0000
0100
0010
,
0001
0000
0010
0100
1000
0100
0010
0000
0001
0000
0100
0010
1000
0000
1000
0000
,
0200
0000
0310
0001
0100
0010
1000
0000
0200
0000
0301
0010
2002
0000
3003
0000
,
2020
0000
3030
0000
0022
0000
0033
0000
0440
0000
0330
0000
0001
0000
1000
0100
,
0020
0000
0031
1000
0001
1000
0001
0000
0100
0000
0010
0000
0001
0000
0010
0100
,
1000
0000
1000
0100
0010
0001
0100
0000
0001
0000
0010
0000
0100
0000
1000
0100
,
0010
0000
0001
0100
0010
0100
0001
0000
0010
0000
0200
1000
0301
0000
0100
0000
,
0010
0000
0100
0001
1000
0100
0010
0001
2000
0000
3000
0000
0001
0000
0100
0000
,
0010
1000
0100
0010
0001
1000
0100
0000
0001
0000
0100
0000
0010
0100
0001
0000
,
0001
0000
0010
0100
1000
0001
0100
0000
0001
0000
1000
0000
0100
0000
0001
0100
,
0010
0000
1000
0100
0010
0001
0010
0100
1000
0000
0010
0100
0202
0000
0303
0000
,
2020
0000
3030
0000
2200
0000
3300
0000
0022
0030
4003
0000
3010
0100
0010
0000
,
4000
0000
3100
0010
0100
1000
0004
0000
0010
0000
0103
0010
0100
0000
0004
0000
,
0103
0000
0000
0000
0000
0000
1000
0000
0000
0100
0000
0000
0010
0000
0000
0001
0000
0000
4000
0000
3400
0000
0340
0000
0034
0000
0003
0000
0000
0000
0400
0000
0000
0000
0000
0000
0310
0000
0000
0100
0000
0000
0010
0000
0000
0000
0000
0000
,
1000
0000
0001
0010
0001
0010
0100
0000
1000
0000
0010
0100
0004
0000
0000
0000
,
0013
0100
1000
0010
0200
0000
0001
0000
0310
0000
0004
0000
0000
0000
1003
0100
,
0040
0000
0000
0000
0000
0000
0001
0000
0000
0100
0000
0000
0034
0000
0000
0000
0000
0000
0000
0000
0000
0000
0000
0000
1003
0000
0000
0010
0000
0000
0100
0000
0000
0000
0000
0000
4000
0000
0000
0000
0000
0000
3004
0000
0043
0000
0430
0000
,
4300
0000
3000
0000
0000
0000
0004
0000
0000
1000
0000
0000
0103
0000
0000
1000
0000
0000
0010
0000
0000
0000
0000
0000
0100
0000
0000
0001
0000
0000
0040
0000
0000
0100
0000
0000
1030
0000
0000
0000
0000
0000
0001
0000
0000
0000
0000
0000
,
0100
0000
0010
1000
0100
0010
0001
0000
1000
0000
0010
0100
0004
0000
0000
0000
,
1003
0000
0100
0010
0002
0100
1000
0000
0103
0000
4000
0000
0001
0000
3010
0000
,
0100
0000
0000
0000
0000
0000
0000
0000
0000
0000
0000
0000
0000
0000
0000
0000
0000
0000
0000
0000
0000
0000
0000
0000
0004
0000
0000
0000
0000
0000
0000
0000
0000
0000
0000
0000
0010
0000
0000
0000
0000
0000
0000
0000
0000
0000
0000
0000
0403
0000
0000
0000
0000
0000
0000
0000
0000
0000
0000
0000
0010
0000
0000
0000
0000
0000
0000
0000
0000
0000
0000
0000
0301
0000
0000
0000
0000
0000
0000
0000
0000
0000
0000
0000
0000
0000
0000
0000
0000
0000
0000
0000
0000
0000
0000
0000
0100
0000
0000
0000
0000
0000
0000
0000
0000
0000
0000
0000
0000
0000
0000
0000
0000
0000
0000
0000
0000
0000
0000
0000
0040
0000
0000
0000
0000
0000
0000
0000
0000
0000
0000
0000
1000
0000
0000
0000
0000
0000
0000
0000
0000
0000
0000
0000
0100
0000
0000
0000
0000
0000
0000
0000
0000
0000
0000
0030
0040
0000
0000
0000
0000
0000
0000
0000
0000
0000
0000
0000
0034
0000
0000
0000
0000
0000
0000
0000
0000
0000
0000
0000
0000
0000
0000
0000
0000
0000
0000
0000
0000
0000
0000
0000
,
1003
0000
0000
0000
0000
0000
0000
0000
0000
0000
0000
0000
0000
0000
0000
0000
0000
0000
0000
0000
0000
0000
0000
0000
0040
0000
0000
0000
0000
0000
0000
0000
0000
0000
0000
0000
0100
0000
0000
0000
0000
0000
0000
0000
0000
0000
0000
0000
0001
0000
0000
0000
0000
0000
0000
0000
0000
0000
0000
0030
0040
0000
0000
0000
0000
0000
0000
0000
0000
0000
0000
0000
0130
0000
0000
0000
0000
0000
0000
0000
0000
0000
0000
0000
0000
0000
0000
0000
0000
0000
0000
0000
0000
0000
0000
0000
1000
0000
0000
0000
0000
0000
0000
0000
0000
0000
0000
0000
0000
0000
0000
0000
0000
0000
0000
0000
0000
0000
0000
0000
1000
0000
0000
0000
0000
0000
0000
0000
0000
0000
0000
0000
0010
0000
0000
0000
0000
0000
0000
0000
0000
0000
0000
0000
0400
0000
0000
0000
0000
0000
0000
0000
0000
0000
0000
0000
0000
0000
0000
0000
0000
0000
0000
0000
0000
0000
0000
0000
0000
0000
0000
0000
0000
0000
0000
0000
0000
0000
0000
0000
0000
0000
0000
0000
0000
0000
0000
0000
0000
0000
0000
0000
,
0301
0000
0000
0000
0000
0000
0000
0000
0000
0000
0000
0000
0000
0000
0000
0000
0000
0000
0000
0000
0000
0000
0000
0000
0040
0000
0000
0000
0000
0000
0000
0000
0000
0000
0000
0000
0100
0000
0000
0000
0000
0000
0000
0000
0000
0000
0000
0000
1000
0000
0000
0000
0000
0000
0000
0000
0000
0000
0000
0030
0040
0000
0000
0000
0000
0000
0000
0000
0000
0000
0000
0000
0130
0000
0000
0000
0000
0000
0000
0000
0000
0000
0000
0000
0000
0000
0000
0000
0000
0000
0000
0000
0000
0000
0000
0000
0400
0000
0000
0000
0000
0000
0000
0000
0000
0000
0000
0000
0000
0000
0000
0000
0000
0000
0000
0000
0000
0000
0000
0000
0001
0000
0000
0000
0000
0000
0000
0000
0000
0000
0000
0000
0010
0000
0000
0000
0000
0000
0000
0000
0000
0000
0000
0300
0100
0000
0000
0000
0000
0000
0000
0000
0000
0000
0000
0000
0000
0000
0000
0000
0000
0000
0000
0000
0000
0000
0000
0000
1000
0000
0000
0000
0000
0000
0000
0000
0000
0000
0000
0000
0000
0000
0000
0000
0000
0000
0000
0000
0000
0000
0000
0000
,
0001
0000
0100
0010
1000
0010
0100
0000
0001
0000
0010
0100
4000
0000
3010
0000
,
0100
0000
0000
0000
0000
0000
0000
0000
0000
0000
0000
0000
0000
0000
0000
0000
0000
0000
0000
0000
0000
0000
0000
0000
1000
0000
0000
0000
0000
0000
0000
0000
0000
0000
0000
0000
0100
0000
0000
0000
0000
0000
0000
0000
0000
0000
0000
0000
0040
0000
0000
0000
0000
0000
0000
0000
0000
0000
0000
0000
0001
0000
0000
0000
0000
0000
0000
0000
0000
0000
0000
0030
0010
0000
0000
0000
0000
0000
0000
0000
0000
0000
0000
0000
0000
0000
0000
0000
0000
0000
0000
0000
0000
0000
0000
0000
0100
0000
0000
0000
0000
0000
0000
0000
0000
0000
0000
0000
0000
0000
0000
0000
0000
0000
0000
0000
0000
0000
0000
0000
1000
0000
0000
0000
0000
0000
0000
0000
0000
0000
0000
0000
0010
0000
0000
0000
0000
0000
0000
0000
0000
0000
0000
0000
0400
0000
0000
0000
0000
0000
0000
0000
0000
0000
0000
0000
0000
0000
0000
0000
0000
0000
0000
0000
0000
0000
0000
0000
0001
0000
0000
0000
0000
0000
0000
0000
0000
0000
0000
0000
0000
0000
0000
0000
0000
0000
0000
0000
0000
0000
0000
0000
,
1300
0100
0010
0100
1000
0010
0100
0000
1000
0000
0100
0000
0001
0100
0010
0000
,
1000
0000
0001
0000
0010
0100
1000
0000
0010
0000
1000
0100
0022
0033
0000
0000
,
0202
0303
0000
0000
0010
0000
1000
0000
4100
0000
0001
0000
3200
0000
0310
0000
,
0020
0000
0130
0001
0010
0100
1000
0000
0100
0000
0010
0100
0001
0000
1000
0000
,
0100
0000
0010
1000
0100
0010
0100
0000
0010
0000
0001
0100
0020
0000
0030
0000
,
2000
0000
3001
0010
0100
0010
0001
0000
0001
0000
0200
0010
1300
0000
0100
0000
,
1000
0000
0100
0010
0002
1000
0100
0000
0403
0000
0000
0000
0320
0000
0031
0000
,
0010
0000
1000
0100
0010
0001
0100
0000
0100
0000
0010
1000
0100
0000
0010
0000
,
0001
0000
0010
0100
1000
0100
0010
0000
0001
0000
0100
0010
2000
0000
3000
0000
,
0002
0000
0013
0100
1000
0010
0100
0000
0100
0000
0020
0100
1000
0030
0001
0000
,
1000
0010
0100
0001
0040
0000
0030
0000
0100
0000
0001
0000
1000
0000
0001
0000
,
0200
0000
0010
1300
0100
0010
0001
0000
0010
0000
1000
0010
0100
0000
0010
0000
,
1000
0000
0100
0010
0001
0010
0100
0000
1000
0000
0010
0100
0002
0000
0003
0000
,
0002
0000
1003
0100
0010
0001
0100
0000
1000
0000
0020
0100
0031
0000
1000
0000
,
0010
0000
0001
0010
0200
1000
0010
0000
0340
0000
0000
0000
0230
0000
0300
0000
,
0100
0000
0001
0010
0100
0010
0001
0000
1000
0000
0010
0100
0001
0000
1000
0000
,
0100
0000
0001
0010
0100
1000
0010
0000
0100
0000
1000
0100
0020
0000
0030
0000
,
2000
0000
3001
0100
0010
0100
0001
0000
0010
0000
0200
0010
0301
0000
1000
0000
,
0000
0100
0000
0000
0040
0000
0030
0000
MMMM
0000
MMMM
0000
MMMM
0000
0000
0000
;

//--------------- dance-single - LNinja ----------------
#NOTEDATA:;
#STEPSTYPE:dance-single;
#DESCRIPTION:LNinja;
#DIFFICULTY:Challenge;
#METER:15;
#RADARVALUES:0,0,0,0,0;
#NOTES:
0000
0000
0000
0100
,
0100
0000
0010
0010
1000
0100
0000
0001
,
0001
0100
0100
0010
,
1000
0000
0001
0001
0000
0100
0000
1000
,
0000
1000
0000
1000
0000
1000
0000
1000
,
0000
1000
0100
0100
0040
0030
MMMM
0010
,
0200
0300
MMMM
0001
0010
0001
0100
1000
,
0100
0001
0010
010M
0010
0001
1000
MMMM
,
2000
0000
0000
3000
0010
0000
0100
0000
M001
0000
0020
0000
0030
0000
0100
0000
,
1000
0010
0200
0301
MMMM
MMMM
0200
0300
,
0100
0000
0100
0001
0010
0100
1000
0010
,
0001
0100
0010
M001
0010
0100
0001
MMMM
,
0002
0000
0003
0000
0001
0000
1000
0000
0010
0000
0200
0000
0000
0300
0001
0000
,
0000
0100
0000
0000
0040
0000
0030
0000
0100
0000
0000
0000
MMMM
0000
MMMM
0000
,
MMMM
MMMM
MMMM
MMMM
0010
0001
0100
0010
,
M001
0010
0100
0001
1000
0010
0100
0100
,
0002
0003
0000
MMMM
0000
0000
2002
0000
3003
0000
2200
0000
3300
0000
0001
0000
,
0100
0010
1000
MMMM
0220
0330
MMMM
MMMM
,
0001
0100
1000
0010
0100
100M
0100
0010
,
MMMM
0001
0001
MMMM
0001
0100
0010
1000
,
1000
MMMM
MMMM
2002
3003
0202
0303
1000
,
0100
0010
0001
0000
MMMM
MMMM
MMMM
1000
,
0010
M001
0010
0100
1000
0001
0010
0020
,
0030
1000
MMMM
MMMM
MMMM
0001
0010
100M
,
0010
0001
1000
0100
0001
MMMM
0000
100M
,
0100
0000
0001
0000
0100
0000
1000
0010
0100
0000
0001
0000
MMMM
0000
MMMM
0000
,
1000
0100
0010
M002
0003
M001
0010
0100
,
200M
3000
100M
0100
0001
0000
1001
MMMM
,
1010
MMMM
0011
MMMM
0101
MMMM
1100
MMMM
,
2000
3200
0302
0003
MMMM
MMMM
1000
0100
,
M001
0010
0100
0200
0000
0300
0010
1000
,
0010
0100
100M
0100
0010
M001
0010
0100
,
1000
0001
0100
1000
0010
0200
M00M
1300
,
0100
0001
0010
0100
1000
MMMM
0001
0010
,
1000
0020
0030
0010
1000
010M
M010
0M01
,
M010
010M
1000
001M
0100
10M0
0100
001M
,
M001
0100
M010
0M01
M010
0100
M001
1000
,
MMMM
0011
1100
MMMM
0101
MMMM
100M
01M0
,
100M
0M10
100M
01M0
100M
MMMM
M001
0M10
,
M001
01M0
M001
0M10
M001
1000
0010
MMMM
,
0100
MMMM
MMMM
1010
MMMM
0202
0303
M010
,
010M
10M0
0M1M
10M0
010M
M010
100M
0010
,
010M
1000
001M
0100
M001
1000
0010
010M
,
1000
0001
M010
1000
01M0
0001
0100
0100
,
0010
0000
0000
MMMM
0000
0000
2MM2
0000
3003
0000
M22M
0000
0330
0000
0100
0000
,
0M01
M010
010M
M010
0M01
1000
11M0
0001
,
0100
0000
0000
0010
0000
0000
1M0M
0000
0000
0010
0000
0000
0100
0000
0000
00M1
0000
0000
M401
0000
0000
0000
00M1
0000
,
0000
0000
M001
0000
0000
0000
03M1
0000
0000
0000
1M1M
0000
0000
0000
11MM
0000
0000
0000
0011
0000
0000
0100
0000
0000
,
M001
0100
1000
0010
0001
0100
10M0
010M
,
M010
0000
010M
0000
10M0
0000
0010
0100
0001
0000
1000
0000
0001
0000
0100
0000
,
0010
0001
1000
0100
M001
0100
0010
0001
,
0100
MMMM
1000
0010
0001
MMMM
1001
MMMM
,
0101
MMMM
1100
MMMM
MMMM
MMMM
1000
0001
,
0200
0000
0300
0M01
M010
010M
10M0
010M
,
0010
M001
0100
0010
1M0M
0010
0100
M001
,
0010
0100
100M
0010
1000
0002
0000
1003
,
010M
0010
M001
0100
1000
MMMM
1000
0010
,
0100
001M
0100
0001
M010
0001
1000
0010
,
1000
01MM
1000
0010
0100
0001
1000
0010
,
010M
0010
1000
0100
0010
0001
1100
MMMM
,
0101
0000
MMMM
0000
1010
0000
MMMM
0000
0022
0030
4003
0000
31M0
0000
0M01
0000
,
400M
3M10
M001
0040
0M0M
1030
010M
M004
,
0M13
0000
0000
10M0
0000
0000
010M
0000
0000
M004
0043
0430
4300
3000
0000
00M4
0000
0000
M103
0000
0000
10M0
0000
0000
,
010M
001M
M001
1000
00M1
0M10
M400
00M0
,
1300
0M10
0021
M000
103M
4M00
00M0
3001
,
M400
0000
0000
M01M
0000
0000
03M4
0000
0000
0M00
0000
0000
10M3
0000
0000
010M
0000
0000
M004
0000
0000
4003
3400
0340
,
M034
0003
0000
4000
0000
0000
301M
0000
0000
M1M0
0000
0000
0001
0000
0000
0M04
0000
0000
0003
0000
0000
100M
0000
0000
,
100M
0M10
0M10
010M
100M
0001
MMMM
MMMM
,
0001
0010
2000
00M0
3100
MMMM
MMMM
0100
,
0010
MMMM
MMMM
0001
0100
MMMM
MMMM
1000
,
0001
MMMM
MMMM
0010
0100
0001
MMMM
MMMM
,
0001
MMMM
MMMM
0010
MMMM
MMMM
0010
010M
,
0010
M001
0100
0010
1000
0010
MMMM
0100
,
0010
0001
MMMM
0100
0010
0001
MMMM
MMMM
,
0001
0010
010M
1000
0001
0100
0010
1000
,
0001
0010
0100
M001
0100
1000
1100
MMMM
,
0101
MMMM
0010
0100
0014
10M0
0103
MMMM
,
02M0
0000
0000
0300
0100
0000
1000
0000
0010
0000
1000
0000
0100
0000
M001
0000
,
0100
1000
0010
0100
0010
1000
0001
MMMM
,
0102
0000
0000
0003
0010
0000
0100
0000
1000
0000
0020
0000
0030
0000
0100
0000
,
0001
0010
0200
1300
MMMM
MMMM
0100
MMMM
,
0201
0000
0000
0300
0100
0000
1000
0000
0010
0000
0100
0000
0001
0000
0010
0000
,
1000
0100
0010
100M
0010
0100
1000
MMMM
,
2010
0000
3000
0000
1000
0000
0001
0000
0010
0000
0200
0000
0000
0300
1000
0000
,
0000
0100
0000
0000
0040
0000
0030
0000
0100
0000
0000
0000
0001
0000
MMMM
0000
,
1020
0000
0000
0030
0010
0000
0001
0000
0100
0000
0001
0000
0010
0000
1000
0000
,
0010
0001
0100
0010
0100
0001
1000
MMMM
,
2010
0000
0000
3000
0100
0000
0010
0000
0001
0000
0200
0000
0300
0000
0010
0000
,
1000
0100
0010
0001
MMMM
MMMM
0021
0030
,
0010
0000
0010
0001
0100
0010
1000
0100
,
0001
0010
0100
0001
0100
0010
0001
MMMM
,
0102
0000
0003
0000
0001
0000
1000
0000
0100
0000
0020
0000
0000
0030
0001
0000
,
0000
0010
0000
0000
0400
0000
0300
0000
MMMM
0000
MMMM
0000
MMMM
0000
0000
0000
;

//--------------- dance-single - LNinja - XMOD ----------------
#NOTEDATA:;
#STEPSTYPE:dance-single;
#DESCRIPTION:LNinja - XMOD;
#DIFFICULTY:Edit;
#METER:15;
#RADARVALUES:0,0,0,0,0;
#BPMS:0.000=185.000
,22.000=370.000
,23.000=185.000
,31.000=370.000
,32.750=185.000
,38.000=370.000
,39.000=185.000
,47.000=370.000
,48.750=185.000
,55.000=370.000
,57.750=185.000
,65.500=370.000
,67.000=185.000
,71.000=370.000
,72.000=185.000
,81.500=370.000
,83.250=185.000
,86.000=370.000
,87.000=185.000
,93.000=370.000
,94.250=185.000
,103.000=370.000
,103.750=185.000
,111.000=370.000
,115.500=185.000
,118.000=370.000
,118.750=185.000
,148.500=370.000
,149.500=185.000
,161.500=370.000
,163.000=185.000
,177.500=370.000
,178.000=185.000
,178.500=370.000
,179.000=185.000
,187.000=370.000
,190.333=185.000
,207.000=370.000
,210.500=185.000
,239.000=370.000
,242.000=185.000
,242.500=370.000
,243.000=185.000
,244.000=370.000
,244.500=185.000
,245.500=370.000
,246.500=185.000
,247.500=370.000
,248.000=185.000
,249.500=370.000
,250.167=185.000
,250.500=370.000
,251.000=185.000
,255.000=370.000
,256.000=185.000
,258.500=370.000
,259.500=185.000
,260.000=370.000
,262.000=185.000
,263.000=370.000
,264.167=185.000
,264.500=370.000
,265.000=185.000
,266.500=370.000
,267.000=185.000
,271.000=370.000
,272.000=185.000
,274.500=370.000
,275.500=185.000
,276.500=370.000
,277.500=185.000
,278.500=370.000
,280.000=185.000
,280.500=370.000
,281.500=185.000
,283.000=370.000
,284.000=185.000
,284.500=370.000
,285.500=185.000
,286.000=370.000
,287.000=185.000
,291.000=370.000
,291.500=185.000
,293.000=370.000
,293.500=185.000
,295.000=370.000
,296.000=185.000
,303.000=370.000
,304.750=185.000
,306.000=370.000
,306.500=185.000
,315.000=370.000
,316.750=185.000
,322.000=370.000
,323.000=185.000
,331.000=370.000
,332.750=185.000
,337.000=370.000
,337.500=185.000
,339.000=370.000
,340.750=185.000
,347.000=370.000
,348.750=185.000
,354.000=370.000
,355.000=185.000
,363.000=370.000
,364.750=185.000
,369.000=370.000
,369.500=185.000
;
#STOPS:22.000=0.162
,31.000=0.162
,32.000=0.122
,38.000=0.162
,47.000=0.162
,48.000=0.122
,55.000=0.446
,65.500=0.162
,66.500=0.081
,71.000=0.162
,81.500=0.162
,82.500=0.122
,86.000=0.162
,93.000=0.203
,103.000=0.122
,111.000=0.162
,112.000=0.162
,113.000=0.162
,114.000=0.162
,115.000=0.081
,118.000=0.122
,148.500=0.081
,149.000=0.081
,161.500=0.162
,162.500=0.081
,177.500=0.081
,178.500=0.081
,187.000=0.108
,187.667=0.108
,188.333=0.108
,189.000=0.108
,189.667=0.108
,207.000=0.162
,208.000=0.162
,209.000=0.162
,210.000=0.081
,239.000=0.162
,240.000=0.162
,241.000=0.162
,242.500=0.081
,244.000=0.081
,245.500=0.162
,247.500=0.081
,249.500=0.027
,249.667=0.027
,249.833=0.027
,250.000=0.027
,250.500=0.081
,255.000=0.162
,258.500=0.162
,260.000=0.081
,260.500=0.081
,261.000=0.162
,263.000=0.081
,263.500=0.027
,263.667=0.027
,263.833=0.027
,264.000=0.027
,264.500=0.081
,266.500=0.081
,271.000=0.162
,274.500=0.162
,276.500=0.081
,277.000=0.081
,278.500=0.162
,279.500=0.081
,280.500=0.162
,283.000=0.162
,284.500=0.162
,286.000=0.162
,291.000=0.081
,293.000=0.081
,295.000=0.162
,303.000=0.162
,304.000=0.122
,306.000=0.081
,315.000=0.162
,316.000=0.122
,322.000=0.162
,331.000=0.162
,332.000=0.122
,337.000=0.081
,339.000=0.162
,340.000=0.122
,347.000=0.162
,348.000=0.122
,354.000=0.162
,363.000=0.162
,364.000=0.122
,369.000=0.081
;
#DISPLAYBPM:185.000;
#NOTES:
0000
0000
0000
0100
,
0100
0000
0010
0010
1000
0100
0000
0001
,
0001
0100
0100
0010
,
1000
0000
0001
0001
0000
0100
0000
1000
,
0000
1000
0000
1000
0000
1000
0000
1000
,
0000
1000
0100
0100
0040
0000
0031
0000
,
0200
0000
0000
0300
0100
0000
0001
0000
0010
0000
0001
0000
0100
0000
1000
0000
,
0100
0000
0001
0000
0010
0000
0100
0000
0010
0000
0001
0000
2000
0000
0000
3000
,
2000
0000
0000
3000
0010
0000
0100
0000
0001
0000
0020
0000
0030
0000
0100
0000
,
1000
0010
0200
0001
0040
0300
0230
0300
,
0100
0000
0100
0001
0010
0100
1000
0010
,
0001
0100
0010
0001
0010
0100
0002
0003
,
0002
0000
0003
0000
0001
0000
1000
0000
0010
0000
0200
0000
0000
0300
0001
0000
,
0000
0100
0000
0000
0040
0000
0030
0000
0100
0000
0000
0000
2002
0000
0000
0000
,
0000
0000
0000
0000
0000
0000
0000
3003
0010
0000
0001
0000
0100
0000
0010
0000
,
0001
0010
0100
0001
1000
0010
0100
0100
,
0002
0003
0000
2002
3003
2200
3300
0001
,
0100
0010
1000
0000
0200
0300
0040
0030
,
0001
0100
1000
0010
0100
1000
0100
0020
,
0030
0010
0002
0003
0001
0100
0010
1000
,
2000
0000
3000
2002
3003
0202
0303
1000
,
0100
0010
0001
0000
4004
0000
3003
1000
,
0010
0001
0010
0100
1000
0001
0010
0020
,
0030
0000
1000
0000
0040
0000
0000
0000
0000
0030
0001
0000
0010
0000
1000
0000
,
0010
0001
1000
0100
0002
0000
0003
1000
,
0100
0000
0001
0000
0100
0000
1000
0010
0100
0000
0001
0000
0040
0000
0000
0030
,
1000
0100
0010
0002
0003
0001
0010
0100
,
2000
3000
1000
0100
0001
0000
2002
3003
,
2020
3030
0022
0033
0202
0303
2200
3300
,
2000
0000
3200
0000
0302
0000
0003
0000
0440
0000
0000
0330
1000
0000
0100
0000
,
0001
0010
0100
0200
0000
0300
0010
1000
,
0010
0100
1000
0100
0010
0001
0010
0100
,
1000
0001
0100
1000
0010
0200
0000
1300
,
0100
0001
0010
0100
1000
0000
0001
0010
,
1000
0020
0030
0010
1000
0100
0010
0001
,
0010
0100
1000
0010
0100
1000
0100
0010
,
0001
0100
0010
0001
0010
0100
0001
1000
,
0000
0011
1100
0000
0101
0000
1000
0100
,
1000
0010
1000
0100
2000
3000
0001
0010
,
0001
0100
0001
0010
0001
1000
0020
0030
,
0200
0000
0300
0000
0000
0000
2020
3030
0000
0000
0202
0000
0303
0000
0010
0000
,
0100
1000
0010
1000
0100
0010
1000
0010
,
0100
1000
0010
0100
0001
1000
0010
0100
,
1000
0001
0010
1000
0100
0001
0100
0100
,
0020
0030
0000
2002
3003
0220
0330
0100
,
0001
0010
0100
0010
0001
1000
1100
0001
,
0100
0000
0000
0010
0000
0000
1000
0000
0000
0010
0000
0000
0100
0000
0000
0001
0000
0000
0401
0000
0000
0000
0001
0000
,
0000
0000
0001
0000
0000
0000
0301
0000
0000
0000
1010
0000
0000
0000
1100
0000
0000
0000
0011
0000
0000
0100
0000
0000
,
0001
0100
1000
0010
0001
0100
1000
0100
,
0010
0000
0100
0000
1000
0000
0010
0100
0001
0000
1000
0000
0001
0000
0100
0000
,
0010
0001
1000
0100
0001
0100
0010
0001
,
0200
0300
1000
0010
0002
0003
2002
3003
,
0202
0303
2200
3300
0440
0330
1000
0001
,
0200
0000
0300
0001
0010
0100
1000
0100
,
0010
0001
0100
0010
1000
0010
0100
0001
,
0010
0100
1000
0010
1000
0002
0000
1003
,
0100
0010
0001
0100
2000
3000
1000
0010
,
0100
0010
0100
0001
0010
0001
1000
0010
,
1000
0100
1000
0010
0100
0001
1000
0010
,
0100
0010
1000
0100
0010
0001
2200
3300
,
0202
0000
0303
0000
2020
0000
3030
0000
0022
0030
4003
0000
3100
0000
0001
0000
,
4000
3010
0001
0040
0000
1030
0100
0004
,
0013
0000
0000
1000
0000
0000
0100
0000
0000
0004
0043
0430
4300
3000
0000
0004
0000
0000
0103
0000
0000
1000
0000
0000
,
0100
0010
0001
1000
0001
0010
0400
0000
,
1300
0010
0020
0000
1030
4000
0000
3001
,
0400
0000
0000
0010
0000
0000
0304
0000
0000
0000
0000
0000
1003
0000
0000
0100
0000
0000
0004
0000
0000
4003
3400
0340
,
0034
0003
0000
4000
0000
0000
3010
0000
0000
0100
0000
0000
0001
0000
0000
0004
0000
0000
0003
0000
0000
1000
0000
0000
,
1000
0010
0010
0100
1000
0001
0040
0000
,
0031
0010
2000
0000
3100
0004
0000
0103
,
0010
4000
3400
0301
0100
0040
0000
4030
,
3001
0400
0000
0310
0100
0001
4000
0000
,
3001
0400
0000
0310
0004
0000
0013
0100
,
0010
0001
0100
0010
1000
0010
4000
3100
,
0010
0001
4000
3100
0010
0001
0040
0000
,
0031
0010
0100
1000
0001
0100
0010
1000
,
0001
0000
0010
0000
0100
0000
0001
0000
0100
0000
1000
0000
2200
3300
0000
0000
,
0202
0303
0000
0000
0010
0000
0100
0000
0014
0000
1000
0000
0203
0000
0300
0000
,
0200
0300
0100
1000
0010
1000
0100
0001
,
0100
1000
0010
0100
0010
1000
0002
0003
,
0002
0003
0010
0100
1000
0020
0030
0100
,
0001
0010
0200
1000
0040
0300
0230
0300
,
0100
0000
0100
1000
0010
0100
0001
0010
,
1000
0100
0010
1000
0010
0100
2000
3000
,
2000
0000
3000
0000
1000
0000
0001
0000
0010
0000
0200
0000
0000
0300
1000
0000
,
0000
0100
0000
0000
0040
0000
0030
0000
0100
0000
0000
0000
0001
0000
0000
0000
,
0020
0030
0010
0001
0100
0001
0010
1000
,
0010
0001
0100
0010
0100
0001
2000
3000
,
2000
3000
0100
0010
0001
0200
0300
0010
,
1000
0100
0020
0001
0430
0000
0320
0030
,
0010
0000
0010
0001
0100
0010
1000
0100
,
0001
0010
0100
0001
0100
0010
0002
0003
,
0002
0000
0003
0000
0001
0000
1000
0000
0100
0000
0020
0000
0000
0030
0001
0000
,
0000
0010
0000
0000
0400
0000
0300
0000
MMMM
0000
MMMM
0000
MMMM
0000
0000
0000
;
