#TITLE:WAKARAN (Short Ver.);
#SUBTITLE:;
#ARTIST:DJ NANMO;
#TITLETRANSLIT:;
#SUBTITLETRANSLIT:;
#ARTISTTRANSLIT:;
#GENRE:;
#CREDIT:;
#MUSIC:DJ NANMO WAKARAN (Short Ver.).ogg;
#BANNER:;
#BACKGROUND:DJ NANMO WAKARAN-bg.png;
#CDTITLE:cdtitlelninja.png;
#SAMPLESTART:23.024;
#SAMPLELENGTH:13.167;
#SELECTABLE:YES;
#OFFSET:-0.357;
#BPMS:0.000=180.000;
#STOPS:;
#BGCHANGES:;
#FGCHANGES:;

//--------------- dance-single - LNinja ----------------
#NOTES:
     dance-single:
     LNinja:
     Medium:
     13:
     0,0,0,0,0:
0000
0000
0000
0000
0000
0001
0000
1000
,
0100
0010
0002
0000
0000
0000
0000
0000
,
0100
0100
2000
0000
0000
0000
0000
0000
,
0000
0000
0000
0000
,
3003
0000
0000
0110
0000
0101
0000
0001
,
0010
0100
2000
0000
0000
0000
0000
0000
,
0010
0010
0002
0000
0000
0000
0000
0000
,
0000
0000
0000
0000
,
3003
0000
0000
0000
,
1010
0000
0101
0000
,
0010
0100
0010
0000
1100
0000
0000
0000
,
0020
0000
0000
0000
0000
0000
0000
0000
0000
0000
0000
0000
0000
0000
0000
0000
0000
0000
0000
0000
0000
0000
0000
0000
0000
0000
0000
0000
0000
0000
0000
0000
0000
0000
0000
0000
0000
0000
0000
0000
0000
0000
0000
0000
0000
0000
0000
0000
0002
0000
0000
0000
0000
0000
0000
0030
0000
0000
0000
0000
0000
0000
0000
0000
0000
0000
0000
0000
0000
0000
0000
0000
0000
0000
0000
0000
0000
0000
0000
0000
0000
0000
0000
0000
0000
0000
0000
0000
0000
0000
0000
0000
0000
0000
0000
0000
2003
0000
0000
0000
0000
0000
0000
0000
0000
0000
0000
0000
0000
0000
0000
0000
0000
0000
0000
0000
0000
0000
0000
0000
0000
0000
0000
0000
0000
0000
0000
0000
0000
0000
0000
0000
0000
0000
0000
0000
0000
0000
0000
0000
0000
0000
0000
0000
3100
0000
0000
0000
0000
0000
0000
0000
0000
0000
0000
0000
0000
0000
0000
0000
0000
0000
0000
0000
0000
0000
0000
0000
0010
0000
0000
0000
0000
0000
0000
0000
0000
0000
0000
0000
0000
0000
0000
0000
0000
0000
0000
0000
0000
0000
0000
0000
,
0100
1000
0001
0000
0202
0000
0303
0000
,
1010
0000
0011
0000
,
0100
1000
0100
0000
0101
0000
0000
4004
,
0000
0000
0000
0000
,
0000
0000
0000
3003
,
1010
0101
0000
0000
0011
1100
0000
0000
,
0010
0100
0010
0000
1001
0000
0000
0000
,
1010
0000
1000
0100
1000
0000
0011
0000
,
0001
0100
0001
0000
1100
0000
0000
0010
,
1000
0001
0010
0100
1000
0010
0100
0001
,
0010
0100
1000
0000
1010
0000
0000
0001
,
0100
0000
0000
0000
0100
0000
0001
0000
0010
0000
0100
0000
1000
0100
1000
0000
,
0100
0000
0010
0001
0100
0000
0010
1000
,
0001
0000
0010
0100
0000
1000
0000
0010
,
0000
1000
0001
0000
0010
0000
0000
0000
,
0001
0000
1000
0000
0010
0100
0010
0100
0010
0100
0010
0000
1000
0000
1000
0000
,
0001
0100
0000
0000
0010
0000
1000
0000
0010
1000
0010
0000
0010
0000
0000
0100
,
0001
0000
1000
0010
1000
0000
0001
0100
0001
0000
0001
0000
0000
1000
0010
0000
,
0010
0000
0100
0000
0001
0000
1000
0000
0010
0100
0010
0100
0002
0000
0000
0000
,
0003
1000
0001
1000
0001
1000
0001
1000
,
0001
1000
0001
1000
0001
1000
0001
1000
,
0010
0100
0010
0100
0010
0100
0010
0100
0010
0100
0010
0100
0010
0100
0010
0100
,
0010
0000
0000
0000
0000
0000
0000
0000
0000
1000
0000
0000
0000
0000
0010
0000
,
0100
0000
0000
0100
0000
0020
0000
0000
0000
0000
0000
0000
0000
0000
0000
0000
,
0001
0001
0200
0000
0000
0000
0000
0000
,
0000
0000
0000
0000
,
0330
0000
0000
0001
1000
0010
0000
0100
,
0001
0001
0200
0000
0000
0000
0000
0000
,
1000
1000
0020
0000
0000
0000
0000
0000
,
0000
0000
0000
0000
,
0330
0000
0000
0000
0000
0000
0000
1000
,
0010
0100
0002
0003
0001
1000
0100
0010
,
0001
1000
0010
0200
0000
0000
0300
0000
,
0001
1000
0000
0000
0010
0000
0000
0000
1000
0000
0000
0000
0001
0000
0010
0000
,
0000
0100
1000
0001
0000
0000
0000
1000
,
0001
0010
0100
1000
0010
0100
0000
0001
,
1000
0000
0010
0100
0000
0010
0100
0001
,
0010
0200
0000
0000
0000
0300
0000
0010
,
0002
0000
2000
3003
,
0110
1001
0000
0000
0011
1100
0000
0000
,
0010
1000
0010
0000
0101
0000
0000
0000
,
1001
1000
1010
0010
,
0100
0001
0100
0000
1100
0000
1000
0000
,
1001
0100
0101
0010
,
1000
0010
1000
0000
0011
0000
0000
0000
,
0101
0010
0110
1000
,
0001
0010
0001
0000
1001
0000
0000
0000
,
0001
0100
0000
0010
1000
0000
0010
0000
0010
0001
0000
0000
,
1000
0010
1000
0000
0101
0000
0010
0000
,
0110
1000
1010
0001
,
0100
0001
0100
0000
0001
0000
1000
0000
,
1010
0100
0101
0010
,
0100
0010
0100
0000
1000
0000
0000
0000
,
0010
0100
0010
0100
0010
1000
0001
0010
,
0100
0000
0010
0000
0100
0000
1000
0000
0100
0000
0010
0000
0001
0000
0000
2000
,
0000
3001
0010
0200
0000
0000
0000
0000
,
0300
0000
0000
0000
0000
0010
0001
0100
,
0010
1000
0010
0101
0000
0010
0100
0002
,
0000
0000
0000
0003
0000
0000
0000
1000
,
0020
0000
0230
0000
0302
0000
1003
0001
,
0000
0001
0200
0000
0300
0000
0000
0010
,
0200
0300
0100
0002
0003
0010
0100
2000
,
3000
0010
0100
0002
0003
0010
0001
1000
,
0010
0200
0300
0002
0000
0003
0001
2000
,
0000
0000
3000
0000
0000
0100
1000
0010
,
0100
0010
1000
0002
0003
0010
0100
0002
,
0010
0010
1003
1000
0000
1010
0101
1000
,
0001
0001
0020
0030
0200
0300
0001
0002
,
0003
0010
0200
0000
0300
0001
2000
0000
,
3000
0010
0100
0002
0003
0010
0100
2000
,
3000
0010
1000
0200
0000
0300
0010
0004
,
0000
0000
0000
0000
,
0003
0000
0000
1000
0010
0100
0010
2000
,
3000
0002
1000
0000
0010
0000
0100
0000
,
2000
0000
0000
0000
0000
0000
0000
0000
0000
3003
0000
0000
0000
0000
0000
0000
0100
0000
0000
0000
0000
0000
0000
0000
0010
0000
0000
0000
0000
0000
0001
0000
0000
0000
0000
0000
0100
0000
0000
0000
0000
0000
0010
0000
0000
0000
0000
0000
,
0000
2000
0010
0000
0001
0000
0100
0000
,
0010
0000
0000
0000
0000
0000
0000
0000
0000
3000
0000
0000
0000
0000
0000
0000
0100
0000
0000
0000
0000
0000
0000
0000
0001
0000
0000
0000
0000
0000
0010
0000
0000
0000
0000
0000
0100
0000
0000
0000
0000
0000
1000
0000
0000
0000
0000
0000
,
0000
0020
1000
0000
0100
0000
0030
0001
,
2000
0000
3000
0000
0000
0000
0000
0011
,
1100
0000
0000
1010
0101
0000
0000
1001
,
0110
0000
1000
0010
0100
0000
1001
0000
,
0110
2002
0000
0000
0000
0000
0000
0000
,
0000
0000
0000
0000
,
3003
0000
0000
0000
;

//--------------- dance-single - LNinja ----------------
#NOTES:
     dance-single:
     LNinja:
     Hard:
     15:
     0,0,0,0,0:
0000
0000
0000
0000
0000
0001
0000
1000
,
0100
0011
0002
0100
0000
0000
0010
0000
,
0100
0100
2000
0000
0100
0000
0100
0000
,
0100
0000
0100
0000
0100
0000
0100
3003
,
1001
0000
0000
0110
0000
0101
1000
0001
,
0010
0100
2000
0001
0000
0000
0001
0000
,
0010
0010
0002
0000
0100
0000
0100
0000
,
0100
0100
0100
0100
,
3003
0010
0100
0010
,
1010
0100
0101
0010
,
0010
0100
0010
0000
1100
0000
0010
0000
,
0020
0000
0000
0000
0000
0000
0000
0000
0000
0000
0000
0000
0000
0000
0000
0000
0000
0000
0000
0000
0000
0000
0000
0000
0001
0000
0000
0000
0000
0000
0000
0000
0000
0000
0000
0000
0000
0000
0000
0000
0000
0000
0000
0000
0000
0000
0000
0000
0002
0000
0000
0000
0000
0000
0000
0030
0000
0000
0000
0000
0000
0000
0000
0000
0000
0000
0000
0000
0000
0000
0000
0000
1000
0000
0000
0000
0000
0000
0000
0000
0000
0000
0000
0000
0000
0000
0000
0000
0000
0000
0000
0000
0000
0000
0000
0000
2003
0000
0000
0000
0000
0000
0000
0000
0000
0000
0000
0000
0000
0000
0000
0000
0000
0000
0000
0000
0000
0000
0000
0000
0100
0000
0000
0000
0000
0000
0000
0000
0000
0000
0000
0000
0000
0000
0000
0000
0000
0000
0000
0000
0000
0000
0000
0000
3100
0000
0000
0000
0000
0000
0000
0000
0000
0000
0000
0000
0000
0000
0000
0000
0000
0000
0000
0000
0000
0000
0000
0000
0010
0000
0000
0000
0000
0000
0000
0000
0000
0000
0000
0000
0000
0000
0000
0000
0000
0000
0000
0000
0000
0000
0000
0000
,
0100
1000
0001
0000
0202
0000
0303
1010
,
1010
0000
0000
0011
0011
0000
0000
0000
,
0100
1000
0100
0000
0101
0000
0000
4004
,
0000
0000
0000
0000
,
0000
0000
0000
3003
,
1010
0101
0000
0000
0011
1100
0000
0000
,
0010
0100
0010
0000
1001
0000
0010
0000
,
1010
0000
1000
0100
1000
0000
0011
0000
,
0001
0100
0001
0000
1100
0000
0010
0010
,
1000
0001
0010
0100
1000
0010
0100
0001
,
0010
0100
1000
0000
1010
0000
0001
0001
,
0100
0000
0100
0000
0100
0000
0001
0000
0010
0000
0100
0000
1000
0100
1000
0000
,
0100
0010
0010
0001
0100
0010
0010
1000
,
0001
0010
0010
0100
0000
1000
1000
0010
,
0000
1000
0001
0000
0010
0000
0110
0000
,
0001
0000
1000
0000
0010
0100
0010
0100
0010
0100
0010
0000
1000
0000
1000
0000
,
0001
0100
0000
0000
0010
0000
1000
0000
0010
1000
0010
0000
0010
0000
0000
0100
,
0001
0000
1000
0010
1000
0000
0001
0100
0001
0000
0001
0000
0000
1000
0010
0000
,
0010
0000
0100
0000
0001
0000
1000
0000
0010
0100
0010
0100
0002
0000
1000
0000
,
0003
0001
0010
0100
0010
0100
1000
0010
,
0100
0010
1000
0100
1000
0010
1000
0100
,
0010
0100
0010
0100
0010
0100
0010
0100
0010
0100
0010
0100
0010
0100
0010
0100
,
0010
0000
0000
0000
0000
0000
0000
0000
0000
1000
0000
0000
0000
0000
0010
0000
,
0110
0000
0000
0100
0000
0020
0000
0000
0000
0000
0000
0000
0100
0000
0000
0000
,
0001
0001
0200
0000
0001
0000
0001
0000
,
0001
0001
0001
0001
,
0331
0000
0000
0001
1000
0010
0000
0100
,
0101
0001
0200
0010
0000
0000
0010
0000
,
1000
1000
0020
0000
1000
0000
1000
0000
,
1000
1000
1000
1000
,
1330
0000
0000
0000
0000
0000
0000
1000
,
0010
0100
0002
1003
0001
1000
0100
0010
,
0001
1000
0010
0200
0001
0000
0301
0000
,
0001
1000
0000
0000
0010
0000
1000
0000
1000
0000
0000
0000
0001
0000
0010
0000
,
0100
0100
1000
0001
0000
0000
1000
1000
,
0001
0010
0100
1000
0010
0100
0001
0001
,
1000
1000
0010
0100
0010
0010
0100
0001
,
0010
0200
0010
0000
0010
0300
0000
0010
,
0002
1000
2000
3003
,
0110
1001
0000
0000
0011
1100
0000
0000
,
0010
1000
0010
0000
0101
0000
0100
0000
,
1001
1010
1010
0110
,
0100
0001
0100
0000
1100
0000
1001
0000
,
1001
0101
0101
1010
,
1000
0010
1000
0000
0011
0000
0000
0000
,
0101
0110
0110
1000
,
0001
0010
0001
0000
1001
0100
0010
0100
,
0001
0100
0000
0010
1000
0000
0010
0000
0010
0001
0000
0000
,
1000
0010
1000
0000
0101
0000
0110
0000
,
0110
1010
1010
0001
,
0100
0001
0100
0000
0001
0000
1010
0000
,
1010
0101
0101
0010
,
0100
0010
0100
0000
1000
0000
0000
0000
,
0010
0100
0010
0100
0010
1000
0001
0010
,
0100
0000
0010
0000
0100
0000
1000
0000
0100
0000
0010
0000
0001
0000
0000
2000
,
0000
3001
0010
0200
0001
0000
0001
0000
,
0300
0000
0000
0000
0000
0010
0001
0100
,
0010
1000
0010
0101
0000
0010
0100
0002
,
1000
0000
1000
0003
0000
0000
0000
1000
,
0020
0100
0230
0001
0302
1000
1003
0001
,
0001
0001
0200
0010
0300
0000
0000
0010
,
0100
0100
0100
0001
0001
0010
0100
1000
,
1000
0010
0100
0001
0001
0010
0001
1000
,
0010
0100
0100
0002
1000
0003
0001
2000
,
0001
0000
3100
0000
0000
0100
1000
0010
,
0100
0010
1000
0001
0001
0010
0100
0002
,
0010
0010
1003
1000
0000
1010
0101
2100
,
0001
0001
0020
0030
0200
0300
0001
3002
,
1003
0010
0200
0001
0300
0001
2000
0010
,
3000
0010
0100
0002
0003
0010
0100
2000
,
3000
0010
1000
0200
0010
0300
0010
0004
,
0100
0010
0100
0010
,
0103
0000
0000
1000
0010
0100
0010
2000
,
3000
0002
1000
0000
0010
0000
0100
0000
,
2000
0000
0000
0000
0000
0000
0000
0000
0000
3003
0000
0000
0000
0000
0000
0000
0100
0000
0000
0000
0000
0000
0000
0000
0010
0000
0000
0000
0000
0000
0001
0000
0000
0000
0000
0000
0100
0000
0000
0000
0000
0000
0010
0000
0000
0000
0000
0000
,
0000
2000
0010
0000
0001
0000
0100
0000
,
0010
0000
0000
0000
0000
0000
0000
0000
0000
3000
0000
0000
0000
0000
0000
0000
0100
0000
0000
0000
0000
0000
0000
0000
0001
0000
0000
0000
0000
0000
0010
0000
0000
0000
0000
0000
0100
0000
0000
0000
0000
0000
1000
0000
0000
0000
0000
0000
,
0000
0020
1000
0000
0100
0000
0030
0001
,
2000
0000
3000
0000
0000
0000
0000
0011
,
1100
0000
0000
1010
0101
0000
0000
1001
,
0110
0000
1000
0010
0100
0000
1001
0000
,
0110
2002
0000
0000
0000
0000
0000
0000
,
0000
0000
0000
0000
,
3003
0000
0000
0000
;

//--------------- dance-single - LNinja ----------------
#NOTES:
     dance-single:
     LNinja:
     Challenge:
     14:
     0,0,0,0,0:
0000
0000
0000
0000
0000
0001
00M0
1000
,
0100
0010
0002
0000
00M0
0000
00M0
0000
,
01M0
0100
20M0
0000
0MM0
0000
0MM0
0000
,
0MM0
0MM0
0MM0
0MM0
,
3MM3
0000
0000
M11M
0000
M1M1
0000
0001
,
0010
0100
2000
0000
0M00
0000
0M00
0000
,
0M10
0010
0M02
0000
0MM0
0000
0MM0
0000
,
0MM0
0MM0
0MM0
0MM0
,
3MM3
0000
MMMM
0000
,
1M1M
0000
M1M1
0000
,
0010
0100
0010
0000
11MM
0000
0000
0000
,
0020
0000
0000
0000
0000
0000
0000
0000
0000
0000
0000
0000
0000
0000
0000
0000
0000
0000
0000
0000
0000
0000
0000
0000
0000
0000
0000
0000
0000
0000
0000
0000
0000
0000
0000
0000
0000
0000
0000
0000
0000
0000
0000
0000
0000
0000
0000
0000
M002
0000
0000
0000
0000
0000
0000
0030
0000
0000
0000
0000
0000
0000
0000
0000
0000
0000
0000
0000
0000
0000
0000
0000
0000
0000
0000
0000
0000
0000
0000
0000
0000
0000
0000
0000
0000
0000
0000
0000
0000
0000
0000
0000
0000
0000
0000
0000
2003
0000
0000
0000
0000
0000
0000
0000
0000
0000
0000
0000
0000
0000
0000
0000
0000
0000
0000
0000
0000
0000
0000
0000
0000
0000
0000
0000
0000
0000
0000
0000
0000
0000
0000
0000
0000
0000
0000
0000
0000
0000
0000
0000
0000
0000
0000
0000
3100
0000
0000
0000
0000
0000
0000
0000
0000
0000
0000
0000
0000
0000
0000
0000
0000
0000
0000
0000
0000
0000
0000
0000
0010
0000
0000
0000
0000
0000
0000
0000
0000
0000
0000
0000
0000
0000
0000
0000
0000
0000
0000
0000
0000
0000
0000
0000
,
0100
1000
0001
0000
M2M2
0000
0303
0000
,
1M1M
0000
MM11
0000
,
0100
1000
0100
0000
M1M1
0000
0000
4004
,
0MM0
0MM0
0MM0
0MM0
0MM0
0MM0
0MM0
0MM0
,
0MM0
0000
0MM0
0000
0MM0
0000
0MM0
0000
0MM0
0000
0MM0
0000
3003
0000
0000
0M0M
,
1010
0000
0101
M0M0
0000
0000
0000
MM00
0011
0000
1100
00MM
0000
0000
0000
0000
,
0010
0100
0010
0000
1MM1
0000
0000
0000
,
1M1M
0000
10M0
0100
1000
0000
0M11
0000
,
0001
0100
0001
0000
110M
0000
0000
0010
,
1000
0001
0010
0100
1000
0010
0100
0001
,
0010
0100
1000
0000
1M1M
0000
0000
0001
,
0100
0000
000M
0000
0100
0000
0001
0000
0010
0000
0100
0000
1000
010M
1000
0000
,
0100
0000
0010
0001
0100
0000
0010
1000
,
0001
0000
0010
0100
0000
100M
0000
0010
,
0000
1000
0001
0000
M010
0000
MMMM
0000
,
0001
0000
1000
0000
M01M
M10M
M01M
M10M
M01M
M10M
0010
0000
1000
0000
1000
0000
,
0001
0100
0000
0000
0010
0000
1000
0000
0010
100M
0010
000M
0010
0000
0000
0100
,
0001
0000
1000
0010
1000
0000
0001
0100
0001
M000
0001
0000
0000
1000
0010
0000
,
0010
0000
0100
0000
0001
0000
1000
0000
0010
0100
0010
0100
0002
0000
M000
0000
,
0003
1000
0M01
10M0
0M01
10M0
0M01
10M0
,
0M01
10M0
0M01
10M0
0M01
10M0
0M01
1000
,
0010
010M
M010
010M
M010
010M
M010
010M
M010
010M
M010
010M
M010
010M
M010
010M
,
M010
0000
0000
0000
0000
0000
0000
0000
0000
1000
0000
0000
0000
0000
0010
0000
,
0100
0000
0000
0100
0000
0020
0000
0000
0000
0000
0000
0000
0000
0000
0000
0000
,
M001
M001
0200
0000
0000
0000
0000
0000
,
0000
0000
0000
0000
,
0330
0000
0000
0001
1000
0010
0000
0100
,
0001
0001
0200
0000
0000
0000
0000
0000
,
100M
100M
0020
0000
0000
0000
0000
0000
,
0000
0000
0000
0000
,
0330
0000
0000
0000
0000
0000
0000
1000
,
0010
0000
0100
0000
0002
M000
0003
0000
0001
0000
1000
0000
0100
0000
0010
0000
,
0001
0000
1000
0000
0010
0000
0200
0000
0000
000M
0000
0000
0300
0000
0000
0000
,
0001
1000
0000
0000
0010
0000
0000
0000
1000
0000
0000
0000
0001
0000
0010
0000
,
0000
0100
1000
0001
0000
0000
0000
1000
,
0001
0010
0100
1000
0010
0100
0000
0001
,
1000
0000
0010
0100
M00M
0010
0100
0001
,
0010
0200
M00M
0000
M00M
0300
0000
0010
,
0002
0000
0000
0000
0MM0
0000
0000
0000
2MM0
0000
0000
0000
3MM3
0000
0000
M00M
,
0110
0000
1001
0MM0
0000
0000
0000
MM00
0011
0000
1100
00MM
0000
0000
0000
0000
,
0010
1000
0010
0000
M1M1
0000
0000
0000
,
1MM1
1000
1M1M
0010
,
0100
M001
0100
0000
11MM
0000
1000
0000
,
1MM1
0100
M1M1
0010
,
1000
0010
1000
0000
MM11
0000
0000
0000
,
M1M1
0010
M11M
1000
,
0001
0010
0001
0000
1MM1
0000
0000
0000
,
0001
0100
0000
0010
1000
0000
0010
0000
0010
0001
0000
0000
,
1000
0010
1000
0000
M1M1
0000
0010
0000
,
M11M
1000
1M1M
0001
,
0100
0001
0100
0000
0001
0000
1000
0000
,
1M1M
0100
M1M1
0010
,
0100
0010
0100
0000
1000
0000
0000
0000
,
M010
010M
M010
010M
0010
1M00
00M1
M010
,
010M
0000
M010
0000
010M
0000
1000
0000
0100
0000
0010
0000
0001
0000
0000
2000
,
0000
3001
0010
0200
0000
00M0
0000
0000
,
0300
0000
0000
0000
0000
0010
0001
0100
,
0010
1000
0010
M101
0000
0010
0100
0002
,
0000
0M00
0000
0003
0000
0000
0000
1000
,
0020
0000
0230
0000
0302
0000
1003
0001
,
0000
0001
0200
0000
0300
0000
0000
0010
,
0200
0300
0100
0002
0003
0010
0100
2000
,
3000
0010
0100
0002
0003
0010
0001
1000
,
0010
0200
0300
0002
0000
0003
0001
2000
,
0000
0000
3000
0000
0000
0100
1000
0010
,
0100
0010
1000
0002
0003
0010
0100
0002
,
0010
0010
1003
1000
0000
1010
0101
2100
,
0001
0001
0020
0030
020M
0300
0001
3002
,
0003
0010
0200
0000
0300
0001
2000
0000
,
3000
0010
0100
0002
0003
0010
0100
2000
,
3000
0010
1000
0200
0000
0300
0010
0004
,
0000
00M0
00M0
00M0
00M0
00M0
00M0
00M0
,
0003
0000
0000
1000
0010
0100
0010
2000
,
3000
0002
1000
0000
0010
0000
0100
0000
,
2000
0000
0000
0000
0000
0000
0000
0000
0000
3003
0000
0000
0000
0000
0000
0000
0100
0000
0000
0000
0000
0000
0000
0000
0010
0000
0000
0000
0000
0000
0001
0000
0000
0000
0000
0000
0100
0000
0000
0000
0000
0000
0010
0000
0000
0000
0000
0000
,
0000
2000
0010
0000
0001
0000
0100
0000
,
0010
0000
0000
0000
0000
0000
0000
0000
0000
3000
0000
0000
0000
0000
0000
0000
0100
0000
0000
0000
0000
0000
0000
0000
0001
0000
0000
0000
0000
0000
0010
0000
0000
0000
0000
0000
0100
0000
0000
0000
0000
0000
1000
0000
0000
0000
0000
0000
,
0000
0020
100M
0000
010M
0000
0030
0001
,
2000
0000
0000
0000
3000
0000
0000
0000
0000
0000
0000
0000
0000
MM00
0011
0000
,
1100
00MM
0000
0000
0000
0M0M
1010
0000
0101
M0M0
0000
0000
0000
0MM0
1001
0000
,
0110
M00M
0000
0000
1000
0000
0010
0000
0100
0000
0000
0000
1MM1
0000
0000
M00M
,
0110
0000
2002
0MM0
0MM0
0MM0
0MM0
0MM0
0MM0
0MM0
0MM0
0MM0
0MM0
0MM0
0MM0
0MM0
,
0MM0
0MM0
0MM0
0MM0
0MM0
0MM0
0MM0
0MM0
0MM0
0MM0
0MM0
0MM0
0MM0
0MM0
0MM0
0MM0
,
3MM3
MMMM
0000
0000
;
