#TITLE:Tires On Fire;
#SUBTITLE:;
#ARTIST:coda;
#TITLETRANSLIT:;
#SUBTITLETRANSLIT:;
#ARTISTTRANSLIT:;
#GENRE:;
#CREDIT:;
#MUSIC:Tires On Fire.wav;
#BANNER:eurobeat_is_crack-BN.png;
#BACKGROUND:eurobeat_is_crack-BG.png;
#CDTITLE:cdtitlelninja.png;
#SAMPLESTART:3.095;
#SAMPLELENGTH:11.499;
#SELECTABLE:YES;
#OFFSET:-0.079;
#BPMS:0.000=159.151;
#STOPS:;
#BGCHANGES:;
#FGCHANGES:;

//--------------- dance-single - LNinja ----------------
#NOTES:
     dance-single:
     LNinja:
     Hard:
     16:
     0,0,0,0,0:
1001
0000
0000
0010
0100
0000
0000
0001
,
1000
0000
0010
0100
0001
0000
1000
0000
,
0101
0000
0000
0000
0100
0000
0000
0000
0001
1000
0001
0000
0000
0000
1000
0000
,
0000
0000
0001
0010
0100
1000
0010
0100
0001
0000
0000
0000
1010
0000
0000
0000
,
0110
0000
0000
0000
0001
0000
0000
0000
1000
0001
1000
0001
0000
0100
0010
1000
,
0001
0010
0001
0010
0100
1000
0100
1000
0010
0100
0010
0100
0001
1000
0001
1000
,
0001
0000
0000
0000
1000
0000
0000
0000
0001
1000
0001
0000
0000
0000
1000
0000
,
0000
0000
0010
0001
1000
0100
0010
0001
1000
0000
0000
0000
0011
0000
0000
0000
,
1100
0000
0000
0000
0001
0000
0000
0000
1000
0001
1000
0001
0000
0100
0010
0000
,
1010
0000
0000
0101
0000
0000
0110
0000
0000
0000
0000
0000
2002
0000
3003
0000
,
0010
0000
0100
0000
0001
0000
1000
0000
0010
1000
0001
0200
0001
0000
0300
0000
,
1000
0001
0100
0010
1001
0100
0101
1000
,
1100
0000
0001
0100
0001
1000
0000
0000
0001
1000
0001
1000
0000
0000
0000
0000
,
0001
0000
1000
0000
1010
0001
0101
1000
,
1002
0100
2003
3001
0120
1000
0230
0010
,
0301
0000
1000
0001
0200
0000
0300
0000
0001
0010
0100
1000
0010
0100
0001
1000
,
0100
0000
1000
0001
0100
0001
0000
0000
1000
0001
1000
0001
0000
0000
0000
0000
,
1000
0100
1000
0100
0010
0001
0010
0001
1000
0010
1000
0010
0100
0001
0100
0001
,
0000
0010
0100
1000
0001
0100
0010
1000
0000
0001
1000
0001
1000
0000
0110
0000
,
0001
0010
0100
1000
0100
1000
0010
0100
0002
0000
0000
0003
4004
0000
0000
3003
,
0010
0100
0001
1000
0010
0100
0001
1000
0010
0001
0010
0001
1000
0000
0010
0000
,
2001
0100
3002
0100
2003
0100
3002
0100
,
0003
1000
0010
0100
0001
1000
0001
1000
0000
0001
0100
0001
0010
0000
0100
0000
,
1000
0100
1000
0100
0001
0100
0001
2000
0000
0000
0000
0000
3004
0000
0000
0003
,
0010
0100
0001
1000
0010
0100
0001
1000
0010
0001
0010
0001
1000
0000
0010
0000
,
2001
0100
3002
0100
2003
0100
3002
0103
,
0020
0000
1000
0000
0130
0001
1000
0010
,
0000
1000
0000
0002
0100
0000
1000
0000
,
0203
0000
0300
0000
1000
0001
1000
0100
,
0010
0001
1000
0020
0000
1030
0001
0000
,
1001
0000
0001
0000
1000
0010
0100
0001
,
0000
0010
0000
0002
1000
0000
0100
0000
,
2000
0000
0000
0000
3003
0010
1000
0001
,
0010
0001
1000
0100
0000
1000
0001
0000
,
1010
0000
1000
0000
0001
0100
0010
1000
,
0000
0001
0000
1000
1010
0000
0101
0000
,
1100
0000
0001
0000
0000
1000
0010
0100
,
0001
0010
0100
2000
0000
3001
0100
0000
,
0101
0000
0001
0000
0010
1000
0001
0010
,
0000
0001
0000
0100
0101
0000
1001
0000
,
1100
1000
0001
1000
,
1010
0000
0000
0101
0000
0000
1100
0000
0000
0000
0000
0000
2002
0000
0003
0000
,
3002
1000
2003
0010
3020
0100
0230
0001
,
0302
1000
0003
1000
0002
0000
0023
0100
,
0230
0000
0000
0000
0000
0000
0000
0000
0000
0000
0000
0000
0000
0000
0000
0000
0000
0000
0000
0000
0000
0000
0000
0000
0000
0000
0000
0000
0000
0000
0000
0000
0000
0000
0000
0000
0301
0000
0000
0000
0000
0000
0000
0000
0000
0000
0000
0000
2000
0000
0000
0000
0000
0000
0000
0000
0000
0000
0000
0000
0000
0000
0000
0000
0000
0000
0000
0000
0000
0000
0000
0000
0001
0000
0000
0000
0000
0000
0000
0000
0000
0000
0000
0000
0000
0000
0000
0000
0000
0000
0000
0000
0000
0000
0000
3000
,
0001
0010
0100
1000
0100
1000
0000
0000
0101
0000
0000
0000
0011
0000
0000
0000
,
1002
0100
0100
0100
2003
0010
0010
0010
,
3002
0100
0203
0010
0320
1000
2030
0001
,
3002
0000
0000
0000
0003
0000
0000
0000
1000
0001
1000
0001
0000
0000
0000
0000
,
1000
0100
1000
0100
0010
0001
0010
0001
1000
0010
1000
0010
0100
0001
0100
0001
,
2000
0001
0001
0001
,
3002
1000
1000
1000
,
0103
0010
0100
0010
1000
0010
1000
0010
1000
0001
1000
0001
0010
0000
0001
0000
,
0200
0000
0000
0000
0000
0000
0000
0000
0301
1000
0001
1000
0010
0100
0010
0100
,
0020
1000
1000
1000
,
0230
0000
0001
0000
0001
0000
0001
0300
,
0100
0010
0100
0010
1000
0010
1000
0010
1000
0001
1000
0001
0010
0000
0001
0000
,
0200
0000
0000
0000
0000
0000
0000
0000
0301
1000
0001
1000
0010
0100
0010
0100
,
2002
0000
3003
1010
0101
0000
0000
0011
,
1100
0000
0000
0110
1001
0000
0000
0101
,
1010
0000
0000
1100
0011
0000
0220
0330
,
2002
3003
0220
0330
2002
3003
0220
0330
,
0101
0000
0000
0000
0100
0000
0000
0000
0001
1000
0001
0000
0000
0000
1000
0000
,
0000
0000
0001
0010
0100
1000
0010
0100
0001
0000
0000
0000
1010
0000
0000
0000
,
0110
0000
0000
0000
0001
0000
0000
0000
1000
0001
1000
0001
0000
0100
0010
1000
,
0001
0010
0001
0010
0100
1000
0100
1000
0010
0100
0010
0100
0001
1000
0001
1000
,
0020
0000
1000
0000
0130
0001
1000
0010
,
0000
1000
0000
0002
0100
0000
1000
0000
,
0203
0000
0300
0000
1000
0001
1000
0100
,
0010
0001
1000
0020
0000
1030
0001
0000
,
1001
0000
0001
0000
1000
0010
0100
0001
,
0000
0010
0000
0002
1000
0000
0100
0000
,
2000
0000
0000
0000
3003
0010
1000
0001
,
0010
0001
1000
0100
0000
1000
0001
0000
,
1010
0000
1000
0000
0001
0100
0010
1000
,
0000
0001
0000
1000
1010
0000
0101
0000
,
1100
0000
0001
0000
0000
1000
0010
0100
,
0001
0010
0100
2000
0000
3001
0100
0000
,
0101
0000
0001
0000
0010
1000
0001
0010
,
0000
0001
0000
0100
0101
0000
1001
0000
,
1100
1000
0001
1000
,
1010
0000
0000
0101
0000
0000
0110
0000
0000
0000
0000
0000
2002
0000
0000
0000
,
0000
0000
0000
0000
,
3003
0000
0000
0000
;
