#TITLE:Tetoris;
#SUBTITLE:;
#ARTIST:Hiiragi Magnetite;
#TITLETRANSLIT:;
#SUBTITLETRANSLIT:;
#ARTISTTRANSLIT:;
#GENRE:;
#CREDIT:;
#MUSIC:Tetoris.ogg;
#BANNER:Tetoris.png;
#BACKGROUND:Tetoris-bg.png;
#CDTITLE:cdtitlelninja.png;
#SAMPLESTART:39.551;
#SAMPLELENGTH:22.235;
#SELECTABLE:YES;
#OFFSET:-0.022;
#BPMS:0.000=170.000;
#STOPS:;
#BGCHANGES:;
#FGCHANGES:;

//--------------- dance-single - LNinja ----------------
#NOTES:
     dance-single:
     LNinja:
     Medium:
     15:
     0,0,0,0,0:
0000
0000
0000
0000
,
0100
0000
1000
0000
0010
0000
0100
0001
0010
0000
0100
1000
0010
0000
0100
0000
,
0100
0000
0001
0000
0010
0000
0100
1000
0010
0000
0100
0001
0010
0000
0100
0000
,
1000
0000
1000
0000
0100
0000
0010
0001
0100
0000
0010
1000
0100
0000
0010
0000
,
0001
0000
0001
0010
1000
0010
0001
0000
,
0010
0000
0001
0000
0100
0000
0010
1000
0100
0000
0010
0001
0100
0000
0010
0000
,
1000
0000
1000
0000
0100
0000
0010
0001
0100
0000
0010
1000
0100
0000
0010
0000
,
0001
0000
0001
0000
0010
0000
0100
1000
0010
0000
0100
0001
0010
0000
0100
0000
,
1000
0000
1000
0100
0001
0100
1000
0000
,
1000
0000
0001
0000
0010
0000
0100
1000
0010
0000
0100
0001
0010
0000
0100
0000
,
1000
0000
1000
0000
0010
0000
0100
0001
0010
0000
0100
1000
0010
0000
0100
0000
,
0001
0000
0001
0000
0100
0000
0010
1000
0100
0000
0010
0001
0100
0000
0010
0000
,
1000
0000
1000
0010
0001
0010
1000
0000
,
0010
0000
1000
0000
0100
0000
0010
0001
0100
0000
0010
1000
0100
0000
0010
0000
,
0001
0000
0001
0000
0100
0000
0010
1000
0100
0000
0010
0001
0100
0000
0010
0000
,
1000
0000
1000
0000
0010
0000
0100
0001
0010
0000
0100
1000
0010
0000
0100
0000
,
0010
1001
0100
1001
0010
1001
0100
1001
,
0002
0000
0000
0003
0010
0000
0100
0000
1000
0000
0010
0000
1000
0000
0010
0000
,
0100
0000
0001
0000
0010
0000
0100
1000
0100
0000
0010
1000
0010
0000
1000
0000
,
0100
2000
3100
0010
0001
0100
0001
0100
,
0010
0000
1000
0000
0100
0000
0010
0001
0010
0000
0100
0010
0100
0000
1000
0100
,
2000
0000
3000
0001
0010
1000
0010
0001
,
1000
0010
1001
0100
1001
0010
1001
0100
,
2002
0003
3000
0100
1000
0010
1000
0100
,
1001
0000
0000
1001
0000
0000
1001
0000
0110
0000
1001
0000
0110
0000
1001
0000
,
1001
0000
0000
1001
0000
0000
0110
0000
1001
0000
0110
0000
2000
0000
3000
0000
,
0002
0003
0010
0100
1000
0000
0010
0100
,
0001
1010
0011
0000
,
1001
0000
1000
0100
0010
0000
0001
0100
,
0010
0000
1000
0100
0010
0000
0001
0010
,
0100
0000
1001
0100
1001
0000
0101
0000
,
1100
0000
0101
0000
1100
0000
0000
1001
,
0000
0002
0000
0013
0100
0000
1000
1000
,
2000
0000
0000
3010
0100
0000
0001
0001
,
1001
0000
0110
0101
0101
0000
1100
0000
,
0011
0101
1010
0000
,
1001
0000
0001
0010
1000
0000
1000
0010
,
0001
0000
0001
0100
1000
0000
1000
0100
,
0001
0000
1001
0100
1001
0000
1010
0000
,
0101
0000
0011
0000
1100
0000
0000
1001
,
0000
2000
0000
3100
0010
0000
0001
0001
,
0002
0000
0000
0103
0010
0000
1000
1000
,
1001
0000
0110
1001
1001
0000
1100
0000
,
0011
1010
0101
0000
,
4004
0000
0000
0000
0000
0000
0000
3003
,
1000
0000
0100
0000
0001
0000
1000
0100
1000
0000
0010
0100
0010
0000
0001
0000
,
0001
0000
0100
0000
1000
0000
0001
0010
0001
0000
0100
0010
0100
0000
0001
0000
,
1000
0100
1000
0100
1000
0000
0001
0010
0001
0010
0001
0000
1000
0100
1000
0100
,
1000
1001
0010
1001
0100
1001
0010
1001
,
0100
0000
0001
0000
1000
0000
0001
0100
0001
0000
0010
0100
0010
0000
0100
0000
,
1000
0000
0010
0000
1000
0000
0010
1000
0010
0000
0100
0010
0100
0000
0001
0000
,
0010
0100
0010
0100
0010
0000
0001
1000
0001
1000
0001
0000
0100
0010
0100
0010
,
0100
0101
1010
1001
,
0100
1000
0100
0010
0001
0001
0010
0100
,
1000
0000
0010
0000
1000
0000
0001
0010
0001
0000
1000
0010
1000
0000
0001
0000
,
0100
0002
0013
0100
1000
1000
0010
0100
,
0001
0000
0100
0000
0010
0000
1000
0100
1000
0000
0001
0100
0001
0000
0010
0100
,
0020
0000
0030
0100
0010
0001
0010
0100
,
1000
1010
1001
0101
1001
1100
0011
1001
,
2002
3000
0003
0010
0001
0100
0001
0010
,
1001
0000
0000
1001
0000
0000
1001
0000
0100
0000
1001
0000
0010
0000
1001
0000
,
1001
0000
0000
1001
0000
0000
0010
0000
1001
0000
0100
0000
1002
0000
0003
0000
,
2000
3000
0100
0010
0001
0000
0100
0010
,
1000
0101
1001
0000
,
1001
0000
1000
0010
0001
0000
0001
0010
,
1000
0000
1000
0100
0001
0000
0001
0100
,
1000
0000
1001
0110
1001
0000
1010
0000
,
1100
0000
0011
0000
0101
0000
0000
1001
,
0000
2000
0000
3001
0100
0000
0001
0001
,
0002
0000
0000
1003
0100
0000
1000
1000
,
1001
0000
0110
1001
1001
0000
0011
0000
,
0101
1100
1010
0000
,
1100
0000
1001
0100
1001
0000
0010
1001
,
0100
0000
0100
1001
0010
0000
1001
0100
,
1001
0000
1001
0010
1001
0000
0011
0000
,
0101
0000
1100
0000
1010
0000
0000
1001
,
0000
0002
0000
0013
0100
0000
1000
1000
,
2000
0000
0000
3100
0010
0000
0001
0001
,
1001
0000
0110
1001
1010
0000
0011
0000
,
0101
1100
1001
0000
,
0110
0000
0020
0100
1030
0000
0200
0010
,
1300
0000
0020
0001
0130
0000
2000
0010
,
3001
0000
0002
0010
1003
0000
0011
0000
,
0101
0000
1010
0000
1100
0000
0000
1001
,
0000
0002
0000
0103
0010
0000
1000
1000
,
2000
0000
0000
3010
0100
0000
0001
0001
,
1001
0000
0110
1010
1010
0000
1100
0000
,
0011
0101
1100
0000
,
0011
0000
1001
0110
1001
0000
1001
0101
,
1001
0000
1001
0011
1001
0000
1001
1100
,
1001
0000
1001
1010
1001
0000
1010
0000
,
1100
0000
0101
0000
0011
0000
0000
1001
,
0000
2000
0000
3100
0010
0000
0001
0001
,
0002
0000
0000
0013
0100
0000
1000
1000
,
1001
0000
0110
1001
1001
0000
0011
0000
,
0101
1100
1010
0000
,
1000
0002
0000
0100
1000
0003
0010
0010
,
2000
0000
0000
0010
0001
3000
0100
0100
,
1001
0000
1100
0101
0011
0000
1001
0000
,
1010
0011
0220
0330
;

//--------------- dance-single - LNinja ----------------
#NOTES:
     dance-single:
     LNinja:
     Hard:
     16:
     0,0,0,0,0:
0000
0000
0000
0000
,
0010
0000
0001
0000
0010
0000
0100
1000
0001
0000
1000
0010
0100
0000
1000
0000
,
0010
0000
1000
0000
0100
0000
0100
0001
1000
0000
0100
0010
0001
0000
0100
0000
,
1001
0000
0010
0000
0100
0000
0001
0010
0100
0000
1000
0100
0010
0000
0001
0000
,
1100
0000
1000
0010
0001
0100
1000
0000
,
1100
0000
0001
0000
0100
0000
0010
1000
0001
0000
1000
0001
0010
0000
0100
0000
,
1100
0000
0001
0000
0100
0000
0010
0001
1000
0000
0001
1000
0010
0000
0001
0000
,
1001
0000
0100
0000
0010
0000
0001
0100
0010
0000
1000
0010
0100
0000
0001
0000
,
1010
0000
0001
0010
1000
0100
0001
0000
,
0101
0000
1000
0000
0100
0000
0010
0001
1000
0000
0001
1000
0010
0000
0001
0000
,
1100
0000
0010
0000
0001
0000
0010
1000
0001
0000
1000
0001
0010
0000
1000
0000
,
1001
0000
0100
0000
0010
0000
1000
0100
0010
0000
0001
0010
0100
0000
1000
0000
,
0011
0000
0001
0100
1000
0010
0001
0000
,
0011
0000
1000
0000
0010
0000
0100
0001
1000
0000
0001
1000
0100
0000
0001
0000
,
1100
0000
0010
0000
0001
0000
0100
1000
0001
0000
1000
0001
0100
0000
1000
0000
,
1001
0000
0010
0000
0100
0000
1000
0010
0100
0000
0001
0100
0010
0000
1000
0000
,
1001
0100
1100
0010
0011
0001
0101
1000
,
2000
0000
0000
0000
0100
3000
0010
0000
0001
0000
0001
0000
0100
0000
0001
0000
,
0010
0000
0100
0000
1000
0000
0001
0010
0001
0000
1000
0010
1000
0000
0001
0000
,
0100
0000
0002
0000
0010
0003
0100
0000
1000
0000
1000
0000
0010
0000
0100
0000
,
0001
0000
1000
0000
0001
0000
1000
0100
1000
0000
0001
0100
0001
0000
0010
0100
,
0020
0000
0030
1000
0100
0001
0010
1000
,
1001
0100
0110
0010
0011
0100
0101
0010
,
2010
0002
3003
0010
0001
0100
0001
0010
,
1001
0000
0000
1001
0000
0000
1001
0000
1100
0000
0101
0000
1100
0000
0101
0000
,
1001
0000
0000
1001
0000
0000
1010
0000
0011
0000
1010
0000
0012
0000
0003
0000
,
2000
3000
0100
0010
0001
0000
0100
0010
,
1010
0101
1100
0000
,
0011
0000
1001
0010
1001
0000
1100
0010
,
0110
0000
0101
1000
1010
0000
0110
0001
,
0101
0000
1010
0100
1100
0000
2020
3030
,
0022
0033
0202
0303
2200
3300
0000
1001
,
0000
2000
0000
0100
0001
0000
0010
0010
,
3002
0000
0000
1000
0100
0000
0010
0013
,
1001
0000
0110
0001
0202
0303
2200
3300
,
2020
3030
0022
0033
0202
0303
0000
0000
,
1100
0000
1001
0100
1001
0000
0011
0100
,
0110
0000
1010
0100
0101
0000
0110
0001
,
0101
0000
0110
1000
1010
0000
0202
0303
,
2200
3300
2020
3030
0022
0033
0000
1001
,
0000
0002
0000
0010
1000
0000
0100
0100
,
2003
0000
0000
0001
0010
0000
0100
3100
,
1001
0000
0110
1000
2020
3030
0022
0033
,
0202
0303
2200
3300
2020
3030
0000
0000
,
4004
0000
0000
0000
0000
0000
0000
3003
,
0002
0000
0010
0000
1003
0000
0001
0100
1000
0000
0100
0010
0001
0000
0100
0000
,
2000
0000
0010
0000
3001
0000
1000
0100
0001
0000
0100
0010
1000
0000
0100
0000
,
0001
0010
0001
0010
0001
0000
1000
0100
1000
0100
1000
0000
0001
0010
0001
0010
,
0001
1001
0100
0101
1100
0101
1100
0101
,
1100
0000
0010
0000
0001
0000
1000
0010
0001
0000
0010
0100
1000
0000
0010
0000
,
0001
0000
0100
0000
1000
0000
0001
0010
1000
0000
0010
0100
0001
0000
0010
0000
,
0100
0010
0100
0010
0100
0000
1000
0001
1000
0001
1000
0000
0010
0100
0010
0100
,
0010
1010
0101
1001
,
0010
0001
0010
0100
1000
1000
0100
0010
,
0001
0000
0100
0000
0001
0000
1000
0100
1000
0000
0001
0100
0001
0000
1000
0000
,
0010
0000
2000
0000
0100
3000
0010
0000
0001
0000
0001
0000
0100
0000
0010
0000
,
0001
0000
0100
0000
1000
0000
0001
0010
0001
0000
1000
0010
1000
0000
0100
0010
,
0200
0000
0300
0001
0010
1000
0100
0001
,
1001
0010
0110
0100
1100
0010
1010
0100
,
0102
2000
3003
0100
1000
0010
1000
0100
,
1001
0000
0000
1001
0000
0000
1001
0000
0011
0000
1010
0000
0011
0000
1010
0000
,
1001
0000
0000
1001
0000
0000
0101
0000
1100
0000
0101
0000
2100
0000
3000
0000
,
0002
0003
0010
0100
1000
0000
0010
0100
,
0101
1010
0011
0000
,
1100
0000
1001
0100
1001
0000
0011
0100
,
0110
0000
1010
0100
0101
0000
0110
0001
,
0101
0000
0110
1000
1010
0000
0202
0303
,
2200
3300
2020
3030
0022
0033
0000
1001
,
0000
0002
0000
0010
1000
0000
0100
0100
,
2003
0000
0000
0001
0010
0000
0100
3100
,
1001
0000
0110
1000
2020
3030
0022
0033
,
0202
0303
2200
3300
2020
3030
0000
0000
,
0011
0000
1001
0010
1001
0000
1001
0100
,
0110
0000
0101
0010
1010
0000
0110
1000
,
1010
0000
0110
0001
0101
0000
2020
3030
,
0022
0033
0202
0303
2200
3300
0000
1001
,
0000
2000
0000
0100
0001
0000
0010
0010
,
3002
0000
0000
1000
0100
0000
0010
0013
,
1001
0000
0110
0001
0202
0303
2200
3300
,
2020
3030
0022
0033
0202
0303
0000
0000
,
0101
0000
1001
0100
1001
0000
1010
0100
,
0110
0000
0011
0100
1100
0000
0110
1000
,
1100
0000
0110
0001
0011
0000
2200
3300
,
0202
0303
0022
0033
2020
3030
0000
1001
,
0000
2000
0000
0010
0001
0000
0100
0100
,
3002
0000
0000
1000
0010
0000
0100
0103
,
1001
0000
0110
0100
0022
0033
2020
3030
,
2200
3300
0202
0303
0022
0033
0000
0000
,
1010
0000
1001
0010
1001
0000
0101
0010
,
0110
0000
1100
0010
0011
0000
0110
0001
,
0011
0000
0110
1000
1100
0000
0022
0033
,
2020
3030
2200
3300
0202
0303
0000
1001
,
0000
0002
0000
0100
1000
0000
0010
0010
,
2003
0000
0000
0001
0100
0000
0010
3010
,
1001
0000
0110
1000
2200
3300
0202
0303
,
0022
0033
2020
3030
2200
3300
0000
0000
,
0011
2000
0000
0010
0001
0000
0100
0100
,
3002
0000
0000
1000
0010
0000
0100
0103
,
1001
0000
0110
0001
0022
0033
2020
3030
,
2200
3300
0202
0303
2002
0000
3003
0000
;

//--------------- dance-single - LNinja ----------------
#NOTES:
     dance-single:
     LNinja:
     Edit:
     16:
     0,0,0,0,0:
0000
0000
0000
0000
,
1010
0000
0001
0000
0011
0000
0100
1000
0001
0000
1010
0001
0100
0000
1000
0000
,
0011
0000
1000
0000
1010
0000
0100
0001
1000
0000
0011
1000
0100
0000
0001
0000
,
1001
0000
0010
0000
0100
0000
0001
0010
0100
0000
1010
0100
0010
0000
0001
0000
,
0110
0000
1000
0010
0001
0100
1000
0000
,
1100
0000
0001
0000
0101
0000
0010
1000
0001
0000
1100
0001
0010
0000
1000
0000
,
0101
0000
1000
0000
1100
0000
0010
0001
1000
0000
0101
1000
0010
0000
0001
0000
,
1001
0000
0100
0000
0010
0000
0001
0100
0010
0000
1100
0010
0100
0000
0001
0000
,
0110
0000
0001
0010
1000
0100
0001
0000
,
0101
0000
1000
0000
1100
0000
0010
0001
1000
0000
0101
1000
0010
0000
0001
0000
,
1100
0000
0001
0000
0101
0000
0010
1000
0001
0000
1100
0001
0010
0000
1000
0000
,
1001
0000
0100
0000
0010
0000
1000
0100
0010
0000
0101
0010
0100
0000
1000
0000
,
0110
0000
0001
0100
1000
0010
0001
0000
,
0011
0000
1000
0000
1010
0000
0100
0001
1000
0000
0011
1000
0100
0000
0001
0000
,
1010
0000
0001
0000
0011
0000
0100
1000
0001
0000
1010
0001
0100
0000
1000
0000
,
1001
0000
0010
0000
0100
0000
1000
0010
0100
0000
0011
0100
0010
0000
1000
0000
,
1001
0110
1100
1010
0101
0011
1001
0110
,
2000
0000
0000
0000
0100
3000
0010
0000
0001
0000
0001
0000
0001
0000
0100
0000
,
0100
0000
0010
0000
1000
0000
0001
0010
0001
0000
1000
0010
1000
0000
0011
0000
,
0100
0000
0002
0000
0010
0003
0100
0000
1000
0000
1000
0000
1000
0000
0100
0000
,
0100
0000
0010
0000
0001
0000
1000
0100
1000
0000
0001
0100
0001
0000
0010
0100
,
0020
0000
0030
1000
0100
0001
0010
1000
,
1001
0100
0110
0010
0011
0100
0101
0010
,
2010
0002
3003
0010
0001
0100
0001
0010
,
1001
0000
0000
1001
0000
0000
1001
0000
1100
0000
0101
0000
1100
0000
0101
0000
,
1001
0000
0000
1001
0000
0000
1010
0000
0011
0000
0101
0000
1020
0000
0030
0000
,
2000
3000
0100
0010
0001
0000
0100
0010
,
1010
0101
1100
0000
,
0011
0000
1001
0010
1001
0000
1100
0010
,
0110
0000
0101
0010
1010
0000
0110
0001
,
1010
0000
0110
0010
0101
0000
2020
3030
,
0022
0033
0202
0303
2200
3300
0000
1001
,
0000
2000
0000
0100
0001
0000
0010
0010
,
3002
0000
0000
1000
0100
0000
0010
0013
,
1001
0000
0110
0010
0202
0303
2200
3300
,
2020
3030
0022
0033
0202
0303
0000
0000
,
1100
0000
1001
0100
1001
0000
0011
0100
,
0110
0000
1010
0100
0101
0000
0110
1000
,
0101
0000
0110
0100
1010
0000
0202
0303
,
2200
3300
2020
3030
0022
0033
0000
1001
,
0000
0002
0000
0010
1000
0000
0100
0100
,
2003
0000
0000
0001
0010
0000
0100
3100
,
1001
0000
0110
0100
2020
3030
0022
0033
,
0202
0303
2200
3300
2020
3030
0000
0000
,
4004
0000
0000
0000
0000
0000
0000
3003
,
0012
0000
0010
0000
1003
0000
0001
0100
1000
0000
0100
0010
0001
0000
0100
0000
,
2010
0000
0010
0000
3001
0000
1000
0100
0001
0000
0100
0010
1000
0000
0100
0000
,
0001
0010
0100
1000
0100
0000
1000
0100
0010
0001
0010
0000
0001
0010
0100
1000
,
0100
1001
0101
0011
1010
1100
0101
1100
,
2100
0000
0100
0000
3001
0000
1000
0010
0001
0000
0010
0100
1000
0000
0010
0000
,
0102
0000
0100
0000
1003
0000
0001
0010
1000
0000
0010
0100
0001
0000
0010
0000
,
1000
0100
0010
0001
0010
0000
0001
0010
0100
1000
0100
0000
1000
0100
0010
0001
,
0010
1010
0101
1001
,
0001
0002
0010
0103
1000
1000
1000
0010
,
0010
0000
0100
0000
0001
0000
1000
0100
1000
0000
0001
0100
0001
0000
1100
0000
,
0010
0000
2000
0000
0100
3000
0010
0000
0001
0000
0001
0000
0001
0000
0010
0000
,
0010
0000
0100
0000
1000
0000
0001
0010
0001
0000
1000
0010
1000
0000
0100
0010
,
0200
0000
0300
0001
0010
1000
0100
0001
,
1001
0010
0110
0100
1100
0010
1010
0100
,
0102
2000
3003
0100
1000
0010
1000
0100
,
1001
0000
0000
1001
0000
0000
1001
0000
0011
0000
1010
0000
0011
0000
1010
0000
,
1001
0000
0000
1001
0000
0000
0101
0000
1100
0000
1010
0000
0201
0000
0300
0000
,
0002
0003
0010
0100
1000
0000
0010
0100
,
0101
1010
0011
0000
,
1100
0000
1001
0100
1001
0000
0011
0100
,
0110
0000
1010
0100
0101
0000
0110
1000
,
0101
0000
0110
0100
1010
0000
0202
0303
,
2200
3300
2020
3030
0022
0033
0000
1001
,
0000
0002
0000
0010
1000
0000
0100
0100
,
2003
0000
0000
0001
0010
0000
0100
3100
,
1001
0000
0110
0100
2020
3030
0022
0033
,
0202
0303
2200
3300
2020
3030
0000
0000
,
0011
0000
1001
0010
1001
0000
1100
0010
,
0110
0000
0101
0010
1010
0000
0110
0001
,
1010
0000
0110
0010
0101
0000
2020
3030
,
0022
0033
0202
0303
2200
3300
0000
1001
,
0000
2000
0000
0100
0001
0000
0010
0010
,
3002
0000
0000
1000
0100
0000
0010
0013
,
1001
0000
0110
0010
0202
0303
2200
3300
,
2020
3030
0022
0033
0202
0303
0000
0000
,
0101
0000
1001
0100
1001
0000
1010
0100
,
0110
0000
0011
0100
1100
0000
0110
0001
,
1100
0000
0110
0100
0011
0000
2200
3300
,
0202
0303
0022
0033
2020
3030
0000
1001
,
0000
2000
0000
0010
0001
0000
0100
0100
,
3002
0000
0000
1000
0010
0000
0100
0103
,
1001
0000
0110
0100
0022
0033
2020
3030
,
2200
3300
0202
0303
0022
0033
0000
0000
,
1010
0000
1001
0010
1001
0000
0101
0010
,
0110
0000
1100
0010
0011
0000
0110
1000
,
0011
0000
0110
0010
1100
0000
0022
0033
,
2020
3030
2200
3300
0202
0303
0000
1001
,
0000
0002
0000
0100
1000
0000
0010
0010
,
2003
0000
0000
0001
0100
0000
0010
3010
,
1001
0000
0110
0010
2200
3300
0202
0303
,
0022
0033
2020
3030
2200
3300
0000
0000
,
0011
2000
0000
0010
0001
0000
0100
0100
,
3002
0000
0000
1000
0010
0000
0100
0103
,
1001
0000
0110
0100
0022
0033
2020
3030
,
2200
3300
0202
0303
2002
0000
3003
0000
;
