#TITLE:Kasane Territory - Always Teto's Turn;
#SUBTITLE:Teto Territory - short ver;
#ARTIST:oxi, ZUN, bit ;
#TITLETRANSLIT:;
#SUBTITLETRANSLIT:;
#ARTISTTRANSLIT:;
#GENRE:;
#CREDIT:Kasane Teto;
#MUSIC:Kasane_Territory - short ver.ogg;
#BANNER:Kasane_Territory-bn.png;
#BACKGROUND:Kasane_Territory-bg.png;
#CDTITLE:cdtitlelninja.png;
#SAMPLESTART:0.000;
#SAMPLELENGTH:0.000;
#SELECTABLE:YES;
#OFFSET:0.066;
#BPMS:0.000=171.951;
#STOPS:;
#BGCHANGES:;
#FGCHANGES:;

//--------------- dance-single - LNinja ----------------
#NOTES:
     dance-single:
     LNinja:
     Hard:
     15:
     0,0,0,0,0:
0000
0000
0000
0000
,
0000
0022
0033
2200
,
3300
0220
0330
2002
,
3003
0000
0000
0000
0010
1000
0010
1000
0010
1000
0010
1000
0010
1000
0010
1000
,
0001
0100
0001
0100
0001
0100
0001
0100
0001
0000
1000
0000
0010
0000
0100
0000
,
0001
1001
0101
1100
,
0101
0011
1010
1100
,
1010
0011
0101
1010
,
0011
1100
1010
0110
,
1001
0000
0010
0000
1000
0000
0100
0010
0100
0000
1000
0000
0001
0000
0010
0100
,
0010
0001
1000
0000
0110
0000
0001
0010
,
1000
0000
0010
0000
0001
0000
0010
0001
0010
0000
0100
0000
1000
0000
0100
1000
,
0100
0000
0000
0000
0010
0100
0001
0000
0100
0000
0000
0000
1100
0000
0000
0000
,
1001
0000
0000
0000
0101
0000
1000
0100
1000
0000
0001
0000
0100
0000
0010
1000
,
0010
0000
0100
0000
0001
0000
0100
0000
0010
0000
0000
0000
0010
0100
0001
0000
,
0100
0000
0000
0000
0001
0000
1000
0100
1000
0000
0001
0000
1000
0000
0100
0000
,
0010
0000
1000
0100
0010
0001
0100
0100
,
0001
0000
0000
0000
0101
0000
0100
0000
0010
0000
1000
0000
0100
0001
0100
0000
,
0010
0000
1000
0000
0100
0010
0001
0000
1000
0000
0200
0000
0010
0000
0310
0000
,
0001
0010
0001
0000
0100
0000
1000
0000
0100
0000
0010
0000
1000
0100
1000
0000
,
0001
0010
0001
0000
0200
0000
1000
0000
0310
0000
0001
1000
0001
1000
0001
1000
,
0001
1000
0001
0000
1000
0000
0100
0000
0010
0000
0001
0100
0000
0010
1000
0000
,
0100
0000
0001
0100
0001
0000
0100
0000
0010
0000
1000
0000
0100
0000
0010
0100
,
0010
0000
0001
0000
1000
0001
1000
0000
0100
0000
0010
0100
0001
0000
1000
0000
,
0010
0000
0001
0000
1000
0000
0010
0100
0001
0000
0010
0100
1000
0000
0001
0100
,
0010
0000
1000
0000
0001
0000
0100
0000
1000
0000
0100
0010
0000
0001
0100
0000
,
1000
0000
0100
0000
0010
0000
0001
0000
1000
0000
0010
0100
0000
0001
1000
0000
,
0100
0000
0010
0000
0001
1000
0000
1000
0001
0000
0100
0010
0000
1000
0100
0000
,
0010
0000
0001
0000
1000
0100
0000
0010
0100
0000
0001
0010
0000
1000
0010
0000
,
0100
0000
0001
0000
0010
0000
1000
0000
0010
0000
0100
0001
0000
1000
0100
0000
,
0001
0010
0001
0000
1000
0000
0010
0100
0010
0000
1000
0000
0100
0010
0100
0000
,
0010
0000
0001
0000
0010
0000
1000
0000
0100
0000
0001
0100
0000
0000
0010
0000
,
1000
0100
1000
0000
4004
0000
0000
0000
0000
0000
0000
0000
0000
0000
3003
0000
,
1001
0000
0000
0000
0001
0000
1000
0000
0010
0000
1000
0000
0100
0000
1000
0100
,
0000
0100
1000
0000
0100
0000
0010
0000
1000
0000
0001
0000
0100
0000
0001
0010
,
0000
0010
0001
0000
1000
0000
0100
0000
0010
0000
0001
0000
0100
0000
1000
0010
,
0000
0010
1000
0000
0010
0000
1000
0000
0001
0000
0100
0000
0010
0000
0001
0100
,
0000
0100
0001
0000
0001
0000
1000
0000
0100
0000
0010
0000
0001
0000
0100
0010
,
0000
0010
0100
0000
0001
0000
0010
0000
1000
0000
0010
0100
0000
0100
0010
0000
,
1000
0000
0000
0000
0020
0000
0100
0000
0000
0000
0032
0000
0200
0003
1000
0000
,
0300
0010
1010
0100
0001
1001
0000
0110
,
1001
0000
0000
0000
1000
0000
0010
0000
0100
0000
0001
0000
1000
0000
0010
0100
,
0010
0000
1000
0000
0001
0000
0001
0100
0001
0000
1000
0100
1000
0000
1100
0000
,
0000
0000
0011
0000
1000
0000
0001
0010
0100
0000
0001
0000
1010
0000
0100
0000
,
0101
0000
0000
0000
1000
0000
0010
0000
0100
0000
0001
0000
1000
0000
0010
0100
,
1000
0000
0010
0000
1000
0000
0001
0100
0001
0000
1000
0100
1000
0000
1000
0000
,
0010
0000
0000
0000
4004
0000
0000
0000
0000
0000
0000
0000
0000
3003
0011
0000
,
0100
1100
2000
0100
0000
3001
0020
0100
,
0000
0030
0100
1000
0100
0020
0000
0100
,
0100
0030
0001
0010
0001
0100
0100
0010
,
1000
0000
0000
0000
0010
0000
0000
0000
0100
0000
0000
0000
0001
0000
0000
0000
0100
0000
0000
0000
0020
0000
0000
0000
0000
0100
0000
0000
0000
0000
0000
0000
,
0000
0030
1000
0100
0010
0100
0000
0100
,
0010
1001
0010
0110
,
0100
1001
0110
0101
,
1100
0000
0200
0300
0011
0000
0200
0300
,
1010
0000
0000
0000
0120
0000
0000
0000
0100
0000
0030
0000
0001
1000
0001
0000
,
0010
0000
0100
0000
2010
0000
0000
0000
3001
0000
1000
0001
1000
0000
0001
0000
,
0010
0000
0100
0000
0001
0000
0100
0000
0010
0000
1000
0000
0010
0100
0010
0000
,
1000
0001
1000
0000
0100
0000
0010
0000
1000
0000
0200
0000
0010
0000
0300
0000
,
0001
1000
0001
0000
1000
0000
0010
0000
0100
0000
0010
0100
0010
0000
1000
0000
,
0010
0100
0001
0000
0200
0000
0001
0000
0320
0000
0100
0000
0000
0000
0000
0000
,
1030
0000
0100
0000
0001
0000
0100
0000
0010
0000
0001
0100
0000
1000
0010
0000
,
0001
0010
0000
0100
1000
0000
0000
0000
0010
0000
1000
0000
0010
0100
0010
0000
,
1000
0000
0001
0000
0100
0010
0100
0000
0001
0000
1000
0000
0010
0100
0001
0000
,
1000
0000
0001
0000
0100
0010
1000
0000
0010
0100
1000
0000
0100
0010
0001
0000
,
1000
0000
0010
0000
0001
0000
0100
0000
1000
0000
0100
0010
0001
0000
0100
0000
,
0010
0000
0100
0000
1000
0000
0010
0000
0001
0000
0010
0100
1000
0000
0010
0000
,
0001
0000
1000
0000
0010
0100
0001
0000
0010
0000
1000
0001
0000
0010
0100
0000
,
1000
0000
0001
0000
0100
0010
1000
0000
0100
0000
0001
0100
0000
0010
1000
0000
,
0100
0000
0010
0000
0001
0000
1000
0000
0010
0000
0001
0010
0000
0100
1000
0000
,
0001
0100
0010
0000
1000
0000
0010
0100
0010
0000
0100
0000
0001
0000
0010
0100
,
0010
0000
0001
0000
1000
0000
0010
0100
0001
0000
0010
0100
0000
0000
1000
0000
,
0001
0100
0010
0000
4004
0000
0000
0000
0000
0000
0000
0000
0000
0000
3003
0000
,
1001
0000
0000
0000
0001
0000
1000
0000
0010
0000
1000
0000
0100
0000
1000
0010
,
0100
0000
1000
0000
0100
0000
0010
0000
1000
0000
0001
0000
0100
0000
0001
0010
,
0100
0000
0001
0000
1000
0000
0010
0000
0100
0000
0001
0000
0010
0000
0100
0010
,
0001
0000
1000
0000
0010
0000
1000
0000
0001
0000
0100
0000
0010
0000
0001
0010
,
0100
0000
0001
0000
0100
0000
0010
0000
0001
0000
0010
0000
1000
0000
0010
0100
,
0010
0000
1000
0000
0001
0000
0010
0000
1000
0000
0100
1000
0100
0000
0010
0000
,
0001
0000
0000
0000
0021
0000
0000
0000
0100
0000
0032
0000
0200
0003
0000
0000
,
0310
0001
1010
0101
0011
1100
0000
0110
,
1001
0000
0000
0000
1000
0000
0010
0000
0100
0000
0001
0000
0001
0000
0010
0100
,
1000
0000
0010
0000
0100
0000
0001
0010
0001
0000
1000
0100
1000
0000
0101
0000
,
0000
0000
1100
0000
1000
0000
0001
0010
0100
0000
1000
0000
0101
0000
0010
0000
,
1010
0000
0000
0000
0010
0000
0100
0000
0001
0000
1000
0100
1000
0000
0010
0100
,
0010
0000
0001
0010
0001
0000
1000
0000
0010
0000
0100
0010
1000
0000
0001
0000
,
0010
0000
0000
0000
0100
0010
0100
0010
0100
0010
0100
0010
0000
0000
0010
0000
,
0100
1001
0002
0010
0000
1003
0200
0010
,
0000
0300
0010
0001
0010
0200
0000
0010
,
0010
0300
0001
0010
0001
1000
0001
0100
,
0001
1000
0001
0010
1000
0010
1000
0001
,
1000
0100
1000
0001
1000
0010
1000
0110
,
0001
0010
0100
1000
1000
0100
0010
0001
,
0110
0000
1001
0000
0000
0MM0
0000
0MM0
0000
0000
0000
0000
MMMM
0000
MMMM
0000
,
MMMM
MMMM
MMMM
0000
0000
0000
MMMM
MMMM
,
MMMM
0000
MMMM
0000
MMMM
0000
0000
MMMM
MMMM
0000
MMMM
0000
MMMM
0000
MMMM
0000
,
MMMM
MMMM
0000
0000
0000
0000
0000
0000
;

//--------------- dance-single - LNinja ----------------
#NOTES:
     dance-single:
     LNinja:
     Challenge:
     17:
     0,0,0,0,0:
0000
0000
0000
0000
,
0000
0022
0033
2200
,
3300
0220
0330
2002
,
3003
0000
0000
0000
0010
1000
0010
1000
0100
0010
0100
0010
0001
1000
0001
1000
,
0010
0100
0010
0100
0001
0010
0001
0010
0100
0000
1000
0000
0010
0000
0100
0000
,
0001
0000
0000
0000
0001
0010
0001
0010
0001
1000
0001
1000
0001
0100
0001
0100
,
0010
1000
0010
1000
0001
1000
0001
1000
0100
1000
0100
1000
0010
0100
0010
0100
,
0001
0100
0001
0100
0001
0010
0001
0010
0100
0010
0100
0010
1000
0010
1000
0010
,
0100
0001
0100
0001
1000
0001
1000
0001
1000
0100
1000
0100
1000
0010
0100
0010
,
0100
0000
0010
0000
1000
0000
0100
0010
0001
0000
1000
0000
0010
0000
1000
0010
,
0100
0001
1000
0000
0110
0000
0001
0010
,
1000
0000
0010
0000
0001
0000
0010
0001
0010
0000
0100
0000
1000
0000
0100
1000
,
0100
0000
0000
0000
0010
0100
0001
0000
0100
0000
0000
0000
1100
0000
0000
0000
,
1001
0000
0000
0000
0101
0000
1000
0100
1000
0000
0001
0000
0100
0000
0010
1000
,
0010
0000
0100
0000
0011
0000
0100
0000
0110
0000
0000
0000
0010
0100
0001
0000
,
0101
0000
0000
0000
0001
0000
1000
0100
1000
0000
0001
0000
1100
0000
0100
0000
,
0010
0000
1000
0100
0010
0001
1001
1001
,
0110
0000
0000
0000
0101
0000
0100
0000
0010
0000
1000
0010
0100
0001
0100
0000
,
0010
0100
1000
0001
0100
0000
0010
0000
1000
0000
0200
0000
0010
0000
0310
0000
,
0001
0010
0001
0010
0001
0000
1000
0000
0100
0000
0010
0100
0010
0001
1000
0000
,
0010
0100
0001
0010
0200
0000
1000
0000
0320
0000
0001
0000
0130
1000
0001
1000
,
0001
1000
0001
1000
0001
0000
0100
0000
0010
0000
0001
0100
0000
0010
1000
0000
,
0001
0100
0001
0100
0001
0000
0100
0000
0010
0000
1000
0000
0100
1000
0010
0100
,
0001
0000
0010
0000
1000
0001
1000
0001
0100
0000
0010
0000
0001
0000
1000
0000
,
0010
0000
0001
0000
0100
0000
1000
0100
0010
0001
0100
0001
0010
0100
1000
0000
,
0001
0000
0010
0000
0001
0000
0100
0000
1000
0000
0100
0010
0001
0010
0100
0000
,
1000
0000
0100
0000
1000
0000
0010
0000
0001
0000
0010
0100
1000
0100
0010
0000
,
0001
0000
1000
0000
0010
0100
0001
0100
0010
0000
1000
0001
0000
0010
0100
0000
,
1000
0000
0001
0000
0100
0010
1000
0010
0100
0000
0001
0100
0000
0010
1000
0000
,
0100
0000
0010
0000
0001
0000
1000
0000
0010
0000
0001
0010
0000
0100
1000
0000
,
0001
0100
0010
0000
0001
0100
0010
1000
0010
0000
0100
0010
1000
0100
0010
0000
,
0001
0000
0100
0000
0001
0000
0010
0000
0001
0000
1000
0100
0000
0000
0000
0000
,
1001
0000
4004
0000
0000
0000
0000
3003
,
1001
0000
0000
0000
0001
0000
1000
0000
0010
0000
1000
0000
0100
0000
1000
0100
,
0001
0100
1000
0000
0100
0000
0010
0000
1000
0000
0001
0000
0100
0000
0001
0010
,
0100
0010
0001
0000
1000
0000
0100
0000
0010
0000
0001
0000
0100
0000
1000
0100
,
0010
0100
1000
0000
0010
0000
1000
0000
0001
0000
0100
0000
0010
0000
0001
0100
,
1000
0100
0001
0000
0001
0000
1000
0000
0100
0000
0010
0000
0001
0000
0100
0010
,
1000
0010
0100
0000
0001
0000
0010
0000
1000
0000
0010
0100
0001
0100
0010
0000
,
1000
0000
0000
0000
0021
0000
0000
0000
0100
0000
0032
0000
0200
0003
0000
0000
,
0310
0001
1010
0101
0011
1100
0000
0110
,
1001
0000
0000
0000
1000
0000
0010
0000
0100
0000
0001
0000
1000
0000
0010
0100
,
1000
0100
0010
0000
1000
0000
0001
0100
0001
0000
1000
0100
1000
0000
1100
0000
,
0000
0000
0011
0000
1000
0000
0001
0010
0100
1000
0001
0000
1010
0000
0110
0000
,
0101
0000
0000
0000
0001
0100
0001
0100
0001
1000
0001
1000
0010
1000
0010
1000
,
0010
0100
0010
0100
0001
0100
0001
0100
0001
0010
0001
0010
0100
0000
1000
0000
,
0001
0000
0440
0000
0000
0000
0000
0330
,
0000
0010
2000
0100
0100
3001
0020
0100
,
0100
0030
0100
1000
0100
0020
0000
0100
,
0100
0030
0001
0010
0001
0100
0100
0010
,
1000
0000
0000
0000
0010
0000
0000
0000
0100
0000
0000
0000
0001
0000
0000
0000
0100
0000
0000
0000
0020
0000
0000
0000
0000
0100
0000
0000
0000
0000
0000
0000
,
0000
0030
1000
0100
0010
0100
0000
0100
,
0010
1001
0010
0110
,
0100
1001
0110
0101
,
1100
0000
0200
0300
0011
0000
0200
0300
,
1010
0000
0220
0000
0000
0330
1001
0100
,
0010
0001
1000
0100
0001
0100
1000
0001
,
0010
0000
0100
0000
0101
0000
0100
0000
0010
0000
1000
0010
0100
0001
0100
0000
,
0010
0100
1000
0001
0100
0000
0010
0000
1000
0000
0200
0000
0010
0000
0310
0000
,
0001
0010
0001
0010
0001
0000
1000
0000
0100
0000
0010
0100
0010
0001
1000
0000
,
0010
0100
0001
0010
0200
0000
1000
0000
0320
0000
0001
0000
0130
1000
0001
1000
,
0001
1000
0001
1000
0001
0000
0100
0000
0010
0000
0001
0100
0000
0010
1000
0000
,
0001
0100
0001
0100
0001
0000
0100
0000
0010
0000
1000
0000
0100
1000
0010
0100
,
0001
0000
0010
0000
1000
0001
1000
0001
0100
0000
0010
0000
0001
0000
1000
0000
,
0010
0000
0001
0000
0100
0000
1000
0100
0010
0001
0100
0001
0010
0100
1000
0000
,
0001
0000
0010
0000
0001
0000
0100
0000
1000
0000
0100
0010
0001
0010
0100
0000
,
1000
0000
0100
0000
1000
0000
0010
0000
0001
0000
0010
0100
1000
0100
0010
0000
,
0001
0000
1000
0000
0010
0100
0001
0100
0010
0000
1000
0001
0000
0010
0100
0000
,
1000
0000
0001
0000
0100
0010
1000
0010
0100
0000
0001
0100
0000
0010
1000
0000
,
0100
0000
0010
0000
0001
0000
1000
0000
0010
0000
0001
0010
0000
0100
1000
0000
,
0001
0100
0010
0000
0001
0100
0010
1000
0010
0000
0100
0010
1000
0100
0010
0000
,
0001
0000
0100
0000
0001
0000
0010
0000
0001
0000
1000
0100
0000
0000
0000
0000
,
1001
0000
4004
0000
0000
0000
0000
3003
,
1001
0000
0000
0000
0001
0000
1000
0000
0010
0000
1000
0000
0100
0000
1000
0100
,
0001
0100
1000
0000
0100
0000
0010
0000
1000
0000
0001
0000
0100
0000
0001
0010
,
0100
0010
0001
0000
1000
0000
0100
0000
0010
0000
0001
0000
0100
0000
1000
0100
,
0010
0100
1000
0000
0010
0000
1000
0000
0001
0000
0100
0000
0010
0000
0001
0100
,
1000
0100
0001
0000
0001
0000
1000
0000
0100
0000
0010
0000
0001
0000
0100
0010
,
1000
0010
0100
0000
0001
0000
0010
0000
1000
0000
0010
0100
0001
0100
0010
0000
,
1000
0000
0000
0000
0021
0000
0000
0000
0100
0000
0032
0000
0200
0003
0000
0000
,
0310
0001
1010
0101
0011
1100
0000
0110
,
1001
0000
0000
0000
1000
0000
0010
0000
0100
0000
0001
0000
1000
0000
0010
0100
,
1000
0100
0010
0000
1000
0000
0001
0100
0001
0000
1000
0100
1000
0000
1100
0000
,
0000
0000
0011
0000
1000
0000
0001
0010
0100
1000
0001
0000
1010
0000
0110
0000
,
0101
0000
0000
0000
0001
0100
0001
0100
0001
1000
0001
1000
0010
1000
0010
1000
,
0010
0100
0010
0100
0001
0100
0001
0100
0001
0010
0001
0010
0100
0000
1000
0000
,
0001
0000
0000
0000
0001
0010
0100
1000
0100
0010
0100
1000
0000
0000
1001
0000
,
0100
1001
0002
0010
0010
1003
0200
0010
,
0010
0300
0010
0001
0010
0200
0000
0010
,
0010
0000
0300
0000
0001
0010
0001
0010
0001
1000
0001
1000
0001
0100
0001
0100
,
0010
1000
0010
1000
0001
1000
0001
1000
0100
1000
0100
1000
0010
0100
0010
0100
,
0001
0100
0001
0100
0001
0010
0001
0010
0100
0010
0100
0010
1000
0010
1000
0010
,
0100
0001
0100
0001
1000
0001
1000
0001
1000
0100
1000
0100
1000
0010
0100
0010
,
0100
0001
0010
0001
0010
MM00
0000
MM00
0000
0000
0000
0000
MMMM
0000
MMMM
0000
,
MMMM
MMMM
MMMM
0000
0000
0000
MMMM
MMMM
,
MMMM
0000
MMMM
0000
MMMM
0000
0000
MMMM
MMMM
0000
MMMM
0000
MMMM
0000
MMMM
0000
,
MMMM
MMMM
0000
0000
0000
0000
0000
0000
;

//--------------- dance-single - LNinja - Cirno's Math Perfect Class ----------------
#NOTES:
     dance-single:
     LNinja - Cirno's Math Perfect Class:
     Edit:
     15:
     0,0,0,0,0:
0000
0000
0000
0000
,
0000
0022
0033
2200
,
3300
0220
0330
2002
,
3003
0000
0000
0000
0010
1000
0010
1000
0100
0010
0100
0010
0001
1000
0001
1000
,
0010
0100
0010
0100
0001
0010
0001
0010
0100
0000
1000
0000
0010
0000
0100
0000
,
0001
0000
0000
0000
0001
0010
0001
0010
0001
1000
0001
1000
0001
0100
0001
0100
,
0010
1000
0010
1000
0001
1000
0001
1000
0100
1000
0100
1000
0010
0100
0010
0100
,
0001
0100
0001
0100
0001
0010
0001
0010
0100
0010
0100
0010
1000
0010
1000
0010
,
0100
0001
0100
0001
1000
0001
1000
0001
1000
0100
1000
0100
1000
0010
0100
0010
,
1000
0010
0001
0100
0010
1000
0010
0001
,
0010
1000
0010
0000
0000
1000
0001
0010
,
1000
0000
0010
0000
0001
0000
0010
0001
0010
0000
0100
0000
1000
0000
0000
0000
,
0101
0000
1001
0000
0000
0010
1100
0000
,
1001
0000
0000
0000
0001
0000
1000
0100
1000
0000
0001
0000
0100
0000
0010
1000
,
0010
0100
0012
0003
0110
0000
2010
3000
,
0110
0000
0000
0000
0001
0000
1000
0100
1000
0000
0001
0000
0100
0000
0110
0000
,
1001
0000
1000
0100
0010
0002
0000
1003
,
0001
0100
0001
0100
0001
0000
0100
0000
0010
0000
1000
0001
0000
0100
0010
0000
,
1000
0100
1000
0100
1000
0000
0001
0000
0100
0000
0020
0000
0000
0000
1030
0000
,
0001
0010
0001
0010
0001
0000
1000
0000
0100
0000
0020
0000
0030
0001
0100
0000
,
0010
1000
0010
1000
0001
0000
1000
0000
0100
0000
0020
0000
0000
0000
0031
0000
,
1000
0001
1000
0001
1000
0000
0100
0000
0010
0000
0001
0100
0000
0010
1000
0000
,
0001
0100
0001
0100
0001
0000
0100
0000
0010
0000
1000
0000
0000
1000
0001
0000
,
0100
0000
0010
0000
1000
0001
1000
0001
1000
0100
1000
0100
1000
0000
0001
0000
,
1000
0000
0001
0000
1000
0000
0100
0000
0001
0000
0100
0000
0000
0100
1000
0000
,
0001
0000
0010
0000
0001
0000
0100
0000
1000
0000
0100
0000
0000
0100
0001
0000
,
1000
0000
0100
0000
1000
0000
0010
0000
0001
0000
0010
0000
0000
0010
1000
0000
,
0100
0000
1000
0000
0001
0010
0001
0010
0001
0000
1000
0001
0000
1000
0100
0000
,
0010
0100
0001
0100
1000
0100
0000
0010
,
0001
0100
0010
1000
0010
0001
0000
1000
,
0100
0000
0001
0000
1000
0100
0000
0100
0010
0000
0010
0001
0000
0001
1000
0000
,
0010
0000
0100
0000
0001
0000
0010
0000
0001
0000
1000
0100
0000
0000
0000
0000
,
1001
0000
1000
0001
0100
0001
0010
0000
,
1001
0000
0001
1000
0010
1000
0100
0000
,
1001
0000
0100
0010
1000
0001
0100
0010
,
0100
0001
1000
0100
0010
0001
0100
0000
,
1001
0000
0010
1000
0001
0100
0010
0000
,
0110
0000
0001
1000
0100
0010
0001
0000
,
0110
0000
0001
0010
1000
0000
0001
0100
,
1000
0000
0002
0000
0000
1003
0020
0000
,
0130
0000
0001
0010
0100
1000
0001
0000
,
1100
0000
1000
0010
0100
0001
0010
0100
,
0110
0000
0000
0000
1000
0000
0001
0100
0001
0000
1000
0100
2000
0000
0000
0000
,
3010
0100
0001
0000
0010
0001
1000
0100
,
0110
0000
0000
0000
0001
0100
0001
0100
0001
1000
0001
1000
0010
1000
0010
1000
,
0010
0100
0010
0100
0001
0100
0001
0100
0001
0010
0001
0010
0100
0000
1000
0000
,
0001
1010
0100
0011
,
0100
0010
2000
0000
0000
3001
0020
0000
,
0000
0030
0100
1000
0100
0020
0000
0000
,
0000
0030
0001
0010
0001
0100
0000
0010
,
1000
0010
0100
0001
0100
0020
0000
0000
,
0000
0030
1000
0100
0010
0100
0000
0100
,
0010
1001
0010
0110
,
0100
1001
0110
0101
,
1100
0000
0200
0300
0011
0000
0200
0300
,
1010
0000
0220
0000
0000
0330
1001
0100
,
0010
0001
1000
0100
0001
0100
1000
0001
,
0010
0100
0010
0001
1000
0100
0010
0010
,
0001
1000
0001
0010
1000
0010
0100
0001
,
0100
0000
1000
0000
0010
0000
0100
0001
0100
0000
0010
0000
1000
0000
0000
0000
,
0101
0000
1001
0000
0100
0001
1000
0000
,
0100
0000
0010
0000
0000
0000
0001
0010
0001
0000
1000
0000
0010
0000
0100
0000
,
0001
0000
0010
0000
0100
0000
1000
0001
0010
0000
0100
0000
1000
0000
0001
0100
,
0010
1000
1001
0000
1100
0000
0101
1000
,
0100
0010
0001
0100
1000
0100
0001
1000
,
0100
0010
0100
1000
0001
0010
0010
0001
,
1000
0010
0100
0001
0100
1000
0100
0010
,
0001
0000
0010
0000
1000
0000
0001
0100
0001
0000
1000
0000
0010
0000
0000
0000
,
0110
0000
1001
0000
1000
0001
0100
0000
,
0110
0000
1001
0000
0010
1000
0100
0000
,
0110
0000
1000
0001
0101
0000
0010
1000
,
1100
0000
0000
0000
0001
0000
0010
0100
0010
0000
0001
0000
1000
0000
0100
0000
,
0110
0000
0001
0100
0010
2000
0000
3010
,
1000
0100
1000
0100
0010
0000
0001
0000
0010
0000
0100
1000
0000
0001
0100
0000
,
0001
0010
0001
0010
0100
0000
1000
0000
0100
0000
0020
0000
0000
0000
0031
0000
,
1000
0010
1000
0010
0100
0000
0001
0000
0100
0000
0020
0000
0030
1000
0100
0000
,
1000
0001
1000
0001
0010
0000
0001
0000
0100
0000
0020
0000
0000
0000
1030
0000
,
0001
1000
0001
1000
0100
0000
1000
0000
0001
0000
0010
0100
0000
0010
0001
0000
,
1000
0100
1000
0001
1000
0000
0001
0000
0010
0000
0100
0000
0000
0100
1000
0000
,
0100
0000
0010
0000
0100
1000
0100
1000
0001
0010
0001
0010
0100
0000
1000
0000
,
0001
0000
1000
0000
0001
0000
0100
0000
1000
0000
0100
0000
0000
0100
0001
0000
,
1000
0000
0010
0000
1000
0000
0100
0000
0001
0000
0100
0000
0000
0100
1000
0000
,
0001
0000
0100
0000
0001
0000
0010
0000
1000
0000
0010
0000
0000
0010
0001
0000
,
0100
0000
0001
0000
1000
0010
1000
0010
0100
0000
0001
1000
0000
0001
0100
0000
,
0010
0100
1000
0100
0001
0100
0000
0010
,
1000
0100
0010
0001
0010
1000
0000
0001
,
0100
0000
1000
0000
0001
1000
0000
0100
0001
0000
0100
1000
0000
0010
0100
0000
,
0001
0000
0100
0000
0010
0000
1000
0000
0001
0000
0100
0010
0000
0000
0000
0000
,
1001
0000
0010
0001
0010
0200
0000
0010
,
0010
0000
0300
0000
0001
0010
0001
0010
0001
1000
0001
1000
0001
0100
0001
0100
,
0010
1000
0010
1000
0001
1000
0001
1000
0100
1000
0100
1000
0010
0100
0010
0100
,
0001
0100
0001
0100
0001
0010
0001
0010
0100
0010
0100
0010
1000
0010
1000
0010
,
0100
0001
0100
0001
1000
0001
1000
0001
1000
0100
1000
0100
1000
0010
0100
0010
,
0100
0001
0010
0001
0010
MM00
0000
MM00
0000
0000
0000
0000
MMMM
0000
MMMM
0000
,
MMMM
MMMM
MMMM
0000
0000
0000
MMMM
MMMM
,
MMMM
0000
MMMM
0000
MMMM
0000
0000
MMMM
MMMM
0000
MMMM
0000
MMMM
0000
MMMM
0000
,
MMMM
MMMM
0000
0000
0000
0000
0000
0000
;
