#VERSION:0.83;
#TITLE:Prayer;
#SUBTITLE:;
#ARTIST:Ducky Chix;
#TITLETRANSLIT:;
#SUBTITLETRANSLIT:;
#ARTISTTRANSLIT:;
#GENRE:;
#CREDIT:;
#MUSIC:Prayer - short ver.ogg;
#BANNER:eurobeat_is_crack-BN.png;
#BACKGROUND:eurobeat_is_crack-BG.png;
#CDTITLE:cdtitlelninja.png;
#SAMPLESTART:0.000;
#SAMPLELENGTH:0.000;
#SELECTABLE:YES;
#OFFSET:0.000;
#BPMS:0.000=160.000;
#STOPS:;
#BGCHANGES:;
#FGCHANGES:;

//--------------- dance-single - LNinja ----------------
#NOTEDATA:;
#STEPSTYPE:dance-single;
#DESCRIPTION:LNinja;
#DIFFICULTY:Hard;
#METER:16;
#RADARVALUES:0,0,0,0,0;
#NOTES:
0010
0100
0001
1000
1010
0100
0010
0001
,
1000
0000
0100
0000
0001
0000
1000
0000
0001
0010
0100
1000
0001
0010
0100
1000
,
0001
0010
0100
1000
0001
0010
0100
1000
0001
0000
1000
0000
0010
0000
0100
0000
,
0001
0000
1000
0000
0001
0000
0100
0000
1000
0010
0100
0001
1000
0010
0100
0001
,
1000
0010
0100
0001
1000
0000
0100
0000
0010
0000
0001
0000
1000
0100
0010
0001
,
0010
0100
1000
0001
1000
0001
0010
0000
1000
0000
0010
0000
0001
0000
0001
0100
,
0010
1000
0010
0100
0001
1000
0100
0000
0001
1000
0010
0100
0001
1000
0100
0010
,
0000
0001
0010
0100
0010
0001
0000
0000
4004
0000
0000
0000
0000
0000
0000
0000
,
0000
0000
0000
0000
0000
0000
0000
0000
3003
0000
0000
0020
0000
0000
0000
0000
0000
0000
0000
0000
0030
0000
0000
0000
0100
0000
0000
0000
0000
0000
0000
0000
,
0001
1000
0000
2000
0000
3002
0000
0203
,
0000
0320
0000
1030
0100
1000
0001
1000
,
0100
0000
0001
1000
0100
0010
0001
1000
0001
0000
0010
0000
0100
0000
1000
0000
,
0100
0010
0001
2000
0000
3000
0200
0300
,
0010
0001
1000
0002
0003
2000
0000
3200
,
0000
0320
0000
0032
0000
1003
0010
0100
,
0010
1000
0001
1000
0000
0001
1000
0004
,
0000
0000
0000
0000
0000
0000
0000
0000
0000
0000
0000
0000
0000
0000
0000
0000
0000
0000
0000
0000
0000
0000
0000
0000
0000
0000
0000
0000
0000
0000
0000
0000
0000
0000
0000
0000
0000
0003
0000
0000
0000
0000
0000
0000
0000
0000
0000
0000
0022
0000
0000
0000
0000
0000
0000
0000
0000
0000
0000
0000
0000
0000
0000
0000
0000
0000
0000
0000
0000
0000
0000
0000
0000
0000
0000
0000
0000
0000
0000
0000
0000
0000
0000
0000
0003
0000
0000
0000
0000
0000
0000
0000
0000
0000
0000
0000
,
0230
0000
0000
2300
0000
0000
3000
0000
,
0000
0010
0100
0002
1000
0103
0100
0010
,
0001
2000
0100
3010
1000
0020
0100
1030
,
0100
0010
0100
0001
2020
0000
0000
3000
,
0230
0000
0000
0302
0000
0000
0000
0003
,
0000
0010
0100
1000
0010
0001
1000
0100
,
0010
0000
1000
0000
0010
0001
0010
0100
4000
0000
0000
0000
3000
0000
1000
0000
,
0100
0010
0001
0010
2002
0000
3003
0100
,
0010
0001
1000
0200
0001
0310
0100
0000
,
1000
0001
0100
1000
0020
1000
0130
0002
,
0010
1003
0100
0010
0001
0010
2000
0001
,
3100
0000
0010
0002
0000
0000
0013
1000
,
0100
0000
0001
0000
0010
0000
0100
0010
0001
0010
0100
1000
0100
0010
0001
0000
,
1000
0010
0001
0100
0120
0030
0001
0010
,
1000
0000
0001
0000
0000
0000
2000
0000
0000
0000
0000
3000
0000
0000
0001
0000
,
0010
0100
1000
0100
2002
0000
3003
0010
,
0100
1000
0001
0020
1000
0130
0010
0000
,
0001
1000
0010
0001
0200
0001
0310
2000
,
0100
0000
3001
0000
0010
0000
0100
0001
1000
0000
0100
0000
0002
0000
1000
0000
,
0013
0000
0100
2000
0000
0000
3100
0001
,
0010
0100
1000
0000
0100
0000
0010
0001
0100
0000
0001
0000
0010
0000
1000
0000
,
0001
0000
0100
0000
1000
0000
0010
0001
0200
0000
0300
0000
1000
0000
0100
0000
,
0001
0000
1000
0000
0000
0000
0202
0000
0000
0000
0000
0303
0000
0000
0000
0000
,
0100
0010
1000
0001
0101
0010
0100
1000
,
0001
0000
0010
0000
1000
0000
0001
0000
1000
0100
0010
0001
1000
0100
0010
0001
,
1000
0100
0010
0001
1000
0100
0010
0001
1000
0000
0001
0000
0100
0000
0010
0000
,
1000
0000
0001
0000
1000
0000
0010
0000
0001
0100
0010
1000
0001
0100
0010
1000
,
0001
0100
0010
1000
0001
0000
0010
0000
0100
0000
1000
0000
0001
0010
0100
1000
,
0100
0010
0001
1000
0001
1000
0100
0000
0001
0000
0100
0000
1000
0000
1000
0010
,
0100
0001
0100
0010
1000
0001
0010
0000
1000
0001
0100
0010
1000
0001
0010
0100
,
0000
1000
0100
0010
0100
1000
0000
0000
4004
0000
0000
0000
0000
0000
0000
0000
,
0000
0000
0000
0000
3003
0000
0000
0000
0000
0000
0000
0000
0000
0000
0000
0010
,
0000
0100
1002
0100
,
1000
0100
1000
0010
,
1000
0003
2001
0000
0100
0000
0001
0000
,
0100
0000
0001
0000
0010
0000
0001
3000
,
0110
0000
0001
0100
0000
0000
1000
0100
,
0000
0000
0001
0010
0000
0000
1000
0010
,
0000
0000
0000
0000
0110
0000
1000
0001
,
0100
0000
0020
0000
0000
0030
0200
0300
4004
0000
0000
0000
0000
0000
0000
0000
,
0000
0000
0000
3003
0110
0000
1010
0100
,
0001
0000
0001
0010
1000
0000
0100
0001
,
1000
0100
1000
0001
0011
0100
1000
0000
,
0001
0010
1010
0000
1000
0010
0101
0000
,
0000
0000
1010
0100
0001
1000
0011
0100
,
1000
0001
1010
0100
1000
0001
1100
0010
,
0001
1000
0100
0001
0110
1000
0001
0010
,
0100
0001
0100
4000
0040
0000
0000
0000
,
0000
0000
0000
0000
3031
0100
0001
0100
,
0001
0000
0010
0100
1000
0000
0010
0000
0001
0000
1000
0000
0010
0100
0001
0000
,
0010
0000
1000
0000
0100
0010
0001
0000
0100
0000
1000
0000
0100
0010
1000
0000
,
0010
0000
0100
0000
1000
0100
0001
0000
0000
0000
0000
0000
0000
0000
0000
0000
,
0000
1010
0110
0202
0000
0000
0303
0000
,
0000
0000
1000
0000
0001
0000
0010
0000
0100
1000
0001
0000
0100
0000
1000
0000
,
0010
0100
0001
0000
0010
0000
1000
0000
0100
0010
0001
0000
1000
0000
0010
0000
,
0001
0100
0010
0000
1000
0000
0100
0000
0001
0010
0100
0000
0000
0000
0000
0000
,
0000
0011
0110
2200
0000
0000
0000
0000
,
3300
0000
0000
0000
0000
0000
0100
0000
0010
0000
0001
0000
0100
0000
1000
0100
,
0010
0001
0100
0000
0001
0000
1000
0000
0010
0000
0100
0000
0001
0010
0001
0000
,
1000
0000
0001
0000
0100
1000
0010
0000
1000
0000
0010
1000
0100
0010
0001
0000
,
0010
0000
1000
0000
0010
0000
0001
0010
0100
0000
0010
0000
1000
0100
0010
0000
,
1000
0000
0010
0000
0100
0001
0010
1000
0100
0000
0010
0000
0001
1000
0100
0000
,
1000
0000
0010
0000
0100
0001
0010
0000
0100
0000
0001
0000
1000
0010
0001
0000
,
0100
0000
1000
0000
0100
0010
0001
0100
0010
0000
0001
0000
0010
0000
1000
0000
,
0010
0100
0001
0010
0100
1000
0001
0100
0010
0000
1000
0000
0010
0000
0001
0000
,
0010
0100
1000
0000
2020
0000
0000
3000
,
0200
0000
0030
0002
0000
0000
0313
0001
,
1000
0100
0010
2000
0010
3200
0001
0010
,
1302
0010
1000
0203
0010
1300
0010
0100
,
0001
0010
0100
0000
0220
0000
0000
0030
,
0002
0000
0300
2000
0000
0000
0000
0000
,
3003
0001
1000
0010
0100
0001
0010
0100
,
0010
0001
0100
0010
0000
0001
0010
0100
,
1000
0000
0010
0000
1000
0000
0100
0000
0010
0001
0010
0100
0010
0000
0001
0000
,
0100
0000
0010
0000
1000
0001
0010
1000
0010
0000
0100
0000
0001
0000
0010
0000
,
1000
0100
0010
0100
1000
0000
0010
0000
0100
0000
1000
0000
0001
0010
0100
0010
,
0001
0000
0100
0000
0010
0000
0001
0000
1000
0010
0100
0010
1000
0000
0001
0000
,
0000
0000
0000
0000
0100
0010
0001
0000
1000
0000
0010
0000
0100
1000
0100
0000
,
0010
0000
0100
0000
1000
0010
0100
0000
0001
0000
0010
0000
0100
1000
0100
0010
,
0001
0000
0100
0000
0010
0000
1000
0000
0001
0010
0100
1000
0010
0100
0001
0010
,
0100
1000
0100
0001
0100
1000
0010
0001
,
0100
0000
0000
0000
0000
0000
0000
0001
,
0010
0100
1000
0100
2002
0000
3003
0110
,
0001
1000
0001
0020
1000
0130
0010
0000
,
0001
0100
1000
0000
0010
0000
0001
0000
0200
0000
0001
0000
0310
0000
2000
0000
,
0100
0000
3001
0000
0010
0001
0100
0000
1000
0000
0100
0010
0002
0000
1000
0000
,
0013
0000
0000
0000
0100
0000
2000
0000
0000
0000
0000
0000
3100
0010
0001
0000
,
0010
0000
1000
0000
0100
0000
0010
0100
1000
0000
1000
0000
0010
0100
0001
0000
,
0001
0010
1000
0010
0120
0030
1000
0100
,
0001
0000
1000
0000
0000
0000
0202
0000
0000
0000
0000
0303
0000
0000
0000
0000
,
0001
0100
0010
0100
0001
0000
1000
0000
1010
0000
0100
0000
0101
0000
1000
0000
,
0001
1000
0010
0000
1000
0000
0001
0000
1000
0100
0010
0001
1000
0100
0010
0001
,
1000
0100
0010
0001
1000
0100
0010
0001
1000
0000
0001
0000
0100
0010
1000
0000
,
0010
0000
0001
0000
1000
0000
0010
0000
0001
0100
0010
1000
0001
0100
0010
1000
,
0001
0100
0010
1000
0001
0000
0010
0000
0100
0000
1000
0000
0001
0010
0100
1000
,
0100
0010
0001
1000
0001
1000
0100
0000
0001
0000
0100
0000
1000
0000
1000
0010
,
0100
0001
0100
0010
1000
0001
0010
0000
1000
0001
0100
0010
1000
0001
0010
0100
,
0000
1000
0100
0010
0100
1000
0000
0000
4004
0000
0000
0000
0000
0000
0000
0000
,
0000
3003
0000
0000
;
