#TITLE:Paper Cranes in the Sky;
#SUBTITLE:;
#ARTIST:The Musical Ghost;
#TITLETRANSLIT:;
#SUBTITLETRANSLIT:;
#ARTISTTRANSLIT:;
#GENRE:;
#CREDIT:;
#MUSIC:Paper Cranes in the Sky.ogg;
#BANNER:Paper Cranes in the Sky-bn.png;
#BACKGROUND:Paper Cranes in the Sky-bg.jpg;
#CDTITLE:cdtitlelninja.png;
#SAMPLESTART:0.000;
#SAMPLELENGTH:0.000;
#SELECTABLE:YES;
#OFFSET:-0.203;
#BPMS:0.000=116.000;
#STOPS:;
#BGCHANGES:;
#FGCHANGES:;

//--------------- dance-single - LNinja Flolding Steps ----------------
#NOTES:
     dance-single:
     LNinja Flolding Steps:
     Challenge:
     15:
     0,0,0,0,0:
0001
0010
0001
0000
0001
0000
1000
0100
1000
0000
1000
0100
0001
0100
1000
0000
,
0010
0100
0001
1000
0000
1000
0001
0000
0001
0000
0001
0010
0100
1000
0001
0100
,
1000
0100
0001
0000
0001
0000
0010
0100
1000
0000
0010
1000
0100
1000
0010
0000
,
0010
1000
0100
0010
0000
0010
0100
0000
0000
0100
0010
0001
1000
0001
0001
0100
,
1000
0010
0100
0000
0100
0000
0001
0010
0001
0000
1000
0010
0001
0010
1000
0000
,
1000
0010
0100
1000
0000
1000
0100
0000
0100
0000
0100
1000
0010
0100
0010
0001
,
0010
0100
0010
0000
0010
0000
0001
0100
0001
0000
0001
0010
1000
0010
0001
0000
,
0001
0010
0100
0001
0000
0001
0100
0000
0000
0010
0000
0010
1000
0010
0100
0010
,
1000
0010
1000
0000
1000
0000
0001
0100
0001
0000
0001
0100
1000
0100
0001
0000
,
0010
0100
1000
0001
0000
0001
1000
0000
1000
0000
1000
0010
0100
0001
1000
0100
,
0001
0100
1000
0000
1000
0000
0010
0100
0001
0000
0010
0001
0100
0001
0010
0000
,
0010
0001
0100
0010
0000
0010
0100
0000
0000
0100
0010
1000
0001
1000
1000
0100
,
0001
0010
0100
0000
0100
0000
1000
0010
1000
0000
0001
0010
1000
0010
0001
0000
,
0001
0010
0100
0001
0000
0001
0100
0000
0100
0000
0100
0001
0010
0100
0010
1000
,
0010
0100
0010
0000
0010
0000
1000
0100
1000
0000
1000
0010
0001
0010
1000
0000
,
1000
0010
0100
1000
0000
1000
0100
0000
0000
0010
0000
0100
0001
0010
0100
1000
,
0001
0010
0001
0100
0010
0100
0010
1000
0001
0010
0001
0010
0100
0010
0100
1000
,
0010
0100
0001
0010
0001
0100
0010
0100
0010
0100
0001
0010
0100
1000
0010
0100
,
0001
1000
0010
1000
0100
0010
0001
0100
0010
0100
0010
1000
0100
0010
0001
1000
,
0010
0100
0001
1000
0100
1000
0010
1000
0010
0100
0010
0100
0001
0010
0001
1000
,
0100
0010
0100
0010
0001
0100
0010
1000
0001
0010
0100
1000
0100
0010
0001
0100
,
0010
1000
0100
1000
0010
0100
0001
1000
0010
0100
0010
0100
0001
0010
0001
0100
,
0010
1000
0010
0100
0010
0100
0001
1000
0100
0010
0100
1000
0010
0100
0001
0010
,
0100
0010
0001
0100
0010
1000
0100
0010
0001
0100
0001
0010
0001
0100
0010
1000
,
0010
0100
0010
1000
0100
1000
0010
1000
0100
0010
0100
0010
0001
0100
0010
1000
,
0100
1000
0001
0100
0001
0010
0100
1000
0001
0100
0010
1000
0100
1000
0010
0100
,
0001
1000
0001
0010
0100
0010
0001
0100
0001
0100
0010
0100
0001
1000
0100
0010
,
0100
1000
0010
0100
0001
0010
0001
0100
0010
1000
0100
0010
0100
1000
0001
0100
,
0001
0010
0100
1000
0010
0100
0001
0100
0010
0100
0001
1000
0001
0100
0001
0100
,
0010
1000
0001
0010
0001
1000
0001
0100
0010
0100
0010
0100
0001
1000
0010
0100
,
0010
1000
0001
0100
0010
1000
0001
0010
0100
1000
0010
1000
0100
0010
0001
0100
,
0010
1000
0001
0010
0100
1000
0010
1000
0100
0010
0001
0100
0010
0100
0001
0010
,
0011
0100
1000
0010
0000
0000
0101
1000
0100
0010
1000
0000
1000
0010
0100
0001
,
0010
0100
0010
0001
0000
0000
1010
0001
0100
0000
0000
0000
1100
0010
0100
1000
,
0100
0010
0001
0100
0000
0000
0101
1000
0100
0000
0000
0000
1001
0010
0001
1000
,
0100
0000
0000
0000
0000
0000
0000
0000
0000
0000
0000
0000
1000
0000
0000
0000
0000
0000
0000
0000
0000
0000
0000
0000
0001
0000
0000
0000
0000
0000
0000
0000
0000
0000
0000
0000
0010
0000
0000
0000
0000
0000
0000
0000
0000
0000
0000
0000
0000
0000
0000
0000
0000
0000
0000
0000
0000
0000
0000
0000
0000
0000
0000
0000
0000
0000
0000
0000
0000
0000
0000
0000
0011
0000
0000
0000
0000
0000
0000
0000
0000
0000
0000
0000
0000
0000
0000
0000
0000
0000
0000
0000
0000
0000
0000
0000
1100
0000
0000
0000
0000
0000
0000
0000
0000
0000
0000
0000
0000
0000
0000
0000
0000
0000
0000
0110
0000
0000
0000
0000
0000
0000
0000
0000
0000
0000
0000
0000
0000
0000
0000
0000
0000
0000
0101
0000
0000
0000
0000
0000
0000
0000
0000
0000
0000
0000
0000
0000
0000
0000
0000
0000
0000
0000
0011
0000
0000
0000
0000
0000
0000
0000
0000
0000
0000
0000
0000
0000
1100
0000
0000
0000
0000
0000
0000
0000
0000
0000
0000
0000
0000
0000
0000
0000
0000
0000
0000
0000
0000
0000
0000
0000
,
1010
0001
0100
1000
0000
0000
0011
1000
0010
0100
0000
0000
1010
0001
0100
0001
,
0010
0100
1000
0010
0000
0000
1100
0010
0100
0000
0000
0000
0011
1000
0010
1000
,
0100
0010
1000
0100
0000
0000
0101
0010
1000
0000
0000
0000
0110
0001
1000
0100
,
0001
0001
0010
1000
0000
0000
2002
0000
0000
0000
0000
0000
0000
0000
0000
0000
,
0000
0000
0000
0000
,
0000
0000
0000
0000
0000
3003
0000
0000
,
0012
0000
0000
0010
0000
0000
0100
0000
0000
0000
0003
0000
1000
0000
0001
0000
,
2100
0000
0000
0010
0000
0000
0001
0000
0000
0000
0000
0000
0000
0000
3000
0000
,
1020
0000
0000
0001
0000
0000
1000
0000
0000
0000
0030
0000
0100
0000
1000
0000
,
0021
0000
0000
1000
0000
0000
0001
0000
0000
0000
0000
0000
0030
0000
0100
0000
,
1002
0000
0000
0010
0000
0000
0100
0000
0000
0000
0003
0000
0001
0000
0010
0000
,
2001
0000
0000
0010
0000
0000
0100
0000
0000
0000
0000
0000
3000
0000
1000
0000
,
0012
0000
1000
0000
0010
0000
1003
0100
0001
0000
0010
0000
1000
0010
0001
0100
,
1001
0100
1000
0100
0001
1000
0010
0100
,
0011
0000
0001
0000
0001
1000
0000
1000
0010
0000
0010
0000
1000
0000
1000
0000
,
0010
0000
0001
0000
0001
0010
0000
1000
0010
0000
1000
0000
0010
0000
0001
0000
,
0001
0000
0010
0000
1000
0010
0000
0001
0010
0000
1000
0000
0010
0000
0100
0000
,
0001
0000
0001
0000
0100
0010
0000
1000
0010
0000
0000
0000
1010
0000
0000
0000
,
0101
0000
0010
0000
0100
0001
0000
0001
1000
0000
0100
0000
0001
0000
1000
0000
,
1000
0000
0010
0000
1000
0010
0000
0001
0010
0000
1000
0000
0010
0000
0001
0000
,
0100
0000
0010
0000
0001
0010
1000
0010
0001
0000
0100
0000
0010
0000
1000
0000
,
0110
0100
0101
0010
1100
0001
0011
0101
,
1020
0000
0000
1000
0000
0030
2000
0010
0001
0000
0000
0000
3002
0000
0203
0000
,
0302
0000
1000
0203
0000
0000
2300
0010
3002
0000
0203
0320
2030
3200
2300
3200
,
0320
0000
0001
0032
0000
1000
2003
0100
0001
0000
3200
0000
0320
1000
2030
0000
,
3200
0000
0010
0302
0003
0100
0020
1000
0100
0000
0000
0000
0100
0000
2030
0000
,
3002
0000
0010
0023
0000
0000
0230
1000
0010
0000
1000
0000
0302
0000
0023
0000
,
0032
0000
0010
2003
0000
0100
3200
0000
0010
0000
1000
0000
0010
0000
2300
0000
,
3200
0000
0001
2300
0000
0010
3002
0000
2003
0000
0100
3020
0000
0000
2030
0000
,
3002
0003
0040
0430
4300
3000
0040
0430
0304
0003
0200
0300
0020
0000
1030
0000
,
1100
0000
1000
0000
1000
0001
0000
0001
0100
0000
0100
0000
0001
0000
0001
0000
,
0100
0000
1000
0000
1000
0100
0000
0001
0100
0000
0001
0000
0100
0000
1000
0000
,
1000
0000
0100
0000
0001
0100
0000
1000
0100
0000
0001
0000
0100
0000
0010
0000
,
1000
0000
1000
0000
0010
0100
0000
0001
0100
0000
0000
0000
0101
0000
0000
0000
,
1010
0000
0100
0000
0010
1000
0000
1000
0001
0000
0010
0000
1000
0000
0001
0000
,
0001
0000
0100
0000
0001
0100
0000
1000
0100
0000
0001
0000
0100
0000
1000
0000
,
0010
0000
0100
0000
1000
0100
0001
0100
1000
0000
0010
0000
0100
0001
1000
0001
,
0020
0000
1000
2030
0000
3100
0200
0010
0010
0000
0000
0000
0000
0000
0000
0000
,
2300
0000
3010
0020
0000
0030
0002
1000
0000
1000
0000
0003
2000
3000
0201
0300
,
0002
0000
0003
0200
0000
0300
2000
0000
0000
0000
0000
0000
0000
0000
0000
0000
,
3000
0000
0000
0000
;
