#TITLE:Maybe Tonight - short ver;
#SUBTITLE:;
#ARTIST:Norma Sheffield;
#TITLETRANSLIT:;
#SUBTITLETRANSLIT:;
#ARTISTTRANSLIT:;
#GENRE:;
#CREDIT:;
#MUSIC:Norma Sheffield - Maybe Tonight - short ver.ogg;
#BANNER:eurobeat_is_crack-BN.png;
#BACKGROUND:eurobeat_is_crack-BG.png;
#CDTITLE:cdtitlelninja.png;
#SAMPLESTART:58.594;
#SAMPLELENGTH:12.561;
#SELECTABLE:YES;
#OFFSET:0.159;
#BPMS:0.000=148.078;
#STOPS:;
#BGCHANGES:;
#FGCHANGES:;

//--------------- dance-single - LNinja ----------------
#NOTES:
     dance-single:
     LNinja:
     Easy:
     8:
     0,0,0,0,0:
0000
0000
1001
0000
0000
0011
0000
0000
,
0000
1001
0000
0000
1010
0000
0000
0000
0000
0000
1001
0000
0000
0000
0000
0000
,
0000
0101
0000
0000
1001
0000
0000
0000
0000
0000
1100
0000
0000
0000
0000
0000
,
0000
1001
0000
0000
0110
0000
0000
0000
0000
0000
0000
0001
0000
0010
0000
0100
,
0000
1000
0000
0000
0101
0000
0010
0000
1000
0000
0100
0000
0010
0000
0001
0000
,
1000
0001
0001
0010
0100
1000
1000
0100
,
0010
0001
0001
0100
0010
1000
1000
0010
,
0100
0001
1001
0000
0000
0000
1001
0000
,
0110
1001
0101
1100
,
0110
0011
1010
0110
,
1001
0001
0101
0000
0011
0000
1010
0000
,
1100
2002
0000
0000
,
0000
0000
0000
3003
0200
0000
0010
0000
0002
0000
0003
0000
0000
0000
0320
0000
,
1000
0200
0000
0000
0330
2001
0000
3100
,
0010
0001
2020
0000
0030
3200
0010
1300
,
0001
0002
0000
0023
0000
0230
0000
1300
,
0100
0020
0000
0030
0000
0001
0010
1000
,
0010
0002
0000
0003
0000
1010
0000
0100
,
0001
0100
1001
0000
0000
0101
0000
0010
,
0001
0001
0000
1000
0010
0100
0000
0101
,
0000
0110
0000
1000
0010
0001
0000
0000
,
0000
0001
0010
2000
0000
3200
0000
0320
,
0032
0203
0000
0020
0300
0200
0030
0020
,
0300
2030
0020
0000
3030
0000
1000
0100
,
0010
0002
0003
0001
0010
0200
0000
0300
,
0000
0010
0100
2000
0000
3200
0000
0320
,
0032
0023
0000
0230
0000
2300
0000
3002
,
0000
0103
0002
0003
0000
1000
0100
0001
,
0100
2000
3000
0000
1000
0010
0100
2000
,
3000
0002
0000
0203
0000
0320
0000
0000
,
0030
0001
2000
3002
0000
0023
0000
0230
,
0000
2300
0000
3002
0000
2003
0000
3002
,
0003
0000
0202
0000
0000
0303
0000
0000
0001
0000
0100
0000
2000
0000
0200
0000
,
0000
3300
0220
0000
0000
0330
0022
0000
0000
0033
2002
0000
0000
0000
3003
0000
,
0000
0200
0010
0302
0000
0203
0000
0320
,
0000
2030
0000
3200
0000
0320
0000
0032
,
0000
0003
1000
0010
0001
0020
0000
0030
,
0001
2000
0100
3002
0010
2003
0000
0100
,
3002
0000
0100
1003
0020
0200
0030
0001
,
0320
0030
0001
0010
0002
0203
0000
0310
,
2000
0000
3000
0000
1002
0000
0010
0003
0001
0000
0200
0000
0000
0300
0000
0000
,
0001
0010
0001
0100
0010
2000
0000
3001
,
2000
3000
1000
0100
1000
0020
0000
1030
,
0002
0003
0001
0010
1000
0200
0000
0310
,
0100
0000
1000
0010
0001
0020
0000
0030
,
0001
2000
0100
3002
0010
2003
0000
0100
,
3002
0000
0100
1003
0020
0200
0030
0001
,
0320
0030
0001
0010
0002
0203
0000
0310
,
2000
0000
3000
0000
1002
0000
0010
0003
0001
0000
0200
0000
0000
0300
0000
0000
,
0001
0010
0001
0100
0010
2000
0000
3001
,
2000
3000
1000
0100
1000
0020
0000
1030
,
0002
0003
0001
0010
1000
0200
0000
0310
,
0100
0000
0000
0000
1010
0000
0000
0000
0011
0000
0000
1010
0000
1010
0000
0001
,
1000
0000
0101
0000
1100
0000
0000
0000
1001
0000
0010
1000
0000
0101
0000
0001
,
0100
0000
1001
0000
0110
0000
0000
0000
0011
0000
0000
1010
0000
1001
0000
0001
,
0010
0000
1100
0000
1010
0000
0000
0000
1001
0000
0000
1010
0000
0011
0000
0010
,
1000
0000
1010
0000
0101
0000
0000
0000
1100
0000
0000
0110
0000
0110
0000
0001
,
1000
0000
0011
0000
1100
0000
0000
0000
1001
0000
1000
0100
0000
1100
0000
0001
,
0100
0000
0101
0000
1001
0000
0000
0000
0011
0000
0000
1010
0000
0011
0000
0001
,
0010
1010
0001
4000
3400
0340
0034
0003
,
0400
0300
0200
0010
0002
0003
0000
0320
,
1000
0200
0000
0000
0330
2001
0000
3100
,
0010
0001
2020
0000
0030
3200
0010
1300
,
0001
0002
0000
0023
0000
0230
0000
1300
,
0100
0020
0230
0010
0002
0003
0000
0320
,
1000
0200
0000
0000
0330
2001
0000
3100
,
0010
0001
2020
0000
0030
3200
0010
1300
,
0001
0002
0000
0023
0000
0230
0000
1300
,
0100
0020
0000
0030
0000
0001
0010
1000
,
0010
0002
0000
0003
0000
1010
0000
0100
,
0001
0100
1001
0000
0000
0101
0000
0010
,
0001
0001
0000
1000
0010
0100
0000
0101
,
0110
1010
0200
0010
0002
0003
0000
0320
,
1000
0200
0000
0000
0330
2001
0000
3100
,
0010
0001
2020
0000
0030
3200
0010
1300
,
0001
0002
0000
0023
0000
0230
0000
1300
,
0100
0020
0000
0030
0000
0001
0010
1000
,
0010
0002
0000
0003
0000
1010
0000
0100
,
0001
0100
1001
0000
0000
0101
0000
0010
,
0001
0001
0000
1000
0010
0100
0000
0101
,
0000
0110
0000
0000
0000
0000
0000
0000
;

//--------------- dance-single - LNinja ----------------
#NOTES:
     dance-single:
     LNinja:
     Hard:
     14:
     0,0,0,0,0:
0000
0000
1001
0000
0000
0011
0000
0000
,
0000
1001
0000
0000
1010
0000
0000
0000
0000
0000
1001
0000
0000
0000
0000
0000
,
0000
0101
0000
0000
1001
0000
0000
0000
0000
0000
1100
0000
0000
0000
0000
0000
,
0000
1001
0000
0000
0110
0000
0000
0000
0000
0000
0000
0001
0000
0010
0000
0100
,
0000
1000
0000
0000
0101
0000
0010
0000
1000
0000
0100
0000
0010
0000
0001
0000
,
1000
0001
0001
0010
0100
1000
1000
0100
,
0010
0001
0001
0100
0010
1000
1000
0010
,
0100
0001
1001
0000
0000
0000
1001
0000
,
0110
1001
0101
1100
,
0110
0011
1010
0110
,
1001
0001
0101
0000
0011
0000
1010
0000
,
1100
2002
0000
0000
,
0000
0000
0000
3003
0001
0010
0100
1000
0010
0200
0000
0000
0300
0000
0010
0100
,
0001
0010
0200
0000
0000
0000
0000
0000
0300
0000
0100
0010
0001
0100
0001
0010
,
0100
1000
0010
1000
2020
0000
0000
0000
0030
0000
3100
0010
0001
0010
0001
0100
,
0001
0000
0002
0000
0000
0000
0023
0000
0000
0000
0230
0000
0300
0000
0100
1000
,
0010
0100
0020
0000
0000
0000
0030
0000
0000
0000
0010
0100
0001
0010
0100
1000
,
0100
0010
0002
0000
0000
0000
0003
0000
0000
0000
2010
0000
3000
0000
0010
0100
,
0001
0010
0100
0010
0002
0000
0000
0003
0000
0000
0101
0000
0000
0000
0010
0100
,
0001
1000
0001
0000
0000
0000
0100
1000
0010
1000
0100
0000
0000
0000
0101
0000
,
0000
0000
0110
0000
0000
0000
0010
0001
0100
0010
0002
0000
0000
0000
0003
0000
,
0000
0000
0010
0100
1000
0010
2000
0000
0000
0000
3200
0000
0000
0000
0320
0000
,
0032
0203
0000
0020
0300
0200
0030
0020
,
0300
0000
2030
0000
0020
0000
0000
0000
3030
0000
0000
0000
0010
0001
0100
0010
,
1000
0001
0020
0000
0030
0000
0010
0100
0001
0010
0200
0000
0000
0000
0300
0000
,
0000
0000
0010
0100
1000
0010
2000
0000
0000
0000
3200
0000
0000
0000
0320
0000
,
0032
0023
0000
0230
0000
2300
0000
3002
,
0000
0000
0103
0000
0002
0000
0003
0000
0000
0000
0001
0010
0100
0010
0001
0100
,
0001
0010
2000
0000
3000
0000
0000
0000
0010
0001
0100
0010
1000
0100
2000
0000
,
3000
0002
0000
0203
0000
0320
0000
0000
,
0030
0001
2000
3002
0000
0023
0000
0230
,
0000
2300
0000
3002
0000
2003
0000
3002
,
0003
0000
0202
0000
0000
0303
0000
0000
0010
0100
0001
0010
0100
1000
0200
0000
,
0000
0300
0220
0000
0000
0330
0022
0000
0000
0033
2002
0000
0000
0000
3003
0000
,
0000
0000
0010
0001
0100
0010
0002
0000
0000
0000
0203
0000
0000
0000
0320
0000
,
0000
2030
0000
3200
0000
0320
0000
0032
,
0000
0000
0003
0000
0010
1000
0100
0010
0001
0100
0020
0000
0000
0000
0030
0000
,
0100
0010
1000
0001
0010
0100
1000
0001
0100
0010
2000
0000
0000
0000
0100
0000
,
3002
0000
0000
0003
0010
0100
1000
0010
0100
0001
0200
0000
0000
0000
0001
0000
,
0320
0000
0030
0000
0100
0010
1000
0100
0010
0001
0200
0000
0000
0000
0310
0000
,
2000
0000
3000
0000
0100
1000
0010
0100
0001
1000
0200
0000
0000
0300
0000
0000
,
0010
1000
0100
0010
0001
0100
0010
1000
0100
0010
2000
0000
0000
0000
3001
0000
,
2000
0000
3000
0000
0100
1000
0010
0100
0001
1000
0020
0000
0000
0000
1030
0000
,
0002
0000
0003
0000
0010
0100
0001
0010
0100
1000
0200
0000
0000
0000
0310
0000
,
0100
0000
0000
0000
0010
1000
0001
0010
0100
1000
0020
0000
0000
0000
0030
0000
,
0100
1000
0001
0100
0010
1000
0100
0010
0001
0100
2000
0000
0000
0000
0100
0000
,
3002
0000
0003
0000
0010
0001
0100
0010
1000
0001
0200
0000
0000
0000
0001
0000
,
0320
0000
0030
0000
0100
0010
0001
0100
0010
1000
0200
0000
0000
0000
0310
0000
,
2000
0000
3000
0000
0001
1000
0010
0100
0001
1000
0200
0000
0000
0300
0000
0000
,
0010
0100
1000
0010
0100
0001
1000
0010
0100
0001
2000
0000
0000
0000
3001
0000
,
2000
0000
3000
0000
0100
0010
0001
1000
0010
0100
0020
0000
0000
0000
1030
0000
,
0002
0000
0003
0000
0100
0010
0001
0100
0010
1000
0200
0000
0000
0000
0310
0000
,
0100
0000
0000
0000
1010
0000
0000
0000
0011
0000
0000
1010
0000
1010
0000
0001
,
1000
0000
0101
0000
1100
0000
0000
0000
1001
0000
0010
1000
0000
0101
0000
0001
,
0100
0000
1001
0000
0110
0000
0000
0000
0011
0000
0000
1010
0000
1001
0000
0001
,
0010
0000
1100
0000
1010
0000
0000
0000
1001
0000
0000
1010
0000
0011
0000
0010
,
1000
0000
1010
0000
0101
0000
0000
0000
1100
0000
0000
0110
0000
0110
0000
0001
,
1000
0000
0011
0000
1100
0000
0000
0000
1001
0000
1000
0100
0000
1100
0000
0001
,
0100
0000
0101
0000
1001
0000
0000
0000
0011
0000
0000
1010
0000
0011
0000
0001
,
0010
1010
0001
4000
3400
0340
0034
0003
,
0400
0000
0300
0000
0010
0100
0001
1000
0002
0000
0003
0000
0000
0000
0001
0100
,
0010
1000
0200
0000
0000
0000
0000
0000
0300
0000
2001
0000
0000
0000
3001
0010
,
0100
1000
0001
0010
2000
0000
0000
0000
0000
0000
3200
0000
0010
0000
1300
0000
,
0001
0002
0000
0023
0000
0230
0000
1300
,
0100
0000
0010
0000
0010
0100
0001
1000
0002
0000
0003
0000
0000
0000
0100
0010
,
0001
1000
0200
0000
0000
0000
0000
0000
0300
0000
2001
0000
0000
0000
3100
0000
,
0010
0001
2020
0000
0030
3200
0010
1300
,
0001
0002
0000
0023
0000
0230
0000
1300
,
0100
0000
0020
0000
0000
0000
0030
0000
0000
0000
0010
0100
0001
0010
0100
1000
,
0010
0100
0002
0000
0000
0000
0003
0000
0000
0000
1010
0000
0000
0000
0001
0010
,
0100
1000
0010
0100
0001
0000
0000
0000
0000
0000
0101
0000
0000
0000
0010
1000
,
0100
0010
0001
0000
0000
0000
0010
0100
0001
1000
0100
0000
0000
0000
0101
0000
,
0110
0000
1010
0000
0010
0100
0001
0010
0002
0000
0003
0000
0000
0000
1000
0100
,
0010
0001
0200
0000
0000
0000
0000
0000
0300
0000
2001
0000
0000
0000
3100
0000
,
0010
0001
2020
0000
0030
3200
0010
1300
,
0001
0002
0000
0023
0000
0230
0000
1300
,
0100
0020
0000
0030
0000
0001
0010
1000
,
0010
0002
0000
0003
0000
1010
0000
0100
,
0001
0100
1001
0000
0000
0101
0000
0010
,
0001
0001
0000
1000
0010
0100
0000
0101
,
0000
0110
0000
0000
0000
0000
0000
0000
;
