#TITLE:Lament Rain;
#SUBTITLE:;
#ARTIST:Ashrount, D-D-Dice;
#TITLETRANSLIT:;
#SUBTITLETRANSLIT:;
#ARTISTTRANSLIT:;
#GENRE:;
#CREDIT:;
#MUSIC:Lament Rain.ogg;
#BANNER:Lament Rain-bn.png;
#BACKGROUND:Lament Rain-bg.png;
#CDTITLE:cdtitlelninja.png;
#SAMPLESTART:0.000;
#SAMPLELENGTH:0.000;
#SELECTABLE:YES;
#OFFSET:-0.027;
#BPMS:0.000=200.000;
#STOPS:;
#BGCHANGES:;
#FGCHANGES:;

//--------------- dance-single - LNinja ----------------
#NOTES:
     dance-single:
     LNinja:
     Hard:
     17:
     0,0,0,0,0:
0000
0000
2000
3020
,
0230
0302
0203
0320
,
2030
3000
0002
0203
,
0320
2030
3020
0230
,
0302
0003
0020
0230
,
2300
3002
2003
3200
,
0320
0030
0200
0320
,
0032
0000
0000
0000
2003
0000
0000
3000
0012
0000
0000
0000
1000
0000
0000
0003
,
2200
0000
3300
0000
0011
0000
0100
1000
,
0000
1000
0010
0001
0010
1000
0100
0001
,
0100
1000
0001
0100
1010
0000
1100
0101
,
0000
0001
0010
1000
0010
0001
0100
1000
,
0100
0001
1000
0010
0101
0000
1000
0001
,
0010
1000
0010
0000
1000
0000
0010
0000
0001
1000
0001
0000
1000
0000
0010
0000
,
0100
0000
0001
0100
0001
0000
0010
0000
1000
0000
0001
0000
1000
0000
0001
0000
,
1000
0000
0001
1000
0001
1000
0001
1000
0001
0000
0100
0010
0100
0010
0100
0001
,
1000
0100
0010
0001
1000
0000
0001
0000
1000
0000
0000
0000
1001
0000
0000
0000
,
0010
1001
0000
0100
1001
0000
0010
1001
,
0000
0000
1000
0001
1000
0001
1000
0001
,
1000
0010
0100
0010
0100
0010
0100
0010
0100
0000
0000
0000
0000
0000
0000
0000
,
0010
0000
1000
0010
1000
0000
0000
0000
0001
0000
0100
0010
0100
0000
0010
1000
,
0010
0000
0100
0000
1000
0000
1001
0000
0000
0000
0110
0000
1000
0000
0010
0100
,
0001
0000
1000
0000
0100
0000
0001
0000
0010
0000
1000
0000
0000
0100
0010
0100
,
0010
0000
0100
0000
0001
0000
0101
0000
0000
0000
1010
0000
0000
0000
0100
0001
,
1000
0000
0000
0000
1001
0000
0000
0000
0011
0000
0000
0000
0000
0000
0001
0100
,
0001
1000
0010
1010
0000
1001
0000
0010
,
1000
0000
0001
0010
0100
0000
1000
0000
0101
0000
0000
0000
0000
0000
0100
0001
,
0100
0000
0000
0000
0001
1000
1001
0000
0100
0000
0010
0100
,
0110
0000
0000
0000
1000
0001
0100
0001
0100
0000
0000
0000
0000
0000
1000
0010
,
1000
0001
0100
1100
0000
1010
0000
0010
,
1001
0000
0100
0000
1001
0000
1000
0000
0101
0000
0010
0000
0000
0000
0001
0010
,
0100
0000
1000
0000
0001
0000
1100
0000
0000
0000
0011
0000
0000
0000
0001
0010
,
0100
0000
1010
0001
1100
0000
0010
1001
,
0000
0000
0100
0000
1001
0000
0000
0000
0001
1000
1001
0000
0000
0000
0010
0100
,
0001
0000
1000
0000
1000
0001
1000
0001
4000
0004
0000
0000
0000
0000
0000
0000
,
0000
0000
0000
0000
0000
0000
0000
3003
0440
0000
0000
0000
0000
0330
1001
0000
,
0100
0000
1000
0000
0100
0000
0001
0000
1000
0000
0001
0100
0010
0000
1000
0000
,
0001
0010
0100
0000
1000
0000
0100
0010
0001
0000
1000
0000
0100
0001
0010
0000
,
0100
0000
0001
0000
0100
0000
1000
0000
0001
0100
0010
1000
0000
0000
0001
0100
,
0010
1000
0000
0000
0001
0100
0010
1000
0000
0000
0001
0010
0001
1000
0100
1000
,
0000
0000
1000
0000
0010
0000
0001
0000
1000
0001
1000
0001
0100
0001
0100
0010
,
1000
0000
0000
0000
0010
0001
0010
0001
1000
0000
0000
0000
0010
0100
0010
0100
,
0001
0000
0000
0000
1000
0100
1000
0100
0010
0000
0000
0000
0100
0000
0011
0000
,
0000
1010
0000
1001
0000
1100
0001
0100
,
0020
0000
0000
0000
0230
0000
0000
0300
1001
0000
0000
0000
1100
0000
0000
0000
,
0011
0000
0000
0000
0110
0000
0000
0000
1001
0000
0000
0000
0001
0000
0000
1000
0000
0000
0001
0000
0000
1000
0000
0001
,
0000
0000
1000
0000
0000
0000
0001
0000
0000
1000
0000
0000
0001
0000
0000
1000
0000
0000
0001
0000
1000
0000
0001
0000
1000
0000
0000
0000
0000
0000
0000
0000
0000
0000
0000
0000
1001
0000
0000
0000
0000
0000
0001
0000
0000
0010
0000
0000
,
0100
0000
0000
0000
0000
0000
1000
0000
0000
0000
0000
0000
0010
0000
0000
0100
0000
0000
0001
0000
0000
1000
0000
0000
0001
0000
0000
0000
1000
0000
0000
0000
0001
0000
0000
0000
1000
0000
0000
0000
0100
0000
0000
0000
1000
0000
0000
0000
,
0001
0000
0000
0000
0100
0000
0000
0000
0001
0000
0000
0000
0100
0000
0000
0000
0001
0000
0000
0000
1000
0000
0000
0000
0101
0000
0000
0000
0000
0000
0000
0000
0000
0000
0000
0000
0001
0000
0000
1000
0000
0000
0100
0000
0000
1000
0000
0000
,
0010
1000
0010
0100
0001
0000
0001
0000
0100
0000
0001
0000
1000
0001
1000
0001
,
1000
0010
0100
0010
1000
0000
1000
0000
0001
0000
0000
0000
1000
0100
1000
0100
,
1000
0001
0010
0100
0010
0000
0010
0000
0100
0000
0000
0000
0010
1000
0010
1000
,
0010
0100
0001
0100
0001
0000
0001
0000
0010
0000
1000
0000
0010
0000
0001
0000
,
0010
0100
1000
0010
0001
0100
1000
0010
,
0001
0000
0100
0000
1000
0000
0001
1000
0001
1000
0001
1000
0001
1000
0001
1000
,
0001
1000
0001
1000
0001
1000
0001
4000
0004
0000
0000
0000
0000
0000
0000
0000
,
3003
0000
0000
0000
0000
0000
0000
0000
0110
0000
0000
1001
0000
0000
1100
0000
,
1001
0000
0000
0001
0100
0001
0000
1001
0000
0000
1010
0000
0000
1100
0000
0000
,
0101
0000
0000
0000
0000
0000
0001
0010
0001
0000
0000
1100
0000
0000
0110
0000
,
0011
0000
0000
0010
0100
0010
0000
0110
0000
0000
0101
0000
0000
1100
0000
0000
,
0011
0000
0000
0000
0000
0000
1000
0100
1000
0100
0000
1100
0000
0000
1001
0000
,
0101
0000
0000
1000
0100
1000
0000
0110
0000
0000
1010
0000
0000
1100
0000
0000
,
1000
0000
0000
0100
0000
0000
0010
0000
0000
0100
0000
0000
0000
0000
0000
0000
0000
0000
0010
0000
0000
0001
0000
0000
0100
0000
0000
0000
0010
0000
0000
0000
0000
0000
0000
0000
1010
0000
0000
0000
0000
0000
0000
0000
1100
0000
0000
0000
,
0000
1001
1001
1001
0000
0010
0000
0000
0011
0000
1100
0000
,
0440
0000
0000
0000
1331
0000
0001
0000
0010
0000
0001
0000
0100
0010
0100
0010
,
1000
0001
0010
0110
0000
0010
0100
1100
,
0000
0000
1001
0000
0400
0000
0300
0000
1001
0000
0000
0000
0001
0000
0100
1000
,
0000
1000
0001
1001
0000
1001
0100
1001
,
0000
0000
0010
0100
0010
0000
0000
0000
1001
0000
0010
0000
1001
0000
0010
0000
,
0100
0000
1001
0000
0100
0000
1000
0010
1000
0000
1001
0000
0100
0000
0010
0100
,
0010
0000
1000
0000
0100
0000
0010
0001
0010
0000
0100
0000
1000
0001
1000
0001
,
1000
0100
0010
0100
0010
0100
1000
0001
0200
0000
0000
0000
0000
0000
0000
0000
,
0000
0000
0000
0000
0000
0000
0000
0300
2002
0000
0000
0000
0000
0000
0000
0000
,
0000
0000
0000
0000
0000
0000
0000
0003
0020
0000
0000
0000
0000
0000
3030
0000
,
0022
0000
0000
0033
0000
0000
0000
0000
2002
0000
0000
0000
0000
0000
0000
0000
,
0000
0000
3000
0000
0020
0000
0000
0003
0200
0000
0000
0000
0000
0000
0030
0000
,
2000
0000
0000
0000
0000
0000
0000
0300
0002
0000
0000
0000
0000
0000
0000
3000
,
0200
0000
0000
0000
0000
0000
0000
0003
0020
0000
0000
0000
0000
0000
0000
0030
,
0002
0000
0000
0000
0000
0000
0000
0300
2000
0000
0000
0000
0000
0000
0000
0003
,
0200
0000
3020
0000
,
2300
0000
0000
0000
0000
0000
0000
0000
0000
0000
3030
0000
0202
0000
0000
0000
0000
0000
0000
0000
0000
0300
0000
0000
,
2000
0000
0000
0000
0000
0000
0000
0003
0200
0000
0000
0000
0000
0000
0000
0000
,
3020
0000
0302
0000
,
0000
0033
1200
0000
2000
0000
0000
0000
,
0320
0000
0000
3030
0022
0000
0000
0000
,
0000
0000
0203
0000
,
0000
0000
2332
0000
,
0000
0000
0000
0000
0000
0000
0000
0000
0023
0000
0000
0000
0000
0000
0000
3030
,
0100
0100
0000
0000
1001
0000
0100
0100
,
0010
0000
0100
0000
0001
0000
0100
0010
0100
0000
0001
0000
1000
0000
0100
1000
,
0100
0000
0001
0000
0010
0000
0001
0010
0001
0000
0100
0000
0010
0000
0100
0000
,
0010
0000
1000
0000
0001
0000
0010
0100
0010
0000
0001
0000
1000
0000
0100
1000
,
0100
0020
0000
0000
0031
1000
0001
1000
,
0001
0000
1000
0000
0001
0000
1000
0000
0001
1000
0001
1000
0001
1000
0001
1000
,
0040
0400
0000
0000
0000
0000
0000
0000
0000
0000
0000
0000
0000
0000
0000
0000
0330
0000
0000
0000
0000
0000
0000
0000
0000
0000
0000
0000
0000
0000
0000
0000
,
0000
0000
0000
0000
0010
0000
0000
0001
,
0100
0000
1000
0000
0100
0000
0001
0000
1100
0000
0000
0000
0010
0000
0001
0100
,
0010
0000
1000
0100
0010
0000
0001
0000
0100
0010
1000
0000
0100
0000
0001
1000
,
0100
0000
0010
0000
0001
0000
0010
0000
0100
0010
0100
0000
1000
0001
1000
0000
,
0010
0000
0100
1000
0100
0000
0001
0000
0010
0100
0010
0000
0001
0000
0000
0000
,
0010
0001
0010
0000
0100
0000
0001
0000
0110
0000
0000
0000
0010
1000
0100
0000
,
0101
0000
0000
0000
0100
0010
1000
0000
1001
0000
0000
0000
0011
0000
0000
0000
,
0101
0000
0000
0000
1100
0000
0010
0100
0020
0000
0100
0000
0030
0000
0100
0010
,
1000
0000
0000
0000
0000
0000
0000
0000
0001
0000
0000
0000
0000
0000
0000
0000
0000
0000
0001
0000
0000
0000
0000
0000
0100
0000
0000
0010
0000
0000
1000
0000
0000
0000
0000
0000
0100
0000
0000
0000
0000
0000
0001
0000
0000
0000
0000
0000
,
0000
0000
0100
0000
0010
0000
1000
0000
0010
0000
0000
0000
0001
1000
0100
0000
,
0010
0000
1000
0010
0100
0000
0001
0000
0100
0010
1000
0000
0001
0000
0100
0000
,
0001
0000
0010
0000
1000
0000
0100
0000
0001
0000
0000
0000
0100
0010
1000
0000
,
0100
0000
0001
0010
0100
0000
1000
0000
0000
0000
1000
0000
0000
0000
0000
0000
,
0000
0000
0010
0000
0100
0000
0001
0000
0100
0000
0000
0000
0010
1000
0010
0000
,
0100
0000
0001
0010
0001
0000
0000
0000
0001
0000
0000
0000
0100
0010
1000
0000
,
1000
0000
0000
0000
0000
0000
0100
0000
0000
0010
0000
0000
0001
0000
0000
0000
0000
0000
0001
0000
0000
0000
0000
0000
0100
0000
0000
0000
0000
0000
0000
0000
0000
0000
0000
0000
1000
0000
0000
0000
0010
0000
0000
0000
0100
0000
0000
0000
,
0001
0000
0000
0000
0100
0000
0000
0000
0001
0000
0000
0000
1000
0000
0000
0000
0000
0000
0100
0000
0000
0000
0000
0000
0010
0000
0000
0000
0000
0000
1000
0000
0000
0000
0000
0000
0010
0000
0000
0100
0000
0000
0001
0000
0000
0000
0000
0000
,
0010
0100
0010
0100
0010
0100
0010
0100
0010
0000
0000
0000
0000
0000
0000
0000
,
0000
0000
0000
0000
,
0000
0000
0000
0000
2000
0000
0002
0000
0000
0000
0000
0000
0000
0000
0000
3000
,
0200
0000
0000
0000
0000
0000
0000
0003
0020
0000
0000
0000
0000
0000
0000
0300
,
2000
0000
0000
0000
0000
0000
3030
0000
1001
0000
0100
0010
1000
0000
0100
0000
,
0010
0001
0100
0000
1000
0000
0100
0010
0001
0000
1000
0010
1000
0010
0100
0001
,
0010
0000
0100
0000
1000
0000
0010
0100
0001
0000
0001
0000
0010
0100
1000
0000
,
1000
0000
0010
0100
0001
0000
0001
0000
0100
0000
1000
0000
0100
0000
0001
0010
,
0001
0000
0010
0100
1000
0000
1000
0000
0100
0001
1000
0000
0001
0000
1000
0100
,
0001
0000
1000
0010
1000
0010
1000
0001
0100
0001
0100
0001
1000
0000
0010
0100
,
0001
0000
1000
0000
0100
0001
0010
0000
0010
0000
0001
0100
1000
0000
1000
0010
,
1000
0000
0100
0010
0001
0000
0100
0000
0001
0000
0100
1000
0010
0000
0010
0000
,
1000
0100
0010
0000
0001
0000
0010
0100
1000
0000
0010
0100
0010
0100
0010
0100
,
0010
0100
0010
0100
0010
0100
0010
0100
0020
0000
0000
0000
0000
0000
0000
0000
,
0000
0000
0000
0000
,
0000
0000
0200
0000
,
0000
0000
0000
0000
,
0000
0030
2000
0000
,
0000
0300
0020
0000
,
0000
0030
0002
0000
,
0000
3000
0020
0000
,
0000
0000
0000
0000
,
0000
0000
0000
0000
,
0000
0000
0000
0000
,
0000
0000
0000
0000
,
0000
0000
0033
0000
;

//--------------- dance-single - LNinja ----------------
#NOTES:
     dance-single:
     LNinja:
     Challenge:
     19:
     0,0,0,0,0:
0000
0000
0002
0023
,
0230
2300
3200
0320
,
0032
0003
2000
3200
,
0320
0032
0023
0230
,
2300
3000
0020
0230
,
0302
2003
3002
0203
,
0320
0030
0200
0320
,
2030
0000
0000
0000
3002
0000
0000
0003
2010
0000
0000
0000
0001
0000
0000
3000
,
0202
0000
0303
0000
1010
0000
0100
0001
,
0000
0001
0010
1000
0010
0001
0100
1000
,
0100
0001
1000
0100
0011
0000
0101
1100
,
0000
1000
0010
0001
0010
1000
0100
0001
,
0100
1000
0001
0010
1100
0000
0001
1000
,
0010
0001
0010
0000
1000
0000
0010
0000
1000
0001
1000
0000
0010
0000
1000
0000
,
0001
0000
1000
0100
1000
0000
0010
0000
0001
0010
0100
1000
0001
0010
0100
1000
,
0001
0000
0010
0000
0100
0000
1000
0000
0001
1000
0001
1000
0001
1000
0001
1000
0001
0000
0000
0000
0100
0000
0010
0000
0100
0000
0010
0000
1000
0000
0001
0000
,
0010
0100
0010
0001
1000
0000
0001
0000
1000
0000
0000
0000
1001
0000
0000
0000
,
0010
1001
0000
0100
1001
0000
0010
1001
,
0000
0000
1001
1001
1001
1001
1001
1001
,
1001
0010
0100
0010
0100
0010
0100
0010
0100
0000
0000
0000
0000
0000
0000
0000
,
1000
0000
0000
0100
0000
0000
0010
0000
0000
0001
0000
0000
1000
0000
0000
0000
0000
0000
0000
0000
0000
0000
0000
0000
1000
0000
0000
0010
0000
0000
0100
0000
0000
0001
0000
0000
1000
0000
0000
0000
0000
0000
0001
0000
0010
0000
0001
0000
,
0010
0000
0100
0000
1000
0000
1001
0000
0000
0000
0110
0000
0001
1000
0100
0001
,
1000
0000
0000
0100
0000
0000
0001
0000
0000
1000
0000
0000
0001
0000
0000
0100
0000
0000
0000
0000
1000
0100
1000
0100
,
1000
0000
0010
0000
0100
0000
0101
0000
0000
0000
1010
0000
0000
0000
0100
0001
,
1000
0000
0000
0000
0000
0000
1010
0000
0000
0000
0000
0000
0101
0000
0000
0000
0000
0000
0000
0000
0000
0010
0100
0010
,
0100
0001
0010
0011
0000
1001
0000
0100
,
0010
0000
0000
0100
0000
0000
0001
0000
0000
1000
0000
0000
0100
0000
0000
0000
0000
0000
0010
0000
0000
0000
0000
0000
0101
0000
0000
0000
0000
0000
0000
0000
0000
0000
0000
0000
0000
0000
0000
0000
0000
0000
0010
0000
1000
0000
0010
0000
,
1000
0000
0000
0000
1000
0001
1001
0000
0010
0000
0100
0010
,
0110
0000
0000
0000
0000
0000
0001
0000
1000
0010
1000
0010
1000
0000
0000
0000
0000
0000
0000
0000
0000
0001
0010
0001
,
0010
1000
0100
0101
0000
0011
0000
0010
,
1001
0000
0000
0100
0000
0000
1001
0000
0000
0001
0000
0000
1100
0000
0000
0010
0000
0000
0000
0000
0000
0010
0100
0010
,
0100
0000
0001
0000
1000
0000
0101
0000
0000
0000
1010
0000
0000
0000
1000
0100
,
0001
0000
0011
1000
0101
0000
0010
1001
,
0000
0000
0100
0000
1001
0000
0000
0000
1000
0001
1001
0000
0000
0000
0010
0100
,
0001
0000
0000
0000
1000
0000
0000
0000
0100
1000
0100
1000
0100
0000
1000
0000
4004
0000
0000
0000
0000
0000
0000
0000
0000
0000
0000
0000
0000
0000
0000
0000
,
0000
0000
0000
0000
0000
0000
0000
3003
0440
0000
0000
0000
0000
0330
1001
0000
,
0100
0000
0001
0000
0100
0000
1000
0000
0001
0010
0100
1000
0001
0000
0001
0010
,
0100
1000
0001
0000
0001
0010
0100
1000
0001
0000
0001
0010
0100
1000
0001
0000
,
0100
0000
1000
0000
0100
0000
0001
0000
1000
0100
0010
0001
1000
0000
1000
0100
,
0010
0001
1000
0000
1000
0100
0010
0001
1000
0000
1000
0100
0010
0001
0010
0100
,
1000
0000
0001
0000
0010
0000
1000
0000
0001
0010
0100
1000
0100
0010
0001
0010
,
0001
0000
0100
0000
0010
1000
0010
1000
0001
0000
0100
0000
0001
0010
0100
1000
,
0010
0000
0010
0000
1000
0100
0010
0001
0100
0000
0000
0000
0100
0000
1010
0000
,
0000
0011
0000
1001
0000
0101
1000
0100
,
0020
0000
0000
0000
0230
0000
0000
0300
1001
0000
0000
0000
0101
0000
0000
0000
,
1010
0000
0000
0000
0110
0000
0000
0000
1001
0000
0000
0000
1000
0000
0000
0001
0000
0000
1000
0000
0000
0001
0000
1000
,
0000
0000
0001
0000
0000
0000
1000
0000
0000
0001
0000
0000
1000
0000
0000
0001
0000
0000
1000
0000
0001
0000
1000
0000
0001
0000
0000
0000
0000
0000
0000
0000
0000
0000
0000
0000
1001
0000
0000
0000
0000
0000
1000
0000
0000
0010
0000
0000
,
0100
0000
0000
0001
0000
0000
1000
0000
0000
0000
0000
0000
0001
0000
0000
0010
0000
0000
0100
0000
0000
1000
0000
0000
0001
0000
0000
0000
0100
0000
0000
0000
0001
0000
0000
0000
0010
0000
0000
0000
0100
0000
0000
0000
0001
0000
0000
0000
,
1000
0000
0000
0000
0100
0000
0000
0000
0010
0000
0000
0000
0001
0000
0000
0000
0010
0000
0000
0000
0100
0000
0000
0000
1000
0000
0000
0000
0000
0000
0000
0000
0000
0000
0000
0000
0010
0000
0000
0100
0000
0000
0010
0000
0000
1000
0000
0000
,
0100
0010
0100
1000
0100
0000
1000
0000
0100
0000
1000
0000
0010
1000
0100
1000
,
0010
0100
0010
1000
0010
0000
1010
0000
0110
0000
0000
0000
0001
0010
0100
0010
,
0001
0100
0001
0010
0001
0000
0011
0000
0101
0000
0000
0000
0100
0010
0100
0001
,
0100
0001
0010
0001
0100
0000
0110
0000
2010
0000
0002
0000
3010
0000
2003
0000
,
0020
3200
0031
0320
1000
0230
0002
0310
,
2003
0000
0100
0000
3001
0000
1000
0010
1000
0100
0010
0001
1000
0100
0010
0001
,
1000
0100
0010
0001
1000
0100
0010
0001
1000
0001
1000
0001
1000
0001
1000
0001
,
1000
0000
0000
0000
0000
0000
0000
0000
0110
0000
0000
1001
0000
0000
0101
0000
,
1001
0000
0000
0000
0000
0000
1000
0100
1000
0100
1000
0000
0000
0000
1001
0000
0000
0000
0000
0000
0011
0000
0000
0000
0000
0000
0101
0000
0000
0000
0000
0000
,
1100
0000
0000
0000
0000
0000
0000
0000
0000
0000
0000
0000
0000
0000
0000
0000
0000
0000
0001
0000
1000
0000
0001
0000
1000
0000
0001
0000
0000
0000
0000
0000
0000
0101
0000
0000
0000
0000
0000
0000
0000
0000
0110
0000
0000
0000
0000
0000
,
1010
0000
0000
0000
0000
0000
0010
0100
0010
0100
0010
0000
0000
0000
0110
0000
0000
0000
0000
0000
1100
0000
0000
0000
0000
0000
0101
0000
0000
0000
0000
0000
,
1010
0000
0000
0000
0000
0000
0000
0000
0000
0000
0000
0000
0001
0100
0001
0100
0001
0000
0100
0000
0000
0000
0101
0000
0000
0000
0000
0000
1001
0000
0000
0000
,
1100
0000
0000
0000
0000
0000
0001
0010
0001
0010
0001
0000
0000
0000
0110
0000
0000
0000
0000
0000
0011
0000
0000
0000
0000
0000
0101
0000
0000
0000
0000
0000
,
0010
0000
0000
0100
0000
0000
0001
0000
0000
0100
0000
0000
0010
0000
0000
0000
0000
0000
0100
0000
0001
0000
1000
0000
0100
0000
0000
0000
0010
0000
0000
0000
0000
0000
0000
0000
0011
0000
0000
0000
0000
0000
0000
0000
0101
0000
0000
0000
,
0000
1001
1001
1001
0000
0010
0000
0000
1010
0000
0101
0000
,
0440
0000
0000
0000
1331
0000
1000
0000
0010
0000
1000
0000
0100
0010
0100
0010
,
0001
1000
0010
0110
0000
0010
0100
0101
,
0000
0000
1001
0000
0400
0000
0300
0000
1001
0000
0000
0000
1000
0000
0100
0001
,
0000
0001
1000
1001
0000
1001
0100
1001
,
0000
0000
0000
0010
0100
0010
0100
0000
0000
0000
0000
0000
1001
0000
0000
0010
0000
0000
1001
0000
0000
0010
0000
0000
,
0100
0000
0000
0000
0000
0000
1001
0000
0000
0000
0000
0000
0100
0000
0000
0000
0000
0000
0001
0000
0010
0000
0001
0000
0010
0000
0000
0000
0000
0000
1001
0000
0000
0000
0000
0000
0100
0000
0000
0000
0000
0000
0010
0000
0000
0001
0000
0000
,
1000
0000
0001
0000
0001
0100
0010
0001
0010
0000
0100
0000
1000
0100
0010
0100
,
1000
0100
0010
0100
1000
0100
0010
0100
1000
0000
0000
0000
0000
0000
0000
0000
,
0000
0000
2002
0000
,
0000
0000
0000
0000
0000
0000
0000
3000
0020
0000
0000
0000
0000
0000
0033
0000
,
2020
0000
0000
3030
0000
0000
0000
0000
2002
0000
0000
0000
0000
0000
0000
0000
,
0000
0000
0003
0000
0020
0000
0000
3000
0200
0000
0000
0000
0000
0000
0030
0000
,
0002
0000
0000
0000
0000
0000
0000
0300
2000
0000
0000
0000
0000
0000
0000
0003
,
0200
0000
0000
0000
0000
0000
0000
3000
0020
0000
0000
0000
0000
0000
0000
0030
,
2000
0000
0000
0000
0000
0000
0000
0300
0002
0000
0000
0000
0000
0000
0000
3000
,
0200
0000
0023
0000
,
0302
0000
0000
0000
0000
0000
0000
0000
0000
0000
0033
0000
2200
0000
0000
0000
0000
0000
0000
0000
0000
0300
0000
0000
,
0002
0000
0000
0000
0000
0000
0000
3000
0200
0000
0000
0000
0000
0000
0000
0000
,
0023
0000
2300
0000
,
0000
3030
0201
0000
0002
0000
0000
0000
,
0320
0000
0000
0033
2020
0000
0000
0000
,
0000
0000
3200
0000
,
0000
0000
2332
0000
,
0000
0000
0000
0000
0000
0000
0000
0000
3020
0000
0000
0000
0000
0000
0000
0033
,
0100
0100
0000
0000
1001
0000
0100
0100
,
0010
0000
0100
0000
1000
0000
0100
0010
0100
0000
1000
0000
0001
0000
0100
0001
,
0100
0000
1000
0000
0010
0000
1000
0010
1000
0000
0100
0000
0010
0000
0100
0000
,
0010
0000
0000
0000
0001
0000
0000
0000
1000
0000
0000
0000
0010
0100
0010
0100
0010
0000
0000
0000
1000
0000
0000
0000
0001
0000
0000
0000
0100
0001
0100
0001
,
0100
0020
0000
0000
1030
0001
1000
0001
,
1000
0000
0001
0000
1000
0000
0001
0000
1000
0001
1000
0001
1000
0001
1000
0001
,
0100
0010
0100
0010
0100
0010
0100
0010
0100
0010
0100
0010
0100
0010
0100
0010
0100
0000
0000
0000
0000
0000
0000
0000
0000
0000
0000
0000
0000
0000
0000
0000
,
0000
0000
0000
0000
0010
0000
0000
1000
,
0100
0000
0001
0000
0100
0000
1000
0000
0101
0000
0000
0000
0010
0100
1000
0100
,
0010
0000
0001
0100
0010
0000
1000
0000
0100
0010
1000
0000
0100
0001
1000
0001
,
0100
0000
0010
0000
0100
0000
1000
0000
0100
0010
0001
0000
0001
0010
0100
0000
,
1000
0000
0100
0001
0010
0000
0001
0000
0010
0001
0100
0000
0001
0000
0000
0000
,
0010
1000
0010
0000
0100
0000
1000
0000
0110
0000
0000
0000
0010
0001
0100
0000
,
1100
0000
0000
0000
0100
0010
0001
0000
1001
0000
0000
0000
1010
0000
0000
0000
,
1100
0000
0000
0000
0101
0000
0010
0100
0020
0000
0100
0000
0030
0000
0100
0010
,
0001
0000
0000
0000
0000
0000
0000
0000
1000
0000
0000
0000
0000
0000
0000
0000
0000
0000
1000
0000
0000
0000
0000
0000
0100
0000
0000
0010
0000
0000
0001
0000
0000
0000
0000
0000
0100
0000
0000
0000
0000
0000
1000
0000
0000
0000
0000
0000
,
0000
0000
0100
0000
0010
0000
0001
0000
0010
0000
0000
0000
1000
0001
0100
0000
,
0010
0000
0001
0010
0100
0000
1000
0000
0100
0010
0001
0000
0010
0000
0100
0000
,
1000
0000
0010
0000
0001
0000
0100
0000
1000
0000
0000
0000
0100
0010
0001
0000
,
0100
0000
1000
0010
0100
0000
0010
0000
0000
0000
0001
0000
0000
0000
0000
0000
,
0000
0000
0010
0000
0100
0000
1000
0000
0100
0000
0000
0000
0010
0001
0010
0000
,
1000
0010
0100
0001
1000
0000
0000
0000
1000
0000
0000
0000
0100
0010
0001
0010
,
0100
0000
0000
1000
0000
0000
0100
0000
0000
1000
0000
0000
0100
0000
0000
0000
0000
0000
0010
0000
0000
0000
0000
0000
0001
0000
0000
0000
0000
0000
0000
0000
0000
0000
0000
0000
0010
0000
0000
0000
0000
0000
0000
0000
0000
0000
0000
0000
0100
0000
0000
0000
0000
0000
0000
0000
0000
0000
0000
0000
0000
0000
0000
0000
0000
0000
0000
0000
0000
0000
0000
0000
0001
0000
0000
0000
0000
0000
0000
0000
0010
0000
0000
0000
0000
0000
0000
0000
0100
0000
0000
0000
0000
0000
0000
0000
,
1000
0000
0100
0000
0010
0000
0000
0000
0001
0000
0000
0000
1000
0000
0000
0000
0000
0000
0100
0000
0000
0000
0000
0000
0010
0000
0000
0000
0000
0000
0001
0000
0000
0000
0000
0000
0010
0000
0000
0100
0000
0000
1000
0000
0000
0000
0000
0000
,
0010
0100
0010
0100
0010
0100
0010
0100
0010
0100
0010
0100
0010
0100
0010
0100
0010
0000
0000
0000
0000
0000
0000
0000
0000
0000
0000
0000
0000
0000
0000
0000
,
0000
0000
0000
0000
,
0000
0000
0000
0000
0002
0000
2000
0000
0000
0000
0000
0000
0000
0000
0000
0003
,
0200
0000
0000
0000
0000
0000
0000
3000
0020
0000
0000
0000
0000
0000
0000
0300
,
0002
0000
0000
0000
0000
0000
0033
0000
1001
0000
0100
0010
0001
0000
0100
1000
,
0100
0010
0001
0000
0001
0010
0100
1000
0100
0000
0100
0010
0001
0010
0100
0010
,
0001
0000
1000
0000
0010
0100
1000
0100
0010
0000
1000
0010
0100
0010
1000
0000
,
0001
0100
0001
1000
0001
0000
1000
0000
0010
0000
0100
0000
0010
0000
0001
1000
,
0010
0000
0100
0010
0001
0000
0001
1000
0100
1000
0001
0000
1000
0100
0010
0001
,
0010
0000
0001
1000
0100
1000
0001
1000
0100
1000
0001
1000
0100
0000
0001
0100
,
0010
0000
0001
1000
0100
0010
0001
0000
0010
0000
1000
0100
0010
0000
0001
0010
,
0001
0000
1000
0010
0100
0001
0100
0000
1000
0010
0100
0001
0010
0000
0100
1000
,
0001
0100
0010
0000
1000
0100
0010
0001
1000
0000
1000
0001
0010
0100
0010
0001
,
0010
0100
0010
0001
0010
0100
0010
0001
0020
0000
0000
0000
0000
0000
0000
0000
,
0000
0000
0000
0000
,
0000
0000
0200
0000
,
0000
0000
0000
0000
,
0000
0030
0002
0000
,
0000
0300
0020
0000
,
0000
0030
2000
0000
,
0000
0003
0020
0000
,
0000
0000
0000
0000
,
0000
0000
0000
0000
,
0000
0000
0000
0000
,
0000
0000
0000
0000
,
0000
0000
3030
0000
;
