#TITLE:INTERNET YAMERO;
#SUBTITLE:NEEDY GIRL OVERDOSE;
#ARTIST:Aiobahn, KOTOKO, まろん (IOSYS);
#TITLETRANSLIT:;
#SUBTITLETRANSLIT:;
#ARTISTTRANSLIT:;
#GENRE:;
#CREDIT:;
#MUSIC:INTERNET YAMERO.ogg;
#BANNER:INTERNET YAMERO-bn.png;
#BACKGROUND:INTERNET YAMERO-bg.png;
#CDTITLE:cdtitlelninja.png;
#SAMPLESTART:68.184;
#SAMPLELENGTH:22.705;
#SELECTABLE:YES;
#OFFSET:-0.070;
#BPMS:0.000=184.983;
#STOPS:;
#DISPLAYBPM:184.983;
#BGCHANGES:;
#FGCHANGES:;

//--------------- dance-single - LNinja - 15.8 ----------------
#NOTES:
     dance-single:
     LNinja - 15.8:
     Medium:
     15:
     0,0,0,0,0:
0000
0000
0000
0000
,
0000
0000
1001
0101
,
1000
0100
0010
0001
0100
0001
0000
1000
,
0100
0000
0110
0100
4004
0000
3003
0000
,
0000
0000
0000
0000
,
0000
0000
4004
3003
,
0000
0000
0000
0000
,
0000
0000
4004
3003
,
0000
0000
0000
0000
,
0000
0000
4004
3003
,
0000
0000
4004
3003
,
0040
0000
0000
0000
0000
0000
0000
0000
0000
0000
0000
0000
0030
0000
0000
0000
0000
0000
0000
0000
0000
0000
0000
0000
0000
0000
0000
0000
0000
0000
0000
0000
0000
0000
0000
0000
0400
0000
0000
0000
0000
0000
0000
0000
0000
0000
0000
0300
0002
0000
0000
0000
0000
0000
0000
0000
0000
0000
0000
0000
0003
0000
0000
0000
0000
0000
0000
0000
0000
0000
0000
0000
2000
0000
0000
0000
0000
0000
0000
0000
0000
0000
0000
0000
3000
0000
0000
0000
0000
0000
0000
0000
0000
0000
0000
0000
0100
0000
0000
0000
0000
0000
0000
0000
0000
0000
0000
0000
0000
0000
0000
0000
0000
0000
0000
0000
0000
0000
0000
0000
0010
0000
0000
0000
0000
0000
0000
0000
0000
0000
0000
0000
0000
0000
0000
0000
0000
0000
0000
0000
0000
0000
0000
0000
0001
0000
0000
0000
0000
0000
0000
0000
0000
0000
0000
0000
0000
0000
0000
0000
0000
0000
0000
0000
0000
0000
0000
0000
0100
0000
0000
0000
0000
0000
0000
0000
0000
0000
0000
0000
0000
0000
0000
0000
0000
0000
0000
0000
0000
0000
0000
0000
,
0001
0010
0001
1000
0100
0010
0001
0100
,
0010
1000
0001
0000
1000
0001
0010
0100
,
1000
0010
1000
0000
0001
0100
0001
1000
,
0100
0010
0100
0000
0001
0010
0100
1000
,
0010
0100
0001
0000
0100
0010
0100
0010
,
1000
0100
0001
0000
1010
0000
0011
0000
,
1001
0110
0101
1100
,
1010
0000
0000
0000
0010
0001
0010
0000
0100
0000
1000
0000
0100
0000
0001
0000
,
0100
0000
0001
0010
1000
0000
0001
0000
0100
0000
0010
0000
1000
0000
0100
0000
,
0001
0000
1000
0001
0010
1000
0001
0100
,
0010
0000
1000
0100
0001
0000
1000
0000
0010
0000
0001
0000
0100
0000
1000
0000
,
0100
0001
0010
0100
0010
0001
1000
0010
,
0001
0000
0010
1000
0100
0000
0001
0000
1000
0000
0010
0000
0001
0000
0100
0000
,
1000
0000
0100
0000
0001
0000
0100
0000
1000
0000
0100
0001
0010
0000
0100
0000
,
0010
0000
0001
0010
0100
1000
0100
0010
0001
0000
0100
0000
1000
0000
0010
0000
,
0001
0000
0110
0000
1000
0100
0010
0001
,
0010
0100
1000
0100
0010
0001
1000
0100
,
0001
0100
0010
0001
0010
1000
0100
0001
,
0010
0001
0100
1000
0001
0010
1000
0010
,
0001
0000
1001
0000
0010
0100
0001
0010
,
1000
0100
0001
1000
0001
0100
0010
0001
,
0010
0100
0001
0100
1000
0100
1000
0010
,
0001
1000
0010
0001
1000
0001
0100
1000
,
0001
0010
1000
0100
0202
0303
0022
0033
,
2020
3030
2002
3003
0220
0000
0300
0100
,
1030
0001
0100
1000
0200
0000
0000
0000
,
0300
0000
4004
3003
,
0000
0000
0000
0000
,
0000
0000
0404
0303
,
0000
0000
0000
0000
,
0000
0000
4400
3300
,
0000
0000
0000
0000
,
0000
0000
0440
0330
,
0000
0000
4040
3030
,
0400
0000
0000
0000
0000
0000
0000
0000
0000
0000
0000
0000
0300
0000
0000
0000
0000
0000
0000
0000
0000
0000
0000
0000
0000
0000
0000
0000
0000
0000
0000
0000
0000
0000
0000
0000
0040
0000
0000
0000
0000
0000
0000
0000
0000
0000
0000
0030
0002
0000
0000
0000
0000
0000
0000
0000
0000
0000
0000
0000
0003
0000
0000
0000
0000
0000
0000
0000
0000
0000
0000
0000
2000
0000
0000
0000
0000
0000
0000
0000
0000
0000
0000
0000
3000
0000
0000
0000
0000
0000
0000
0000
0000
0000
0000
0000
0001
0000
0000
0000
0000
0000
0000
0000
0000
0000
0000
0000
0000
0000
0000
0000
0010
0000
0000
0000
0000
0000
0000
0000
0000
0000
0000
0000
0000
0000
0000
0000
0100
0000
0000
0000
0000
0000
0000
0000
0000
0000
0000
0000
0000
0000
0000
0000
1000
0000
0000
0000
0000
0000
0000
0000
0000
0000
0000
0000
0000
0000
0000
0000
0100
0000
0000
0000
0000
0000
0000
0000
0000
0000
0000
0000
0000
0000
0000
0000
0010
0000
0000
0000
0000
0000
0000
0000
0000
0000
0000
0000
0000
0000
0000
0000
,
0001
1000
0100
0010
0001
1000
0100
0010
0001
1000
0100
0010
,
0001
0000
0000
0000
0000
0001
0000
0100
0000
0010
0000
1000
0000
0001
0000
0100
0000
0010
0000
1000
0000
0001
0000
0000
,
0000
0000
1000
0100
0010
0001
1000
0100
0010
0001
1000
0100
,
0010
0000
0001
0000
0000
0000
0000
0000
0000
1010
0000
0000
0000
0000
1000
0000
0010
0000
0100
0000
0001
0000
1000
0000
,
0010
0000
0100
0000
0001
0000
1000
0000
0010
0000
0100
0000
0004
0000
0000
0003
0000
0000
0000
0000
0000
0000
0000
0000
,
0110
1001
0101
1100
,
1001
0110
1010
0011
,
0101
0000
0000
0000
0100
1000
0100
0000
0010
0000
0001
0000
0010
0000
1000
0000
,
0010
0000
1000
0000
0001
0000
1000
0000
0010
0000
0100
0010
0001
0000
0010
0000
,
1000
0000
0000
0000
0001
0000
1000
0000
0100
0000
0001
0010
1000
0000
0010
0000
,
0100
0001
1000
0001
0010
1000
0010
0001
,
0010
0000
1000
0000
0010
0100
0001
0100
0010
0000
1000
0000
0001
0000
0100
0000
,
1000
0100
0010
1000
0001
0100
1000
0010
,
0001
0010
0100
0010
0001
0010
0100
0010
,
0100
0000
1000
0100
0010
0001
0010
0100
1000
0000
0010
0000
0001
0000
0100
0000
,
1000
0000
0110
0000
1000
0001
0100
1000
,
0100
0000
1000
0010
0001
0000
1000
0000
0100
0000
0010
0000
0001
0000
0100
0000
,
1000
0000
0000
0000
0001
0000
1000
0000
0010
0000
0001
0100
1000
0000
0100
0000
,
0010
0001
1000
0001
0010
1000
0100
0001
,
0100
0000
1000
0000
0010
0000
0100
0000
0010
1000
0100
0010
0001
0000
0010
0000
,
1000
0010
0100
1000
0001
0010
1000
0100
,
0001
0100
0010
0100
0001
0100
0010
0100
,
0010
0000
1000
0010
0100
0001
0100
0010
1000
0000
0100
0000
0001
0000
0010
0000
,
1000
0000
0110
0000
0001
1000
0010
0001
,
0010
0000
0001
0100
1000
0000
0001
0000
0010
0000
0100
0010
1000
0000
0010
0000
,
0001
0000
0000
0000
1000
0000
0001
0000
0100
0000
1000
0010
0001
0000
0010
0000
,
0100
0000
1000
0010
0001
0000
1000
0000
0100
0000
0001
0000
0010
0000
1000
0000
,
0010
0000
0001
0000
0100
0000
0010
0000
0100
0000
0001
0010
1000
0000
0100
0000
,
0001
0000
0100
1000
0010
0000
0001
0000
1000
0000
0100
0000
0001
0000
0010
0000
,
1000
0000
0010
0000
0100
0000
0010
0000
1000
0000
0010
0001
0100
0000
0010
0000
,
0100
0000
0001
0100
0010
1000
0010
0000
0001
0000
0000
0000
0101
0000
0000
0000
,
1010
0000
0110
0000
1000
0010
0100
1000
,
0100
0000
0001
0000
0100
0000
1000
0000
0100
0000
0010
0001
0100
0000
1000
0000
,
0001
0000
1000
0010
0001
1000
0001
0100
,
0010
0000
1000
0100
1000
0000
0100
0000
0001
0000
1000
0000
0010
0000
0001
0000
,
0100
1000
0001
0010
0001
0010
0100
0001
,
0100
0000
1000
0010
0001
0000
0100
0000
1000
0000
0010
0000
0001
0000
0100
0000
,
0010
0000
0100
0000
1000
0000
0001
0000
0100
0000
0010
1000
0001
0000
0100
0000
,
0010
0000
0001
0100
0010
1000
0010
0100
0001
0000
0100
0000
0010
0000
0100
0000
,
0001
0000
0110
0000
0001
0010
1000
0100
,
0001
0010
1000
0100
0001
0010
1000
0100
,
0001
0010
1000
0100
0001
0010
1000
0100
,
0001
0010
1000
0100
0001
0010
1000
0100
,
0001
0010
1000
0100
0010
0100
0010
0100
,
0010
0100
0010
0100
0010
0100
0010
0100
,
0010
0000
0100
0000
0010
0000
0100
0000
0001
1000
0001
1000
0001
1000
0001
1000
,
0001
1000
0001
1000
0001
1000
0001
1000
4004
0000
0000
0000
0000
0000
0000
0000
,
0000
0000
0000
0000
,
0000
0000
3003
0000
;

//--------------- dance-single - LNinja - almost same as challenge ----------------
#NOTES:
     dance-single:
     LNinja - almost same as challenge:
     Hard:
     18:
     0,0,0,0,0:
0000
0000
0000
0000
,
0000
0000
1001
0101
,
1000
0100
0010
0001
0100
0001
0000
1000
,
0100
0000
0110
0100
4004
0000
3003
0000
,
0000
0000
0000
0000
,
0000
0000
4004
3003
,
0000
0000
0000
0000
,
0000
0000
4004
3003
,
0000
0000
0000
0000
,
0000
0000
4004
3003
,
0000
0000
4004
3003
,
0040
0000
0000
0000
0000
0000
0000
0000
0000
0000
0000
0000
0030
0000
0000
0000
0000
0000
0000
0000
0000
0000
0000
0000
0000
0000
0000
0000
0000
0000
0000
0000
0000
0000
0000
0000
0400
0000
0000
0000
0000
0000
0000
0000
0000
0000
0000
0300
0200
0000
0000
0000
0000
0000
0000
0000
0000
0000
0000
0000
0300
0000
0000
0000
0000
0000
0000
0000
0000
0000
0000
0000
0002
0000
0000
0000
0000
0000
0000
0000
0000
0000
0000
0000
0003
0000
0000
0000
0000
0000
0000
0000
0000
0000
0000
0000
0001
0000
0000
0000
0000
0000
0000
0000
0000
0000
0000
0000
0100
0000
0000
0000
0000
0000
0000
0000
0000
0000
0000
0000
0001
0000
0000
0000
0000
0000
0000
0000
0000
0000
0000
0000
0100
0000
0000
0000
0000
0000
0000
0000
0000
0000
0000
0000
0001
0000
0000
0000
0000
0000
0000
0000
0000
0000
0000
0000
1000
0000
0000
0000
0000
0000
0000
0000
0000
0000
0000
0000
0010
0000
0000
0000
0000
0000
0000
0000
0000
0000
0000
0000
1000
0000
0000
0000
0000
0000
0000
0000
0000
0000
0000
0000
,
0001
0100
0001
0100
0001
0010
0100
0010
0100
0010
0001
1000
0001
0100
0001
0100
,
0010
0100
0010
1000
0010
0100
0000
0000
0010
1000
0010
1000
0010
0100
0001
0100
,
0001
0100
0010
1000
0001
1000
0000
0000
0100
1000
0100
0010
0100
0010
0001
1000
,
0001
1000
0100
1000
0100
0010
0001
0000
1000
0001
1000
0001
1000
0100
0010
0100
,
0010
0100
1000
0010
0100
0000
0000
0000
0010
1000
0010
0100
0010
0100
0001
0100
,
0001
0010
0001
0010
0100
0000
0000
0000
1010
0000
0000
0000
0011
0000
0000
0000
,
1001
0110
0101
1100
,
1010
0000
0000
0000
0010
0001
0010
0001
0101
0000
1000
0000
0100
0000
0001
0000
,
0100
0000
0001
0010
1000
0000
0001
0000
0100
0000
0010
0100
1000
0000
0100
0000
,
0101
0000
0000
0000
1010
0000
0001
0000
0010
0000
1000
0100
0001
0000
0100
0000
,
1010
0000
1000
0100
0001
0000
1000
0000
0110
0000
0001
0000
0100
0000
1000
0000
,
0100
0000
0001
0000
0011
0000
0100
0000
0010
0000
0001
0100
1000
0000
0010
0000
,
0001
0000
0010
1000
0100
0000
0001
0000
1000
0000
0010
0000
0001
0000
0100
0000
,
1000
0000
0100
0000
0011
0000
0100
0000
1000
0000
0100
0001
0010
0000
0100
0000
,
0010
0000
0001
0010
0100
1000
0100
0010
0001
0000
0100
0000
1000
0000
0010
0000
,
1001
0000
0110
0000
1000
0100
0010
0001
,
0010
0000
0100
1000
0100
0000
0010
0000
0001
0000
0010
0000
1000
0000
0100
0000
,
0001
0000
0100
0000
0010
0000
0001
0000
0010
0000
1000
0010
0100
0000
0001
0000
,
0010
0000
0001
0010
0100
0000
1000
0000
0101
0000
0010
0000
1100
0000
0010
0000
,
0011
0000
1001
0000
0010
0100
0001
0010
,
1000
0000
0100
0010
0001
0000
1000
0000
0011
0000
0100
0000
0010
0000
0001
0000
,
0010
0100
1001
0100
1001
0100
1000
0010
,
0001
1000
0010
0001
1010
0001
0100
1000
,
0001
0010
1000
0100
0202
0303
0022
0033
,
2020
3030
2002
3003
0220
0000
0300
0100
,
1030
0001
0100
1000
0200
0000
0000
0000
,
0300
0000
4004
3003
,
0000
0000
0000
0000
,
0000
0000
0404
0303
,
0000
0000
0000
0000
,
0000
0000
4400
3300
,
0000
0000
0000
0000
,
0000
0000
0440
0330
,
0000
0000
4040
3030
,
0400
0000
0000
0000
0000
0000
0000
0000
0000
0000
0000
0000
0300
0000
0000
0000
0000
0000
0000
0000
0000
0000
0000
0000
0000
0000
0000
0000
0000
0000
0000
0000
0000
0000
0000
0000
0040
0000
0000
0000
0000
0000
0000
0000
0000
0000
0000
0030
0020
0000
0000
0000
0000
0000
0000
0000
0000
0000
0000
0000
0030
0000
0000
0000
0000
0000
0000
0000
0000
0000
0000
0000
2000
0000
0000
0000
0000
0000
0000
0000
0000
0000
0000
0000
3000
0000
0000
0000
0000
0000
0000
0000
0000
0000
0000
0000
0100
0000
0000
0000
0000
0000
0000
0000
0000
0000
0000
0000
0010
0000
0000
0000
0000
0000
0000
0000
0000
0000
0000
0000
0001
0000
0000
0000
0000
0000
0000
0000
0000
0000
0000
0000
0010
0000
0000
0000
0000
0000
0000
0000
0000
0000
0000
0000
0100
0000
0000
0000
0000
0000
0000
0000
0000
0000
0000
0000
1000
0000
0000
0000
0000
0000
0000
0000
0000
0000
0000
0000
0100
0000
0000
0000
0000
0000
0000
0000
0000
0000
0000
0000
0010
0000
0000
0000
0000
0000
0000
0000
0000
0000
0000
0000
,
1001
0100
0010
0001
1000
0100
0010
0001
1000
0100
0010
0001
1000
0100
0010
0001
,
0000
0000
0000
0001
0100
0010
1000
0001
0100
0010
1000
0001
0100
0010
1000
0000
,
0000
0000
0001
0010
0100
1000
0001
0010
0100
1000
0001
0010
0100
1000
0001
0010
,
0100
1000
0000
0000
0000
0000
1010
0000
0000
1000
0010
0100
0001
1000
0010
0100
,
0001
1000
0010
0100
0001
1000
0010
0100
0004
0000
0003
0000
0000
0000
0000
0000
,
0110
1001
0101
1100
,
1001
0110
1010
0011
,
0101
0000
0000
0000
0100
1000
0100
1000
1010
0000
0001
0000
0010
0000
1000
0000
,
0010
0000
1000
0100
0001
0000
1000
0000
0010
0000
0100
0010
0001
0000
0010
0000
,
1010
0000
0000
0000
0101
0000
1000
0000
0100
0000
0001
0010
1000
0000
0010
0000
,
0101
0000
0001
0010
1000
0000
0001
0000
0110
0000
1000
0000
0010
0000
0001
0000
,
0010
0000
1000
0000
1100
0000
0010
0000
0100
0000
1000
0010
0001
0000
0100
0000
,
1000
0000
0100
0001
0010
0000
1000
0000
0001
0000
0100
0000
1000
0000
0010
0000
,
0001
0000
0010
0000
1100
0000
0010
0000
0001
0000
0010
1000
0100
0000
0010
0000
,
0100
0000
1000
0100
0010
0001
0010
0100
1000
0000
0010
0000
0001
0000
0100
0000
,
1001
0000
0110
0000
1100
0001
0100
1000
,
0100
0000
1000
0010
0001
0000
1000
0000
0100
0000
0010
0100
0001
0000
0100
0000
,
1100
0000
0000
0000
0011
0000
1000
0000
0010
0000
0001
0100
1000
0000
0100
0000
,
0011
0000
0001
0100
1000
0000
0001
0000
0110
0000
1000
0000
0100
0000
0001
0000
,
0100
0000
1000
0000
1010
0000
0100
0000
0010
0000
1000
0100
0001
0000
0010
0000
,
1000
0000
0010
0001
0100
0000
1000
0000
0001
0000
0010
0000
1000
0000
0100
0000
,
0001
0000
0100
0000
1010
0000
0100
0000
0001
0000
0100
1000
0010
0000
0100
0000
,
0010
0000
1000
0010
0100
0001
0100
0010
1000
0000
0100
0000
0001
0000
0010
0000
,
1001
0000
0110
0000
0011
1000
0010
0001
,
0010
0000
0001
0100
1000
0000
0001
0000
0010
0000
0100
0010
1000
0000
0010
0000
,
0011
0000
0000
0000
1100
0000
0001
0000
0100
0000
1000
0010
0001
0000
0010
0000
,
1100
0000
1000
0010
0001
0000
1000
0000
0110
0000
0001
0000
0010
0000
1000
0000
,
0010
0000
0001
0000
0101
0000
0010
0000
0100
0000
0001
0010
1000
0000
0100
0000
,
0001
0000
0100
1000
0010
0000
0001
0000
1000
0000
0100
0000
0001
0000
0010
0000
,
1000
0000
0010
0000
0101
0000
0010
0000
1000
0000
0010
0001
0100
0000
0010
0000
,
0100
0000
0001
0100
0010
1000
0010
0000
1001
0000
0000
0000
0101
0000
0000
0000
,
1010
0000
0110
0000
1100
0010
0100
1000
,
0100
0000
0001
1000
0100
0000
1000
0000
0100
0000
0010
0001
0100
0000
1000
0000
,
0011
0000
0000
0000
1100
0000
0010
0000
0001
0000
1000
0010
0001
0000
0001
0000
,
0110
0000
1000
0100
1000
0000
0100
0000
0011
0000
1000
0000
0010
0000
0001
0000
,
0100
0000
1000
0000
0101
0000
0010
0000
0001
0000
0010
0100
0010
0000
0001
0000
,
0100
0000
1000
0010
0001
0000
0100
0000
1000
0000
0010
0000
0001
0000
0100
0000
,
0010
0000
0100
0000
1010
0000
0001
0000
0100
0000
0010
1000
0001
0000
0100
0000
,
0010
0000
0001
0100
0010
1000
0010
0100
0001
0000
0100
0000
0010
0000
0100
0000
,
1001
0000
0101
0000
1001
0010
1001
0100
,
1001
0010
1001
0100
1001
0010
1001
0100
,
1001
0010
1001
0100
1001
0010
1001
0100
,
1001
0010
1001
0100
1001
0010
1001
0100
,
1001
0010
1001
0100
1001
1001
1001
1001
,
1001
1001
1001
1001
1001
1001
1001
1001
,
1001
0000
1001
0000
1001
0000
1001
0000
0010
0100
0010
0100
0010
0100
0010
0100
,
0010
0100
0010
0100
0010
0100
0010
0100
4004
0000
0000
0000
0000
0000
0000
0000
,
0000
0000
0000
0000
,
0000
0000
3003
0000
;

//--------------- dance-single - LNinja ----------------
#NOTES:
     dance-single:
     LNinja:
     Challenge:
     18:
     0,0,0,0,0:
0000
0000
0000
0000
,
0000
0000
1001
0101
,
1000
0100
0010
0001
0100
0001
0000
1000
,
0100
0000
0110
0100
4004
0000
3003
0000
,
0000
0000
0000
0000
,
0000
0000
4004
3003
,
0000
0000
0000
0000
,
0000
0000
4004
3003
,
0000
0000
0000
0000
,
0000
0000
4004
3003
,
0000
0000
4004
3003
,
0040
0000
0000
0000
0000
0000
0000
0000
0000
0000
0000
0000
0030
0000
0000
0000
0000
0000
0000
0000
0000
0000
0000
0000
0000
0000
0000
0000
0000
0000
0000
0000
0000
0000
0000
0000
0400
0000
0000
0000
0000
0000
0000
0000
0000
0000
0000
0300
0200
0000
0000
0000
0000
0000
0000
0000
0000
0000
0000
0000
0300
0000
0000
0000
0000
0000
0000
0000
0000
0000
0000
0000
0002
0000
0000
0000
0000
0000
0000
0000
0000
0000
0000
0000
0003
0000
0000
0000
0000
0000
0000
0000
0000
0000
0000
0000
0010
0000
0000
0000
0000
0000
0000
0000
0000
0000
0000
0000
0100
0000
0000
0000
0000
0000
0000
0000
0000
0000
0000
0000
0010
0000
0000
0000
0000
0000
0000
0000
0000
0000
0000
0000
1000
0000
0000
0000
0000
0000
0000
0000
0000
0000
0000
0000
0100
0000
0000
0000
0000
0000
0000
0000
0000
0000
0000
0000
1000
0000
0000
0000
0000
0000
0000
0000
0000
0000
0000
0000
0010
0000
0000
0000
0000
0000
0000
0000
0000
0000
0000
0000
0100
0000
0000
0000
0000
0000
0000
0000
0000
0000
0000
0000
,
0010
1000
0100
0010
0001
0010
0100
1000
0001
0010
0100
1000
0010
0100
0001
0100
,
0001
0010
0100
1000
0010
1000
0000
0000
0100
0010
0100
1000
0010
0100
0001
0010
,
0001
0100
0010
1000
0010
0100
0000
0000
0001
0010
0001
0100
0001
0010
0100
1000
,
0010
0100
0010
1000
0100
0010
0100
0000
0001
0010
0100
1000
0010
0100
0001
0100
,
0010
0100
0010
1000
0010
0000
0000
0000
0100
1000
0010
0100
0001
1000
0010
1000
,
0100
1000
0010
0100
0001
0000
0000
0000
1010
0000
0000
0000
0011
0000
0000
0000
,
1001
0110
0101
1100
,
1010
0000
0000
0000
0010
0001
0010
0001
0101
0000
1000
0000
0100
0000
0001
0000
,
0100
0000
0001
0010
1000
0000
0001
0000
0100
0000
0010
0100
1000
0000
0100
0000
,
0101
0000
0000
0000
1010
0000
0001
0000
0010
0000
1000
0100
0001
0000
0100
0000
,
1010
0000
1000
0100
0001
0000
1000
0000
0110
0000
0001
0000
0100
0000
1000
0000
,
0100
0000
0001
0000
0011
0000
0100
0000
0010
0000
0001
0100
1000
0000
0010
0000
,
0001
0000
0010
1000
0100
0000
0001
0000
1000
0000
0010
0000
0001
0000
0100
0000
,
1000
0000
0100
0000
0011
0000
0100
0000
1000
0000
0100
0001
0010
0000
0100
0000
,
0010
0000
0001
0010
0100
1000
0100
0010
0001
0000
0100
0000
1000
0000
0010
0000
,
1001
0000
0110
0000
1000
0100
0010
0001
,
0010
0000
0100
1000
0100
0000
0010
0000
0001
0000
0010
0000
1000
0000
0100
0000
,
0001
0000
0100
0000
0010
0000
0001
0000
0010
0000
1000
0010
0100
0000
0001
0000
,
0010
0000
0001
0010
0100
0000
1000
0000
0101
0000
0010
0000
1100
0000
0010
0000
,
0011
0000
1001
0000
0010
0100
0001
0010
,
1000
0000
0100
0010
0001
0000
1000
0000
0011
0000
0100
0000
0010
0000
0001
0000
,
0010
0100
1001
0100
1001
0100
1000
0010
,
0001
1000
0010
0001
1010
0001
0100
1000
,
0001
0010
1000
0100
0202
0303
0022
0033
,
2020
3030
2002
3003
0220
0000
0300
0100
,
1030
0001
0100
1000
0200
0000
0000
0000
,
0300
0000
4004
3003
,
0000
0000
0000
0000
,
0000
0000
0404
0303
,
0000
0000
0000
0000
,
0000
0000
4400
3300
,
0000
0000
0000
0000
,
0000
0000
0440
0330
,
0000
0000
4040
3030
,
0400
0000
0000
0000
0000
0000
0000
0000
0000
0000
0000
0000
0300
0000
0000
0000
0000
0000
0000
0000
0000
0000
0000
0000
0000
0000
0000
0000
0000
0000
0000
0000
0000
0000
0000
0000
0040
0000
0000
0000
0000
0000
0000
0000
0000
0000
0000
0030
0020
0000
0000
0000
0000
0000
0000
0000
0000
0000
0000
0000
0030
0000
0000
0000
0000
0000
0000
0000
0000
0000
0000
0000
2000
0000
0000
0000
0000
0000
0000
0000
0000
0000
0000
0000
3000
0000
0000
0000
0000
0000
0000
0000
0000
0000
0000
0000
0100
0000
0000
0000
0000
0000
0000
0000
0000
0000
0000
0000
0010
0000
0000
0000
0000
0000
0000
0000
0000
0000
0000
0000
0001
0000
0000
0000
0000
0000
0000
0000
0000
0000
0000
0000
0010
0000
0000
0000
0000
0000
0000
0000
0000
0000
0000
0000
0100
0000
0000
0000
0000
0000
0000
0000
0000
0000
0000
0000
1000
0000
0000
0000
0000
0000
0000
0000
0000
0000
0000
0000
0100
0000
0000
0000
0000
0000
0000
0000
0000
0000
0000
0000
0010
0000
0000
0000
0000
0000
0000
0000
0000
0000
0000
0000
,
1001
0100
0010
0001
1000
0100
0010
0001
1000
0100
0010
0001
1000
0100
0010
0001
,
0000
0000
0000
0001
0100
0010
1000
0001
0100
0010
1000
0001
0100
0010
1000
0000
,
0000
0000
0001
0010
0100
1000
0001
0010
0100
1000
0001
0010
0100
1000
0001
0010
,
0100
1000
0000
0000
0000
0000
1010
0000
0000
1000
0010
0100
0001
1000
0010
0100
,
0001
1000
0010
0100
0001
1000
0010
0100
0004
0000
0003
0000
0000
0000
0000
0000
,
0110
1001
0101
1100
,
1001
0110
1010
0011
,
0101
0000
0000
0000
0100
1000
0100
1000
1010
0000
0001
0000
0010
0000
1000
0000
,
0010
0000
1000
0100
0001
0000
1000
0000
0010
0000
0100
0010
0001
0000
0010
0000
,
1010
0000
0000
0000
0101
0000
1000
0000
0100
0000
0001
0010
1000
0000
0010
0000
,
0101
0000
0001
0010
1000
0000
0001
0000
0110
0000
1000
0000
0010
0000
0001
0000
,
0010
0000
1000
0000
1100
0000
0010
0000
0100
0000
1000
0010
0001
0000
0100
0000
,
1000
0000
0100
0001
0010
0000
1000
0000
0001
0000
0100
0000
1000
0000
0010
0000
,
0001
0000
0010
0000
1100
0000
0010
0000
0001
0000
0010
1000
0100
0000
0010
0000
,
0100
0000
1000
0100
0010
0001
0010
0100
1000
0000
0010
0000
0001
0000
0100
0000
,
1001
0000
0110
0000
1100
0001
0100
1000
,
0100
0000
1000
0010
0001
0000
1000
0000
0100
0000
0010
0100
0001
0000
0100
0000
,
1100
0000
0000
0000
0011
0000
1000
0000
0010
0000
0001
0100
1000
0000
0100
0000
,
0011
0000
0001
0100
1000
0000
0001
0000
0110
0000
1000
0000
0100
0000
0001
0000
,
0100
0000
1000
0000
1010
0000
0100
0000
0010
0000
1000
0100
0001
0000
0010
0000
,
1000
0000
0010
0001
0100
0000
1000
0000
0001
0000
0010
0000
1000
0000
0100
0000
,
0001
0000
0100
0000
1010
0000
0100
0000
0001
0000
0100
1000
0010
0000
0100
0000
,
0010
0000
1000
0010
0100
0001
0100
0010
1000
0000
0100
0000
0001
0000
0010
0000
,
1001
0000
0110
0000
0011
1000
0010
0001
,
0010
0000
0001
0100
1000
0000
0001
0000
0010
0000
0100
0010
1000
0000
0010
0000
,
0011
0000
0000
0000
1100
0000
0001
0000
0100
0000
1000
0010
0001
0000
0010
0000
,
1100
0000
1000
0010
0001
0000
1000
0000
0110
0000
0001
0000
0010
0000
1000
0000
,
0010
0000
0001
0000
0101
0000
0010
0000
0100
0000
0001
0010
1000
0000
0100
0000
,
0001
0000
0100
1000
0010
0000
0001
0000
1000
0000
0100
0000
0001
0000
0010
0000
,
1000
0000
0010
0000
0101
0000
0010
0000
1000
0000
0010
0001
0100
0000
0010
0000
,
0100
0000
0001
0100
0010
1000
0010
0000
1001
0000
0000
0000
0101
0000
0000
0000
,
1010
0000
0110
0000
1100
0010
0100
1000
,
0100
0000
0001
1000
0100
0000
1000
0000
0100
0000
0010
0001
0100
0000
1000
0000
,
0011
0000
0000
0000
1100
0000
0010
0000
0001
0000
1000
0010
0001
0000
0001
0000
,
0110
0000
1000
0100
1000
0000
0100
0000
0011
0000
1000
0000
0010
0000
0001
0000
,
0100
0000
1000
0000
0101
0000
0010
0000
0001
0000
0010
0100
0010
0000
0001
0000
,
0100
0000
1000
0010
0001
0000
0100
0000
1000
0000
0010
0000
0001
0000
0100
0000
,
0010
0000
0100
0000
1010
0000
0001
0000
0100
0000
0010
1000
0001
0000
0100
0000
,
0010
0000
0001
0100
0010
1000
0010
0100
0001
0000
0100
0000
0010
0000
0100
0000
,
1001
0000
0101
0000
1001
0010
1001
0100
,
1001
0010
1001
0100
1001
0010
1001
0100
,
1001
0010
1001
0100
1001
0010
1001
0100
,
1001
0010
1001
0100
1001
0010
1001
0100
,
1001
0010
1001
0100
1001
1001
1001
1001
,
1001
1001
1001
1001
1001
1001
1001
1001
,
1001
0000
1001
0000
1001
0000
1001
0000
0010
0100
0010
0100
0010
0100
0010
0100
,
0010
0100
0010
0100
0010
0100
0010
0100
4004
0000
0000
0000
0000
0000
0000
0000
,
0000
0000
0000
0000
,
0000
0000
3003
0000
;

//--------------- dance-single - LNinja - this is cancer I think ----------------
#NOTES:
     dance-single:
     LNinja - this is cancer I think:
     Edit:
     18:
     0,0,0,0,0:
0000
0000
0000
0000
,
0000
0000
1001
0101
,
1000
0100
0010
0001
0100
0001
0000
1000
,
0100
0000
0110
0100
4004
0000
3003
0000
,
0000
0000
0000
0000
,
0000
0000
4004
3003
,
0000
0000
0000
0000
,
0000
0000
4004
3003
,
0000
0000
0000
0000
,
0000
0000
4004
3003
,
0000
0000
4004
3003
,
0040
0000
0000
0000
0000
0000
0000
0000
0000
0000
0000
0000
0030
0000
0000
0000
0000
0000
0000
0000
0000
0000
0000
0000
0000
0000
0000
0000
0000
0000
0000
0000
0000
0000
0000
0000
0400
0000
0000
0000
0000
0000
0000
0000
0000
0000
0000
0300
0200
0000
0000
0000
0000
0000
0000
0000
0000
0000
0000
0000
0300
0000
0000
0000
0000
0000
0000
0000
0000
0000
0000
0000
0002
0000
0000
0000
0000
0000
0000
0000
0000
0000
0000
0000
0003
0000
0000
0000
0000
0000
0000
0000
0000
0000
0000
0000
0010
0000
0000
0000
0000
0000
0000
0000
0000
0000
0000
0000
0100
0000
0000
0000
0000
0000
0000
0000
0000
0000
0000
0000
0010
0000
0000
0000
0000
0000
0000
0000
0000
0000
0000
0000
1000
0000
0000
0000
0000
0000
0000
0000
0000
0000
0000
0000
0100
0000
0000
0000
0000
0000
0000
0000
0000
0000
0000
0000
1000
0000
0000
0000
0000
0000
0000
0000
0000
0000
0000
0000
0010
0000
0000
0000
0000
0000
0000
0000
0000
0000
0000
0000
0100
0000
0000
0000
0000
0000
0000
0000
0000
0000
0000
0000
,
0010
1000
0100
0010
0001
0010
0100
1000
0001
0010
0100
1000
0010
0100
0001
0100
,
0001
0010
0100
1000
0010
1000
0000
0000
0100
0010
0100
1000
0010
0100
0001
0010
,
0001
0100
0010
1000
0010
0100
0000
0000
0001
0010
0001
0100
0001
0010
0100
1000
,
0010
0100
0010
1000
0100
0010
0100
0000
0001
0010
0100
1000
0010
0100
0001
0100
,
0010
0100
0010
1000
0010
0000
0000
0000
0100
1000
0010
0100
0001
1000
0010
1000
,
0100
1000
0010
0100
0001
0000
0000
0000
1010
0000
0000
0000
0011
0000
0000
0000
,
1001
0110
0101
1100
,
1010
0000
0000
0000
0010
0001
0010
0001
0101
0000
1000
0000
0100
0000
0001
0000
,
0100
0000
0001
0010
1000
0000
0001
0000
0100
0000
0010
0100
1000
0000
0100
0000
,
0101
0000
0000
0000
1010
0000
0001
0000
0010
0000
1000
0100
0001
0000
0100
0000
,
1010
0000
1000
0100
0001
0000
1000
0000
0110
0000
0001
0000
0100
0000
1000
0000
,
0100
0000
0001
0000
0011
0000
0100
0000
0010
0000
0001
0100
1000
0000
0010
0000
,
0001
0000
0010
1000
0100
0000
0001
0000
1000
0000
0010
0000
0001
0000
0100
0000
,
1000
0000
0100
0000
0011
0000
0100
0000
1000
0000
0100
0001
0010
0000
0100
0000
,
0010
0000
0001
0010
0100
1000
0100
0010
0001
0000
0100
0000
1000
0000
0010
0000
,
1001
0000
0110
0000
1000
0100
0010
0001
,
0010
0000
0100
1000
0100
0000
0010
0000
0001
0000
0010
0000
1000
0000
0100
0000
,
0001
0000
0100
0000
0010
0000
0001
0000
0010
0000
1000
0010
0100
0000
0001
0000
,
0010
0000
0001
0010
0100
0000
1000
0000
0101
0000
0010
0000
1100
0000
0010
0000
,
0011
0000
1001
0000
0010
0100
0001
0010
,
1000
0000
0100
0010
0001
0000
1000
0000
0011
0000
0100
0000
0010
0000
0001
0000
,
0010
0100
1001
0100
1001
0100
1000
0010
,
0001
1000
0010
0001
1010
0001
0100
1000
,
0001
0010
1000
0100
0202
0303
0022
0033
,
2020
3030
2002
3003
0220
0000
0300
0100
,
1030
0001
0100
1000
0200
0000
0000
0000
,
0300
0000
4004
3003
,
0000
0000
0000
0000
,
0000
0000
0404
0303
,
0000
0000
0000
0000
,
0000
0000
4400
3300
,
0000
0000
0000
0000
,
0000
0000
0440
0330
,
0000
0000
4040
3030
,
0400
0000
0000
0000
0000
0000
0000
0000
0000
0000
0000
0000
0300
0000
0000
0000
0000
0000
0000
0000
0000
0000
0000
0000
0000
0000
0000
0000
0000
0000
0000
0000
0000
0000
0000
0000
0040
0000
0000
0000
0000
0000
0000
0000
0000
0000
0000
0030
0020
0000
0000
0000
0000
0000
0000
0000
0000
0000
0000
0000
0030
0000
0000
0000
0000
0000
0000
0000
0000
0000
0000
0000
2000
0000
0000
0000
0000
0000
0000
0000
0000
0000
0000
0000
3000
0000
0000
0000
0000
0000
0000
0000
0000
0000
0000
0000
0100
0000
0000
0000
0000
0000
0000
0000
0000
0000
0000
0000
0010
0000
0000
0000
0000
0000
0000
0000
0000
0000
0000
0000
0001
0000
0000
0000
0000
0000
0000
0000
0000
0000
0000
0000
0010
0000
0000
0000
0000
0000
0000
0000
0000
0000
0000
0000
0100
0000
0000
0000
0000
0000
0000
0000
0000
0000
0000
0000
1000
0000
0000
0000
0000
0000
0000
0000
0000
0000
0000
0000
0100
0000
0000
0000
0000
0000
0000
0000
0000
0000
0000
0000
0010
0000
0000
0000
0000
0000
0000
0000
0000
0000
0000
0000
,
1001
0100
0010
0001
1000
0100
0010
0001
1000
0100
0010
0001
1000
0100
0010
0001
,
0000
0000
0000
0001
0100
0010
1000
0001
0100
0010
1000
0001
0100
0010
1000
0000
,
0000
0000
0001
0010
0100
1000
0001
0010
0100
1000
0001
0010
0100
1000
0001
0010
,
0100
1000
0000
0000
0000
0000
1010
0000
0000
1000
0010
0100
0001
1000
0010
0100
,
0001
1000
0010
0100
0001
1000
0010
0100
0004
0000
0003
0000
0000
0000
0000
0000
,
0110
1001
0101
1100
,
1001
0110
1010
0011
,
0101
0000
0000
0000
0100
1000
0100
1000
1010
0000
0001
0000
0010
0000
1000
0000
,
0010
0000
1000
0100
0001
0000
1000
0000
0010
0000
0100
0010
0001
0000
0010
0000
,
1010
0000
0000
0000
0101
0000
1000
0000
0100
0000
0001
0010
1000
0000
0010
0000
,
0101
0000
0001
0010
1000
0000
0001
0000
0110
0000
1000
0000
0010
0000
0001
0000
,
0010
0000
1000
0000
1100
0000
0010
0000
0100
0000
1000
0010
0001
0000
0100
0000
,
1000
0000
0100
0001
0010
0000
1000
0000
0001
0000
0100
0000
1000
0000
0010
0000
,
0001
0000
0010
0000
1100
0000
0010
0000
0001
0000
0010
1000
0100
0000
0010
0000
,
0100
0000
1000
0100
0010
0001
0010
0100
1000
0000
0010
0000
0001
0000
0100
0000
,
1001
0000
0110
0000
1100
0001
0100
1000
,
0100
0000
1000
0010
0001
0000
1000
0000
0100
0000
0010
0100
0001
0000
0100
0000
,
1100
0000
0000
0000
0011
0000
1000
0000
0010
0000
0001
0100
1000
0000
0100
0000
,
0011
0000
0001
0100
1000
0000
0001
0000
0110
0000
1000
0000
0100
0000
0001
0000
,
0100
0000
1000
0000
1010
0000
0100
0000
0010
0000
1000
0100
0001
0000
0010
0000
,
1000
0000
0010
0001
0100
0000
1000
0000
0001
0000
0010
0000
1000
0000
0100
0000
,
0001
0000
0100
0000
1010
0000
0100
0000
0001
0000
0100
1000
0010
0000
0100
0000
,
0010
0000
1000
0010
0100
0001
0100
0010
1000
0000
0100
0000
0001
0000
0010
0000
,
1001
0000
0110
0000
0011
1000
0010
0001
,
0010
0000
0001
0100
1000
0000
0001
0000
0010
0000
0100
0010
1000
0000
0010
0000
,
0011
0000
0000
0000
1100
0000
0001
0000
0100
0000
1000
0010
0001
0000
0010
0000
,
1100
0000
1000
0010
0001
0000
1000
0000
0110
0000
0001
0000
0010
0000
1000
0000
,
0010
0000
0001
0000
0101
0000
0010
0000
0100
0000
0001
0010
1000
0000
0100
0000
,
0001
0000
0100
1000
0010
0000
0001
0000
1000
0000
0100
0000
0001
0000
0010
0000
,
1000
0000
0010
0000
0101
0000
0010
0000
1000
0000
0010
0001
0100
0000
0010
0000
,
0100
0000
0001
0100
0010
1000
0010
0000
1001
0000
0000
0000
0101
0000
0000
0000
,
1010
0000
0110
0000
1100
0010
0100
1000
,
0100
0000
0001
1000
0100
0000
1000
0000
0100
0000
0010
0001
0100
0000
1000
0000
,
0011
0000
0000
0000
1100
0000
0010
0000
0001
0000
1000
0010
0001
0000
0001
0000
,
0110
0000
1000
0100
1000
0000
0100
0000
0011
0000
1000
0000
0010
0000
0001
0000
,
0100
0000
1000
0000
0101
0000
0010
0000
0001
0000
0010
0100
0010
0000
0001
0000
,
0100
0000
1000
0010
0001
0000
0100
0000
1000
0000
0010
0000
0001
0000
0100
0000
,
0010
0000
0100
0000
1010
0000
0001
0000
0100
0000
0010
1000
0001
0000
0100
0000
,
0010
0000
0001
0100
0010
1000
0010
0100
0001
0000
0100
0000
0010
0000
0100
0000
,
1001
0000
0101
0000
1001
0010
1001
0100
,
1001
0010
1001
0100
1001
0010
1001
0100
,
1001
0010
1001
0100
1001
0010
1001
0100
,
1001
0010
1001
0100
1001
0010
1001
0100
,
1001
0010
1001
0100
1001
1001
1001
1001
,
1001
1001
1001
1001
1001
1001
1001
1001
,
1001
0000
1001
0000
1001
0000
1001
0000
0100
0010
0001
0100
0001
0010
0100
0010
,
0001
0010
0100
1000
0010
0100
0010
0100
4004
0000
0000
0000
0000
0000
0000
0000
,
0000
0000
0000
0000
,
0000
0000
3003
0000
;

//--------------- dance-single - LNinja - f the voice line and the end ----------------
#NOTES:
     dance-single:
     LNinja - f the voice line and the end:
     Edit:
     19:
     0,0,0,0,0:
0000
0000
0000
0000
,
0000
0000
1001
0101
,
1000
0100
0010
0001
0100
0001
0000
1000
,
0100
0000
0110
0100
4004
0000
3003
0000
,
0000
0000
0000
0000
,
0000
0000
4004
3003
,
0000
0000
0000
0000
,
0000
0000
4004
3003
,
0000
0000
0000
0000
,
0000
0000
4004
3003
,
0000
0000
4004
3003
,
0040
0000
0000
0000
0000
0000
0000
0000
0000
0000
0000
0000
0030
0000
0000
0000
0000
0000
0000
0000
0000
0000
0000
0000
0000
0000
0000
0000
0000
0000
0000
0000
0000
0000
0000
0000
0400
0000
0000
0000
0000
0000
0000
0000
0000
0000
0000
0300
0200
0000
0000
0000
0000
0000
0000
0000
0000
0000
0000
0000
0300
0000
0000
0000
0000
0000
0000
0000
0000
0000
0000
0000
0002
0000
0000
0000
0000
0000
0000
0000
0000
0000
0000
0000
0003
0000
0000
0000
0000
0000
0000
0000
0000
0000
0000
0000
0010
0000
0000
0000
0000
0000
0000
0000
0000
0000
0000
0000
0100
0000
0000
0000
0000
0000
0000
0000
0000
0000
0000
0000
0010
0000
0000
0000
0000
0000
0000
0000
0000
0000
0000
0000
1000
0000
0000
0000
0000
0000
0000
0000
0000
0000
0000
0000
0100
0000
0000
0000
0000
0000
0000
0000
0000
0000
0000
0000
1000
0000
0000
0000
0000
0000
0000
0000
0000
0000
0000
0000
0010
0000
0000
0000
0000
0000
0000
0000
0000
0000
0000
0000
0100
0000
0000
0000
0000
0000
0000
0000
0000
0000
0000
0000
,
0010
1000
0100
0010
0001
0010
0100
1000
0001
0010
0100
1000
0010
0100
0001
0100
,
0001
0010
0100
1000
0010
1000
0000
0000
0100
0010
0100
1000
0010
0100
0001
0010
,
0001
0100
0010
1000
0010
0100
0000
0000
0001
0010
0001
0100
0001
0010
0100
1000
,
0010
0100
0010
1000
0100
0010
0100
0000
0001
0010
0100
1000
0010
0100
0001
0100
,
0010
0100
0010
1000
0010
0000
0000
0000
0100
1000
0010
0100
0001
1000
0010
1000
,
0100
1000
0010
0100
0001
0000
0000
0000
1010
0000
0000
0000
0011
0000
0000
0000
,
1001
0110
0101
1100
,
1010
0000
0000
0000
0010
0001
0010
0001
0101
0000
1000
0000
0100
0000
0001
0000
,
0100
0000
0001
0010
1000
0000
0001
0000
0100
0000
0010
0100
1000
0000
0100
0000
,
0101
0000
0000
0000
1010
0000
0001
0000
0010
0000
1000
0100
0001
0000
0100
0000
,
1010
0000
1000
0100
0001
0000
1000
0000
0110
0000
0001
0000
0100
0000
1000
0000
,
0100
0000
0001
0000
0011
0000
0100
0000
0010
0000
0001
0100
1000
0000
0010
0000
,
0001
0000
0010
1000
0100
0000
0001
0000
1000
0000
0010
0000
0001
0000
0100
0000
,
1000
0000
0100
0000
0011
0000
0100
0000
1000
0000
0100
0001
0010
0000
0100
0000
,
0010
0000
0001
0010
0100
1000
0100
0010
0001
0000
0100
0000
1000
0000
0010
0000
,
1001
0000
0110
0000
1000
0100
0010
0001
,
0010
0000
0100
1000
0100
0000
0010
0000
0001
0000
0010
0000
1000
0000
0100
0000
,
0001
0000
0100
0000
0010
0000
0001
0000
0010
0000
1000
0010
0100
0000
0001
0000
,
0010
0000
0001
0010
0100
0000
1000
0000
0101
0000
0010
0000
1100
0000
0010
0000
,
0011
0000
1001
0000
0010
0100
0001
0010
,
1000
0000
0100
0010
0001
0000
1000
0000
0011
0000
0100
0000
0010
0000
0001
0000
,
0010
0100
1001
0100
1001
0100
1000
0010
,
0001
1000
0010
0001
1010
0001
0100
1000
,
0001
0010
1000
0100
0202
0303
0022
0033
,
2020
3030
2002
3003
0220
0000
0300
0100
,
1030
0001
0100
1000
0200
0000
0000
0000
,
0300
0000
4004
3003
,
0000
0000
0000
0000
,
0000
0000
0404
0303
,
0000
0000
0000
0000
,
0000
0000
4400
3300
,
0000
0000
0000
0000
,
0000
0000
0440
0330
,
0000
0000
4040
3030
,
0400
0000
0000
0000
0000
0000
0000
0000
0000
0000
0000
0000
0300
0000
0000
0000
0000
0000
0000
0000
0000
0000
0000
0000
0000
0000
0000
0000
0000
0000
0000
0000
0000
0000
0000
0000
0040
0000
0000
0000
0000
0000
0000
0000
0000
0000
0000
0030
0020
0000
0000
0000
0000
0000
0000
0000
0000
0000
0000
0000
0030
0000
0000
0000
0000
0000
0000
0000
0000
0000
0000
0000
2000
0000
0000
0000
0000
0000
0000
0000
0000
0000
0000
0000
3000
0000
0000
0000
0000
0000
0000
0000
0000
0000
0000
0000
0100
0000
0000
0000
0000
0000
0000
0000
0000
0000
0000
0000
0010
0000
0000
0000
0000
0000
0000
0000
0000
0000
0000
0000
0001
0000
0000
0000
0000
0000
0000
0000
0000
0000
0000
0000
0010
0000
0000
0000
0000
0000
0000
0000
0000
0000
0000
0000
0100
0000
0000
0000
0000
0000
0000
0000
0000
0000
0000
0000
1000
0000
0000
0000
0000
0000
0000
0000
0000
0000
0000
0000
0100
0000
0000
0000
0000
0000
0000
0000
0000
0000
0000
0000
0010
0000
0000
0000
0000
0000
0000
0000
0000
0000
0000
0000
,
1001
0100
0010
0001
1000
0100
0010
0001
1000
0100
0010
0001
1000
0100
0010
0001
,
0000
0000
0000
0001
0100
0010
1000
0001
0100
0010
1000
0001
0100
0010
1000
0000
,
0000
0000
0001
0010
0100
1000
0001
0010
0100
1000
0001
0010
0100
1000
0001
0010
,
0100
1000
0000
0000
0000
0000
1010
0000
0000
1000
0010
0100
0001
1000
0010
0100
,
0001
1000
0010
0100
0001
1000
0010
0100
0004
0000
0003
0000
0000
0000
0000
0000
,
0110
1001
0101
1100
,
1001
0110
1010
0011
,
0101
0000
0000
0000
0100
1000
0100
1000
1010
0000
0001
0000
0010
0000
1000
0000
,
0010
0000
1000
0100
0001
0000
1000
0000
0010
0000
0100
0010
0001
0000
0010
0000
,
1010
0000
0000
0000
0101
0000
1000
0000
0100
0000
0001
0010
1000
0000
0010
0000
,
0101
0000
0001
0010
1000
0000
0001
0000
0110
0000
1000
0000
0010
0000
0001
0000
,
0010
0000
1000
0000
1100
0000
0010
0000
0100
0000
1000
0010
0001
0000
0100
0000
,
1000
0000
0100
0001
0010
0000
1000
0000
0001
0000
0100
0000
1000
0000
0010
0000
,
0001
0000
0010
0000
1100
0000
0010
0000
0001
0000
0010
1000
0100
0000
0010
0000
,
0100
0000
1000
0100
0010
0001
0010
0100
1000
0000
0010
0000
0001
0000
0100
0000
,
1001
0000
0110
0000
1100
0001
0100
1000
,
0100
0000
1000
0010
0001
0000
1000
0000
0100
0000
0010
0100
0001
0000
0100
0000
,
1100
0000
0000
0000
0011
0000
1000
0000
0010
0000
0001
0100
1000
0000
0100
0000
,
0011
0000
0001
0100
1000
0000
0001
0000
0110
0000
1000
0000
0100
0000
0001
0000
,
0100
0000
1000
0000
1010
0000
0100
0000
0010
0000
1000
0100
0001
0000
0010
0000
,
1000
0000
0010
0001
0100
0000
1000
0000
0001
0000
0010
0000
1000
0000
0100
0000
,
0001
0000
0100
0000
1010
0000
0100
0000
0001
0000
0100
1000
0010
0000
0100
0000
,
0010
0000
1000
0010
0100
0001
0100
0010
1000
0000
0100
0000
0001
0000
0010
0000
,
1001
0000
0000
0000
0000
0000
0000
0000
0110
0000
0000
0000
0000
0000
0000
0000
0001
0010
0100
0000
0000
0000
0000
1000
0000
0000
0000
0000
0000
0000
0000
0000
,
0000
0010
0000
0000
0000
0100
0000
0000
0000
0001
0000
0000
0000
0000
0000
0000
0000
0100
0000
0000
0000
0010
0000
0100
1000
0000
0100
0000
0000
0010
0000
0000
,
0000
0001
0000
0000
0000
0000
0000
0000
0000
0010
0000
0000
0000
0100
0000
0000
0000
0001
0000
0000
0000
0100
0000
0000
0000
1000
0000
0000
0000
0010
0000
0000
,
0000
0001
0000
0000
0100
0000
0000
0000
1000
0000
0000
0000
0000
0000
0000
0000
0000
0100
0000
0000
0000
0010
0000
0000
0001
0000
0000
0000
0100
0000
0000
0000
,
0000
1000
0000
0000
0000
0010
0000
0000
0000
0010
0000
0000
0000
0001
0000
0000
0000
1000
0010
0000
0000
0001
0000
0000
0000
0000
0000
0000
0000
0000
0000
0000
,
0000
1000
0000
0000
0100
0000
0000
0001
0000
0000
0000
0000
0000
0000
0000
0000
0000
0010
0000
0000
0100
0000
0010
0000
1000
0000
0000
0100
0000
0000
0100
0000
,
0001
0000
0000
0010
0000
0000
0100
0000
1000
0000
0000
0100
0000
0010
0000
0001
0010
0000
0000
0000
0000
0000
0000
0000
0000
0000
0000
0000
0000
0000
0000
0000
,
0010
0000
0100
0000
0000
0001
0000
0000
0000
0000
0010
0100
1000
0000
0000
0000
0101
0000
0000
0000
0000
0000
0000
0000
1010
0000
0000
0000
0000
0000
0000
0000
,
0011
0000
0000
0000
0000
0000
0000
0000
1000
0100
0000
0000
0001
0000
0000
0000
,
0010
0000
0000
0000
1000
0000
0000
0000
0100
0000
0000
0000
0000
0000
0000
0000
1000
0000
0000
0010
0000
0100
0000
0000
0001
0000
0000
0000
0010
0000
1000
0000
,
0000
0000
0110
0000
0000
0000
0000
0000
0101
0000
0000
0010
0000
0000
0000
0000
0000
0000
1000
0000
0000
0000
0010
0000
0000
0000
1000
0000
0000
0000
0100
0000
,
0000
0000
0001
0000
0000
0000
0001
0000
0100
0000
1000
0000
0000
0000
0000
0000
0000
0100
0000
0000
0000
0001
0000
0000
0000
0100
0000
0000
0000
0001
0000
0000
,
0000
1000
0000
0100
0000
0000
0010
0000
0000
0000
1000
0000
0000
0000
0001
0000
0000
0010
0000
1000
0000
0100
0000
0000
0000
0000
0001
0000
0000
0000
0000
0000
,
0000
0000
0000
0000
,
0000
0000
0000
0000
,
0000
0000
0000
0000
,
0000
0000
0000
0000
,
0000
0000
0000
0000
,
0000
0000
0000
0000
,
0000
0000
0000
0000
,
0000
0000
0000
0000
,
0000
0000
0000
0000
,
0000
0000
0000
0000
0000
0000
0000
0000
0100
0010
0001
0100
0001
0010
0100
0010
,
0001
0000
0010
0000
0100
0000
1000
0000
0010
0000
0100
0000
0010
0000
0100
0000
0010
0100
0001
0010
0001
1000
0100
0010
0001
0100
0010
0100
0001
0100
0010
1000
,
0010
1000
0100
1000
0010
0100
0001
1000
0100
0010
0001
0010
0001
0100
0010
1000
0001
0100
0001
0010
0100
0010
0001
1000
0100
0010
0001
0010
0100
1000
0001
1000
,
0100
1000
0010
0100
0001
0100
0010
0100
0001
0010
0001
0100
0010
1000
0010
0100
0001
0000
0000
0000
0000
0000
0000
0000
0000
0000
0000
0000
0000
0000
0000
0000
;
