#VERSION:0.83;
#TITLE:GOODRUSH Remix - short ver;
#SUBTITLE:EBIMAYO;
#ARTIST:Turbo;
#TITLETRANSLIT:;
#SUBTITLETRANSLIT:;
#ARTISTTRANSLIT:;
#GENRE:;
#CREDIT:EBIMAYO;
#MUSIC:GOODRUSH Remix - short ver.ogg;
#BANNER:GOODRUSH - Turbo Remix-bn.png;
#BACKGROUND:GOODRUSH - Turbo Remix-bg.png;
#CDTITLE:cdtitlelninja.png;
#SAMPLESTART:35.458;
#SAMPLELENGTH:12.000;
#SELECTABLE:YES;
#OFFSET:-0.068;
#BPMS:0.000=170.000;
#STOPS:;
#SPEEDS:0.000=1.000=0.000=0;
#SCROLLS:0.000=1.000;
#TICKCOUNTS:0.000=4;
#TIMESIGNATURES:0.000=4=4;
#LABELS:0.000=Song Start;
#COMBOS:0.000=1;
#ORIGIN:;
#PREVIEWVID:;
#JACKET:GOODRUSH - Turbo Remix-jacket.png;
#CDIMAGE:;
#DISCIMAGE:;
#BGCHANGES:1.313=GOODRUSH-Turbo-Remix.avi=1.000=0=0=1,
99999.000=-nosongbg-=1.000=0=0=0=StretchNoLoop====
;
#FGCHANGES:;

//--------------- dance-single - ----------------
#NOTEDATA:;
#STEPSTYPE:dance-single;
#DESCRIPTION:;
#DIFFICULTY:Challenge;
#METER:17;
#RADARVALUES:0.275982,0.482464,0.01553,0.13666,0.318356,622,617,5,44,0,1,1,0,0,0.275982,0.482464,0.01553,0.13666,0.318356,622,617,5,44,0,1,1,0,0;
#CHARTNAME:;
#CHARTSTYLE:;
#CREDIT:LNinjaPlayer;
#NOTES:
0000
0000
0000
0000
0010
0000
0000
0000
0100
0000
0000
0000
0001
0000
0000
0010
,
0000
0000
0000
0000
0100
0000
0000
0000
0010
0000
0000
0000
0100
0000
0000
0010
,
0000
0000
0010
0000
0100
0000
0001
0010
0100
1000
0100
2000
0000
3001
0100
0010
,
0100
0001
1000
0010
0100
0000
0000
0000
0100
0000
0000
0000
0010
0000
0000
0100
,
0000
0000
0010
0000
0010
0000
0000
0000
0100
0000
0000
0000
0001
0000
0000
0010
,
0000
0000
0000
0000
0100
0000
0000
0000
0010
0000
0000
0000
0100
0000
0000
0010
,
0000
0000
0010
0000
0100
0000
0001
0010
0100
1000
0100
2000
0000
3001
0100
0010
,
0100
0001
1000
0010
0100
0000
0001
0010
0100
1000
0100
0010
0100
0010
0100
1000
,
0001
0100
0001
0100
0010
0000
0000
0000
0100
0000
0000
0000
0001
0000
0000
0010
,
0000
0000
0000
0000
0100
0000
0000
0000
0010
0000
0000
0000
0100
0000
0000
0010
,
0000
0000
0010
0000
0100
0000
0001
0010
0100
1000
0100
2000
0000
3001
0100
0010
,
0100
0001
1000
0010
0100
0000
0000
0000
0100
0000
0000
0000
0010
0000
0000
0100
,
0000
0000
0010
0000
0100
0000
0000
0000
0010
0000
0000
0000
0001
0000
0000
0010
,
0000
0000
0100
0000
0001
0000
0000
0000
0010
0000
0000
0000
0001
0000
0000
0100
,
0000
0000
0010
0000
0100
0000
0001
0010
0100
1000
0100
2000
0000
3001
1000
0001
,
0100
0010
1000
0100
0010
0000
0000
0000
0010
0000
0000
0000
0100
0000
0000
0010
,
0000
0000
0000
0000
0010
0000
0000
0000
0100
0000
0000
0000
0001
0000
0000
0010
,
0000
0000
0000
0000
0100
0000
0000
0000
0010
0000
0000
0000
0100
0000
0000
0010
,
0000
0000
0010
0000
0100
0000
0001
0010
0100
1000
0100
2000
0000
3001
0100
0010
,
0100
0001
1000
0010
0100
0000
0000
0000
0100
0000
0000
0000
0010
0000
0000
0100
,
0000
0000
0010
0000
0100
0000
0000
0000
0010
0000
0000
0000
0001
0000
0000
0010
,
0000
0000
0100
0000
0001
0000
0000
0000
0010
0000
0000
0000
0001
0000
0000
0100
,
0000
0000
0010
0000
0100
0000
0001
0010
0100
1000
0100
2000
0000
3001
0100
0010
,
0100
0001
1000
0010
0100
0000
0001
0010
0100
1000
0100
2000
0000
3001
0100
0010
,
0100
0001
1000
0010
0100
0000
0000
0000
0010
0000
0100
0010
0100
0000
0010
0000
,
0010
0000
0010
0000
0010
0000
0010
0000
0100
0000
1000
0001
0000
1000
0001
0000
,
1001
0000
1001
0000
0200
0000
1000
0000
2300
0000
0010
0000
3001
0010
0000
0100
,
2000
0001
3002
1000
2003
0100
3200
0010
,
1302
0000
0000
0000
0013
0000
0000
0000
0010
0000
0100
0010
0100
0000
0010
0000
,
0010
0000
0010
0000
0010
0000
0010
0000
0100
0000
1000
0001
0000
1000
0001
0000
,
1001
0000
1001
0010
0200
0000
1000
0000
2300
0000
0010
0000
3001
0010
0000
0100
,
2000
0000
0000
0000
0001
0000
0000
0000
3002
0000
0000
0000
0010
0000
0000
0000
0023
0000
0000
0000
1000
0000
0000
0000
1030
0001
1000
0001
1000
0000
0001
0000
,
1000
0001
0100
0010
0001
0100
0001
0010
,
0100
0000
1000
0000
0010
0000
1000
0000
0100
0000
0010
0001
0000
0100
0001
0000
,
0100
0000
0000
0000
0200
0000
1000
0000
2300
0000
0010
0000
3001
0010
0000
0100
,
2000
0001
3002
1000
2003
0100
3200
0010
,
1300
1000
0100
0010
0001
0100
0001
0010
,
0100
0000
1000
0000
0010
0000
1000
0000
0100
0000
0010
0001
0000
0100
0001
0000
,
0100
0000
0000
0000
0010
0100
0010
1000
0001
0100
0010
0100
0001
1000
0100
1000
,
0001
0000
0010
0000
0100
0000
1000
0000
4004
0000
0000
0000
0000
0000
0000
0000
0000
0000
0000
0000
0000
0000
0000
0000
3003
0040
0000
0000
0030
0000
0100
0000
,
0010
0001
0010
0100
1000
0000
1000
0000
1000
0000
2000
0000
0001
0000
3002
0000
,
1000
0000
2003
0000
0001
0000
3001
0001
0100
0001
0010
0100
1000
0010
0100
0001
,
0010
0001
0100
0010
1000
0000
0010
0000
1000
0000
0002
0000
1000
0000
2003
0000
,
0001
3002
1000
0003
0100
0010
1001
0000
,
0110
0000
0010
0100
0001
0010
1001
0000
,
0100
0010
0100
0010
0100
1000
0100
0010
,
0100
0000
1000
0000
2020
0000
0000
0000
3030
0000
1000
0100
0020
0000
0000
0000
,
0230
0000
0000
0000
2300
0000
0000
0000
0000
0000
0000
0000
0004
0000
0003
0001
,
3100
0010
0100
0010
0010
1000
0100
0010
0001
0010
0010
0000
0000
0000
0100
0000
,
0000
1000
0000
0100
0010
0001
0100
0001
,
0010
0001
0000
0002
0000
0000
0103
0000
0010
0000
0001
0000
0100
0000
0010
0000
,
1000
0001
0000
2000
0000
0000
3100
0000
1000
0000
2000
0000
0000
0000
0000
0000
,
3000
0000
1000
0010
0001
0000
0010
0000
1000
0010
0000
0002
0000
0000
0013
1000
,
0010
0001
0000
0002
0000
0000
0013
0000
1000
0010
0000
0002
0000
0000
0013
1000
,
0010
0001
0000
2000
0004
0000
0000
0000
0000
0000
0000
0000
0000
0000
0000
0000
,
0000
0000
0000
0003
3020
0100
0000
0000
0100
0000
0000
0000
0230
0000
0000
0000
,
0000
0000
0000
0000
0000
0000
0000
0300
1001
0000
0000
0000
0000
0000
0000
0000
0100
0000
0000
0000
0000
0000
0000
0000
0010
0000
0000
0000
0000
0000
0100
0000
,
0000
0000
1000
0000
0001
0000
0000
0000
0100
0000
0000
0000
0010
0000
0000
0001
,
0000
0000
0010
0000
0100
0000
0001
0010
0100
1000
0100
2000
0000
3001
0100
0010
,
0100
0001
1000
0010
2000
0000
0000
0000
3200
0000
0000
0000
0320
0000
0000
0032
,
0000
0000
0103
0000
0100
0000
0000
0000
0010
0000
0000
0000
0001
0000
0000
0010
,
0000
0000
0100
0000
0001
0000
0000
0000
0010
0000
0000
0000
0001
0000
0000
0100
,
0000
0000
0010
0000
0100
0000
0001
0010
0100
1000
0100
2000
0000
3001
0100
0010
,
0100
0001
1000
0010
0100
0000
0000
0000
0100
0000
0000
0000
0010
0000
0000
1000
,
0000
0000
0000
0000
0010
0000
0000
0000
0100
0000
0000
0000
0001
0000
0000
0010
,
0000
0000
0000
0000
0100
0000
0000
0000
0010
0000
0000
0000
0100
0000
0000
0010
,
0000
0000
0010
0000
0100
0000
0001
0010
0100
1000
0100
2000
0000
3001
0100
0010
,
0100
0001
1000
0010
0100
0000
0000
0000
0100
0000
0000
0000
0010
0000
0000
0100
,
0000
0000
0010
0000
0100
0000
0000
0000
0010
0000
0000
0000
0001
0000
0000
0010
,
0000
0000
0100
0000
0001
0000
0000
0000
0010
0000
0000
0000
0001
0000
0000
0100
,
0000
0000
0010
0000
0100
0000
0001
0010
0100
1000
0100
2000
0000
3001
0100
0010
,
0100
0001
1000
0010
0100
0000
0001
0010
0100
1000
0100
0010
0100
0010
0100
1000
,
0001
0100
0001
0100
0010
0000
0000
0000
1001
0000
0000
0000
0000
0000
0000
0000
;
