#VERSION:0.83;
#TITLE:DON'T YOU (FORGET ABOUT MY LOVE) - short ver;
#SUBTITLE:;
#ARTIST:SOPHIE;
#TITLETRANSLIT:;
#SUBTITLETRANSLIT:;
#ARTISTTRANSLIT:;
#GENRE:;
#CREDIT:;
#MUSIC:DON'T YOU (FORGET ABOUT MY LOVE).ogg;
#BANNER:eurobeat_is_crack-BN.png;
#BACKGROUND:DON'T YOU (FORGET ABOUT MY LOVE)-BG.jpg;
#CDTITLE:cdtitlelninja.png;
#SAMPLESTART:32.622;
#SAMPLELENGTH:12.310;
#SELECTABLE:YES;
#OFFSET:-0.263;
#BPMS:0.000=155.977;
#STOPS:;
#SPEEDS:0.000=1.000=0.000=0;
#SCROLLS:0.000=1.000;
#TICKCOUNTS:0.000=4;
#TIMESIGNATURES:0.000=4=4;
#LABELS:0.000=Song Start;
#COMBOS:0.000=1;
#ORIGIN:;
#PREVIEWVID:;
#JACKET:DON'T YOU (FORGET ABOUT MY LOVE)-jacket.jpg;
#CDIMAGE:;
#DISCIMAGE:;
#BGCHANGES:;
#FGCHANGES:;

//--------------- dance-single - LNinja ----------------
#NOTEDATA:;
#STEPSTYPE:dance-single;
#DESCRIPTION:LNinja;
#DIFFICULTY:Medium;
#METER:14;
#RADARVALUES:0.417612,0.711814,0.033698,0.876144,0.176914,347,343,4,104,0,0,0,0,0,0.417612,0.711814,0.033698,0.876144,0.176914,347,343,4,104,0,0,0,0,0;
#CHARTNAME:;
#CHARTSTYLE:;
#CREDIT:;
#NOTES:
0200
0000
0000
0320
,
0230
2300
3020
0230
,
0302
0000
0003
0200
,
0320
0000
0000
0000
0000
0000
0000
0000
0030
0000
0000
0000
0000
0000
1000
0100
,
0010
0200
0300
0200
0000
0300
0000
0000
,
0010
0200
0300
0200
0000
0300
0010
0100
,
0002
0003
0010
0200
0300
0020
0030
0200
,
0300
0002
0003
2000
3000
0200
0300
0000
,
0020
0000
0000
0230
0000
0000
0300
0000
,
0010
0100
0010
2000
0000
3000
0000
0000
,
0020
0030
0100
0020
0030
0200
0300
0020
,
0030
0020
0030
0200
0300
2000
3000
0000
,
0020
0030
0100
0002
0000
0203
0000
0302
,
0000
0203
0000
0320
0000
2030
0000
3000
,
0002
0000
1003
0200
0000
0320
0000
0230
,
0000
2300
0000
3200
0000
0320
0000
0030
,
0002
0000
0013
0200
0000
0302
0000
0023
,
0000
0230
0000
2300
0000
3000
0000
0000
,
1000
0002
0000
0203
0000
0300
0000
0000
,
0020
0000
0000
0000
0000
0000
0000
0000
0000
0000
0000
0000
0030
0000
0000
0100
0000
0000
0000
0000
0000
0000
0000
0000
0000
0000
0000
0000
0000
0000
0000
0000
0000
0000
0000
0000
0000
0000
0000
0000
0000
0000
0000
0000
0000
0000
2002
0000
,
0000
0000
3003
0000
,
0010
0000
1000
0001
0000
0010
0001
1000
0010
0000
0100
0000
0010
0000
0010
0100
,
0000
0001
1000
0000
2000
0000
0000
0000
3001
1000
0001
1000
0001
0000
0010
0000
,
0100
0000
0100
0010
0000
0001
1000
0200
0000
0000
0310
0000
0001
1000
0000
0000
,
0002
0023
0230
2300
,
3001
0000
1000
0001
0000
1000
0001
0000
0010
0000
0000
0000
0200
0000
0000
0000
,
0302
0023
0230
2300
,
3001
0000
1000
0001
1000
0000
0001
1000
0000
0001
1000
0000
0001
1000
0001
1000
,
0001
0000
0200
0000
0000
0000
0320
0000
0000
0000
0000
0000
0000
0030
0000
0000
,
2002
0000
3003
0000
0001
0000
0001
0020
,
0000
0230
0000
0302
0000
0023
0000
0230
,
0000
0000
0000
0300
0000
0000
1000
0020
,
0000
0230
0000
0302
0000
2003
0000
3200
,
0000
0000
0300
0000
0000
0000
1000
0002
,
0000
0203
0000
0320
0000
2030
0000
3200
,
0000
0320
0000
0032
0000
0203
0000
0302
,
0000
2003
0000
3002
0000
0023
0000
0030
,
0002
0000
1003
0001
0000
0000
0100
0020
,
0000
0230
0000
0320
0000
2030
0000
3200
,
0000
0300
0000
0000
0000
0000
0001
0200
,
0000
0320
0000
2030
0000
3002
0000
2003
,
0000
0000
3000
0000
0000
0000
0001
2000
,
0000
3020
0000
0230
0000
0320
0000
2030
,
0000
0000
0000
0000
0000
0000
0000
0000
3002
0000
0000
0000
0000
0000
0000
0000
0000
0000
0000
0000
0000
0000
0000
0000
2003
0000
0000
0000
0000
0000
0000
0000
0000
0000
0000
0000
0000
0000
0000
0000
3002
0000
0000
0000
0000
0000
0000
0000
0003
0000
0000
0000
0000
0220
0000
0000
0000
0000
0000
0000
0000
0000
0000
0000
,
0000
0000
0330
2000
3000
0001
1000
0100
,
0010
2000
3002
0023
0030
0002
0000
2003
,
0000
3002
0000
2003
0000
3200
0300
0000
,
1000
0001
1000
0020
0000
0230
0000
0302
,
0000
2003
0000
3002
0000
2003
0000
3000
,
0020
0030
2000
3002
0003
0200
0300
0002
,
2003
0000
3020
0230
0300
0002
0000
2003
,
0001
0000
0001
0001
3000
0200
0300
0000
,
0002
0000
0000
0000
0000
0000
0000
0000
0000
0000
0000
0000
0000
0000
0000
0000
0000
0000
0000
0000
0000
0000
0000
0000
0000
0000
0000
0000
0000
0000
0000
0000
0000
0000
0000
0000
2003
0000
0000
0000
0000
0000
0000
0000
0000
0000
0000
0000
0000
0000
0000
0000
0000
0000
0000
0000
0000
0000
0000
0000
0000
0000
0000
0000
0000
0000
0000
0000
0000
0000
0000
0000
3020
0000
0000
0000
0000
0000
0000
0000
0000
0000
0000
0000
0000
0000
0000
0000
0000
0000
0000
0000
0000
0000
0000
0030
,
1000
0001
0100
0020
0000
2030
0000
3002
,
0000
0203
0000
0302
0000
0003
0000
0000
,
1000
0001
0010
0200
0300
0020
0000
2030
,
0000
3200
0000
2300
0000
3002
0000
0003
,
1000
0010
0100
0002
0000
0203
0000
0302
,
0000
2003
0000
3002
0000
0003
0000
0000
,
0010
0000
0000
0000
0000
0000
0000
0000
1000
0000
0000
0000
0000
0000
0000
0000
0001
0000
0000
0000
0000
0000
0000
0000
0200
0000
0000
0000
0000
0000
0000
0000
0000
0000
0000
0000
0000
0000
0000
0000
0302
0000
0000
0000
0000
0000
0000
0000
0003
0000
0000
0000
0000
2000
0000
0000
0000
0000
0000
0000
0000
0000
0000
0000
,
0000
3000
0002
0000
0023
0000
0032
0000
,
1003
0010
0100
0002
0000
0023
0000
0230
,
0000
2300
0000
3002
0000
0003
0000
0000
,
0001
1000
0100
0020
0030
0200
0300
0020
,
0030
2000
3000
0002
0003
0200
0300
0000
,
0001
1000
0010
0200
0000
2300
0000
3200
,
0000
0320
0000
0230
0000
0300
0000
0000
,
0001
2000
0000
3020
0000
0030
0000
0000
,
2000
0000
0000
0000
0000
0000
0000
0000
3000
0002
0000
0000
0000
0000
0000
0000
0000
0000
0000
0000
0000
0000
0000
0000
0003
0000
0000
0000
0000
0000
0000
0000
,
0110
0000
1000
0001
0000
0010
0001
1000
0010
0000
0100
0000
0010
0000
0010
0100
,
0000
0001
1000
0000
1000
0000
0000
0000
0001
1000
0001
1000
0001
0000
0010
0000
,
0100
0000
0100
0010
0000
0001
1000
0200
0000
0000
0310
0000
0001
1000
0000
0000
,
0002
0023
0230
2300
,
3001
0000
1000
0001
0000
1000
0001
0000
0010
0000
0000
0000
0200
0000
0000
0000
,
0302
0023
0230
2300
,
3001
0000
1000
0001
1000
0000
0001
1000
0000
0001
1000
0000
0001
1000
0001
1000
,
0001
0000
0200
0000
0000
0000
0320
0000
0000
0000
0000
0000
0000
0030
0000
0000
;

//--------------- dance-single - LNinja - air special ----------------
#NOTEDATA:;
#STEPSTYPE:dance-single;
#DESCRIPTION:LNinja - air special;
#DIFFICULTY:Challenge;
#METER:15;
#RADARVALUES:0,0,0,0,0;
#NOTES:
2002
0000
0000
0000
0000
3003
0020
0000
,
0230
0300
2002
0003
3020
0000
0230
0300
,
2002
0000
3003
0200
,
0320
0000
0000
0000
0000
0000
0000
0000
0030
0000
0000
0000
0000
0000
1000
0100
,
0010
0200
0300
2002
0000
3003
0000
0000
,
0010
0200
0300
2002
0000
3003
0010
0100
,
0002
0003
0010
0210
0300
1020
0030
0201
,
0300
0102
0003
2010
3000
0200
0300
0000
,
0020
0000
0030
2200
0000
0000
3300
0000
,
0010
0100
0010
2020
0000
3030
0000
0000
,
2020
3030
0001
2002
3003
0202
0303
2020
,
3030
2200
3300
0022
0033
2002
3003
0000
,
0020
0030
0100
0202
0303
2200
3300
0022
,
0033
0220
0330
2002
3003
0202
0303
0000
,
0202
0300
1003
0220
0330
2020
3030
0202
,
0303
0220
0330
2020
3030
0202
0303
0000
,
0022
0030
1003
2002
3003
2020
3030
0022
,
0033
2020
3030
0202
0000
0303
0000
0000
,
1010
0202
0303
2002
0000
3003
0000
0000
,
0220
0000
0000
0000
0000
0000
0000
0000
0000
0000
0000
0000
0330
0000
0000
1001
0000
0000
0000
0000
0000
0000
0000
0000
0000
0000
0000
0000
0000
0000
0000
0000
0000
0000
0000
0000
0000
0000
0000
0000
0000
0000
0000
0000
0000
0000
2002
0000
,
0000
0000
3003
0000
,
0010
0000
1000
0001
0000
0010
0001
1000
0010
0000
0100
0000
0010
0000
0010
0100
,
0000
0001
1000
0000
2000
0000
0000
0000
3001
1000
0001
1000
0001
0000
0010
0000
,
0100
0000
0100
0010
0000
0001
1000
0200
0000
0000
0310
0000
0001
1000
0000
0000
,
0022
0033
2200
3300
2020
3030
0202
0303
,
1001
0000
1000
0001
0000
1000
0001
0000
0010
0000
0000
0000
0220
0000
0330
0000
,
2200
3300
0022
0033
0202
0303
2020
3030
,
1001
0000
1000
0001
1000
0000
0001
1000
0000
0001
1000
0000
0001
1000
0001
1000
,
0001
0000
0201
0000
0300
0000
2020
0000
3000
0000
0000
0000
0000
0030
0000
0000
,
2002
0000
3003
0000
1001
0000
0101
0220
,
0330
0202
0303
2002
3003
2200
3300
0220
,
0000
0000
0000
0330
0000
0000
1001
0220
,
0330
0202
0303
2020
3030
0202
0303
2020
,
0000
0000
3030
0000
0000
0000
1001
0022
,
0033
2200
3300
0202
0303
2020
3030
0202
,
0303
2200
3300
0022
0033
2002
3003
0220
,
0330
0202
0303
0022
0033
2200
0000
3300
,
2002
3000
1003
0001
0000
0000
0110
2002
,
3003
0202
0303
2020
3030
0022
0033
2002
,
0000
0000
3003
0000
0000
0000
1001
0220
,
0330
2200
3300
2020
3030
0022
0033
2002
,
0000
0000
3003
0000
0000
0000
1001
0220
,
0330
2200
3300
0202
0303
2020
3030
0202
,
0303
0000
0000
0000
0000
0000
0000
0000
2002
0000
0000
0000
0000
0000
0000
0000
3003
0000
0000
0000
0000
0000
0000
0000
2200
0000
0000
0000
0000
0000
0000
0000
3300
0000
0000
0000
0000
0000
0000
0000
2002
0000
0000
0000
0000
0000
0000
0000
3003
0000
0000
0000
0000
0220
0000
0000
0000
0000
0000
0000
0000
0000
0000
0000
,
0000
0000
0330
0022
0033
1100
1100
0000
,
0110
1010
0101
2002
3003
0202
0303
0022
,
0033
2200
3300
0202
0303
2200
3300
0000
,
0011
0011
0011
2002
3003
2200
3300
0022
,
0033
2020
3030
0202
0303
2200
3300
0000
,
2020
3030
0101
1100
0000
0202
0303
0011
,
2020
3030
1010
0202
0303
0202
0303
2000
,
0001
0000
0001
0001
3000
0220
0330
0000
,
2002
0000
3003
0220
0000
0330
2002
3003
,
1001
0101
1010
0202
0303
2200
3300
0022
,
0033
0202
0303
2020
0000
0000
3030
0000
,
0101
0101
0101
2020
3030
0220
0330
2002
,
3003
0202
0303
2200
3300
0202
0000
0303
,
1001
1001
0110
2020
3030
0202
0303
2002
,
3003
0220
0330
2200
0000
3300
0000
0000
,
0110
0000
0000
0000
0000
0000
0000
0000
1001
0000
0000
0000
0000
0000
0000
0000
1001
0000
0000
0000
0000
0000
0000
0000
0220
0000
0000
0000
0000
0000
0000
0000
0330
0000
0000
0000
0000
0000
0000
0000
2002
0000
0000
0000
0000
0000
0000
0000
3003
0000
0000
0000
0000
2002
0000
0000
0000
0000
0000
0000
0000
0000
0000
0000
,
0000
3003
0220
0330
0220
0330
2002
3003
,
0101
1001
0011
0022
0033
2200
3300
2020
,
3030
0202
0303
2200
0000
0000
3300
0000
,
1001
1100
1100
0022
0033
2200
3300
2020
,
3030
0202
0303
0022
0033
2200
3300
0000
,
1001
1010
1010
0022
0033
2200
3300
0202
,
0303
2020
3030
2200
0000
0000
3300
0000
,
0110
2002
3003
0022
0000
0033
0000
0000
,
2020
0000
0000
0000
0000
0000
3030
0000
0000
0022
0000
0000
0000
0000
0000
0000
0000
0000
0000
0000
0000
0000
0000
0000
0033
0000
0000
0000
0000
0000
0000
0000
,
0110
0000
1000
0001
0000
0010
0001
1000
0010
0000
0100
0000
0010
0000
0010
0100
,
0000
0001
1000
0000
1000
0000
0000
0000
0001
1000
0001
1000
0001
0000
0010
0000
,
0100
0000
0100
0010
0000
0001
1000
0200
0000
0000
0310
0000
0001
1000
0000
0000
,
0022
0033
2200
3300
2020
3030
0202
0303
,
0001
0000
1000
0001
0000
1000
0001
0000
0110
0000
0000
0000
0220
0000
0330
0000
,
0202
0303
2020
3030
2200
3300
0022
0033
,
0011
0000
1000
0001
1000
0000
0001
1000
0000
0001
1000
0000
0001
1000
0001
1000
,
0001
0202
0303
2020
0000
0000
0000
3030
;
