#VERSION:0.83;
#TITLE:Cosmic Girl - short ver;
#SUBTITLE:;
#ARTIST:Jamiroquai;
#TITLETRANSLIT:;
#SUBTITLETRANSLIT:;
#ARTISTTRANSLIT:;
#GENRE:;
#CREDIT:;
#MUSIC:Jamiroquai - Cosmic Girl - short ver.ogg;
#BANNER:Jamiroquai - Cosmic Girl-BN.png;
#BACKGROUND:Jamiroquai-Cosmic-Girl-BG.png;
#CDTITLE:cdtitlelninja.png;
#SAMPLESTART:7.196;
#SAMPLELENGTH:8.540;
#SELECTABLE:YES;
#OFFSET:0.050;
#BPMS:0.000=157.235
,19.000=119.431
;
#STOPS:;
#SPEEDS:0.000=0.760=0.000=0,
19.000=1.000=0.000=0
;
#DISPLAYBPM:119.431;
#BGCHANGES:;
#FGCHANGES:;

//--------------- dance-single - ----------------
#NOTEDATA:;
#STEPSTYPE:dance-single;
#DESCRIPTION:;
#DIFFICULTY:Medium;
#METER:13;
#RADARVALUES:0,0,0,0,0;
#NOTES:
0000
0000
0000
0000
0000
0000
0000
0000
0000
0000
0000
0000
0000
0000
0000
0000
0000
0000
0000
0000
0000
0012
0000
0000
0000
0000
0000
0000
0000
0000
0000
0000
1000
0000
0000
0000
0000
0000
0000
0000
0000
0000
0000
0000
0000
0100
0000
0000
,
0000
0000
0000
0000
0000
0000
0000
0000
0000
0000
0000
0000
0000
0000
0000
0000
0000
0000
0000
0000
0000
0000
0000
0000
0000
0000
0000
0000
0000
1000
0000
0000
0000
0000
0000
0000
0000
0000
0000
0000
0000
0000
0000
0000
0000
0000
0000
0000
0000
0000
0000
0000
0000
0000
0000
0000
0000
0000
0000
0000
0000
0000
0000
0000
0000
0000
0000
0000
0000
0000
0000
0000
0000
0000
0000
0000
0000
0000
1000
0000
0000
0000
0000
0000
0000
0000
0000
0000
0000
0000
0000
0000
0000
0000
0000
0000
0000
0000
0000
0000
0000
0000
0000
0000
0000
0000
0000
0000
0000
0000
0000
0000
0000
0000
0000
0000
0000
0000
0000
0000
0000
0000
0000
0000
0000
0000
1000
0000
0000
0000
0000
0000
0000
0000
0000
0000
0000
0000
0000
0000
0000
0000
0000
0000
0000
0000
0000
0000
0000
0000
0000
0000
0000
0000
0000
0000
0000
0000
0000
0000
0000
0000
0000
0000
0000
0000
0000
0000
0000
0000
0000
0000
0000
0000
0010
0000
0000
0000
0000
0000
0000
0000
0000
0000
0000
0000
0000
0000
0000
0000
0000
0000
,
0000
0000
1000
0000
0000
1000
0000
0000
0000
0103
0000
0000
0000
0000
0000
0000
,
0000
2001
0000
0000
0000
0100
0000
0000
0000
0001
0000
0000
0000
0100
0000
0000
,
0000
0000
0001
0000
0000
0000
0000
0000
0000
0000
0001
0000
0000
0000
0000
0000
0000
0100
3000
0000
0000
0000
0000
0000
0010
0000
0001
0000
1000
0000
0000
0000
,
0010
0000
0000
0000
1000
0000
0100
0010
0000
0000
0100
0000
1000
0000
0000
0000
,
0010
0000
0100
0000
1000
0000
0100
0010
0000
0100
0100
0000
1000
0000
0000
0000
,
1000
0000
0010
0000
0100
0000
1000
0100
0000
0001
0000
0010
0000
0001
0000
0100
,
1000
0001
2000
0000
0000
3000
0010
0000
0010
0000
0010
0000
0100
0000
0000
0100
,
1000
0000
0100
0000
0010
0000
0100
0010
0100
0000
0010
0000
0100
0000
0000
0000
,
0010
0100
1000
0020
0000
0000
0130
0000
0010
1000
0000
0010
1000
0000
0000
0000
,
0001
1000
0000
0010
0000
0100
0000
0001
0000
0010
0000
0100
0000
1000
0010
0001
,
0100
0010
0002
0100
0000
0100
0000
0100
0003
0010
1000
0000
0010
0000
0100
0000
,
0010
0000
0100
0000
0001
0010
0100
0000
1000
0000
0100
0020
0000
0030
0000
0100
,
0010
1000
0000
0020
0000
0030
1000
0010
0001
0010
1000
0200
0300
0000
0100
0000
,
0000
0000
0001
0000
0100
0000
1000
0000
0100
0000
0001
0000
0100
0000
0010
1000
,
0010
0200
0001
0001
0301
0010
1000
0010
,
0001
0100
0000
0010
0000
0100
0010
0000
0001
0000
0000
1000
0010
0000
0000
0000
,
1000
0001
0000
0020
0000
0000
0130
0000
0001
1000
0000
0010
0100
0000
0000
0000
,
0010
0000
0001
0000
1000
0100
0000
1001
0000
0010
0100
0010
0001
0000
0010
0000
,
0100
0000
2000
0000
0001
0000
0100
0000
3001
0000
0001
0010
0000
0000
1001
0000
,
0110
0000
0000
0000
1000
0000
0000
0001
0000
0000
2000
0000
0001
0000
0100
0000
,
0001
0100
3010
0001
0100
0001
0020
0000
,
0130
0000
2000
0000
0010
0000
0000
0100
3000
0000
0001
0000
0000
0000
2002
0000
,
3003
0000
0220
0000
0000
0000
0330
0000
0000
0000
0000
0000
1000
0100
0000
0001
,
0000
0100
0000
0001
0000
0001
0000
2000
0000
0000
0001
0000
3000
0000
1000
0100
,
0000
0000
0001
0100
0000
0000
0010
0001
0100
0000
0010
0000
1000
0000
0010
0000
,
0100
0001
0000
0100
0000
0010
0000
0100
0000
0002
1000
0000
1003
0000
0010
0000
,
0001
0010
0000
0000
0000
0100
0001
0000
0010
0000
1000
0000
0020
0000
0000
0000
,
0130
0000
0002
0000
1000
0000
0000
0010
0000
0000
0203
0000
0000
0000
0010
0000
,
0000
0000
0010
0000
0000
0000
0010
0000
0000
0000
0010
0000
0301
0010
0000
1000
,
0000
0010
0000
0001
0000
0010
0000
1000
0000
0000
0100
0000
0000
0000
0000
0010
,
0100
0000
0000
0000
1000
0000
0001
0000
0000
0000
0100
0000
1000
0100
0000
0001
,
0000
0100
0000
1000
0000
0100
0000
0002
0000
0000
0000
0000
0000
0000
0010
0000
,
0000
0000
0010
0000
0000
0000
0010
0000
0000
0000
0020
0000
0003
0030
0100
0000
,
1000
0000
0001
0000
0010
0000
1000
0100
0010
0000
0001
0100
0000
0000
0020
0000
,
1000
0030
1000
0001
0000
0000
0010
0100
0000
0000
0100
0001
0000
0000
0001
1000
,
0010
0000
0100
0000
0001
0000
0010
0000
0100
0000
1000
0100
0000
0000
1000
0000
,
1000
0000
0100
0000
0010
0000
0001
0000
0100
0000
0001
0010
0000
0000
0000
0000
,
1000
0000
0010
0100
0000
0002
0000
0000
0013
0000
1000
0100
0000
0000
0001
0000
,
0001
0010
0000
0000
1000
0000
0010
0000
0000
0001
0000
0000
0010
0100
0000
0000
,
1000
0000
0000
0010
0001
0000
1000
0000
0010
0000
0100
0000
0001
0000
0000
0000
,
1000
0100
0010
0001
0010
1000
0100
0000
,
0010
0000
0100
0000
1000
0100
0000
0001
0010
0000
0100
0010
0000
0000
1000
0000
,
0001
0000
0000
0000
0220
0000
0000
0000
0330
0000
0001
0010
0100
1000
0010
0100
,
0001
1000
0000
0000
0000
0000
0000
0000
0000
0000
0000
0000
0000
0000
0000
0000
;

//--------------- dance-single - LNinja ----------------
#NOTEDATA:;
#STEPSTYPE:dance-single;
#DESCRIPTION:LNinja;
#DIFFICULTY:Hard;
#METER:14;
#RADARVALUES:0,0,0,0,0;
#NOTES:
0000
0000
0000
0000
0000
0000
0000
0000
0000
0000
0000
0000
0000
0000
0000
0000
0000
0000
0000
0000
0000
0012
0000
0000
0000
0000
0000
0000
0000
0000
0000
0000
1000
0000
0000
0000
0000
0000
0000
0000
0000
0000
0000
0000
0000
0100
0000
0000
,
0000
0000
0000
0000
0000
0000
0000
0000
0000
0000
0000
0000
0000
0000
0000
0000
0000
0000
0000
0000
0000
0000
0000
0000
0000
0000
0000
0000
0000
1000
0000
0000
0000
0000
0000
0000
0000
0000
0000
0000
0000
0000
0000
0000
0000
0000
0000
0000
0000
0000
0000
0000
0000
0000
0000
0000
0000
0000
0000
0000
0000
0000
0000
0000
0000
0000
0000
0000
0000
0000
0000
0000
0000
0000
0000
0000
0000
0000
1000
0000
0000
0000
0000
0000
0000
0000
0000
0000
0000
0000
0000
0000
0000
0000
0000
0000
0000
0000
0000
0000
0000
0000
0000
0000
0000
0000
0000
0000
0000
0000
0000
0000
0000
0000
0000
0000
0000
0000
0000
0000
0000
0000
0000
0000
0000
0000
1000
0000
0000
0000
0000
0000
0000
0000
0000
0000
0000
0000
0000
0000
0000
0000
0000
0000
0000
0000
0000
0000
0000
0000
0000
0000
0000
0000
0000
0000
0000
0000
0000
0000
0000
0000
0000
0000
0000
0000
0000
0000
0000
0000
0000
0000
0000
0000
0010
0000
0000
0000
0000
0000
0000
0000
0000
0000
0000
0000
0000
0000
0000
0000
0000
0000
,
0000
0000
1000
0000
0000
1000
0000
0000
0000
0103
0000
0000
0000
0000
0000
0000
,
0000
2001
0000
0000
0000
0100
0000
0000
0000
0001
0000
0000
0000
0100
0000
0000
,
0000
0000
0001
0000
0000
0000
0000
0000
0000
0000
0001
0000
0000
0000
0000
0000
0000
0100
3000
0000
0000
0000
0000
0000
0001
0000
0010
0000
1000
0000
0000
0000
,
0100
0000
0000
0000
1000
0000
0100
0010
0100
0000
1000
0000
1000
0000
0000
0000
,
0010
0000
0100
0000
1000
0000
0100
0010
0100
0010
0100
0000
1000
0000
0000
0000
,
1000
0000
0010
0000
0100
0001
1000
0000
0010
0001
0000
0010
0000
0001
0010
0100
,
0000
0001
2000
0100
3010
0000
0100
0000
0010
0000
0010
0000
0100
0000
0000
0001
,
1000
0001
0100
0000
0010
0000
0100
0010
1000
0000
0010
0001
0100
0100
0000
0000
,
0100
0010
1000
0002
0100
0000
0013
0000
0010
1000
0000
0100
0001
0000
0000
0100
,
0001
1000
0000
0010
1000
0001
0000
0100
0000
0010
0001
1000
0010
0100
0000
0001
,
0100
0010
0002
0100
0000
1000
0000
0100
0003
0010
1000
0000
0010
0000
0100
0000
,
0010
0100
0100
0000
0001
0010
0100
0000
1000
0000
0100
0020
0100
0031
0000
0100
,
0010
1000
0000
0020
0100
0030
1000
0010
0001
0010
1000
0200
0301
0010
0100
0000
,
0000
0000
0001
0000
0100
0000
1000
0000
0100
0000
0001
0000
0100
0000
0010
1000
,
0010
0200
0001
0010
1300
0100
0001
0010
,
0001
0100
0000
0010
0000
0100
0010
0000
0001
0000
0000
1000
0010
0000
0000
0000
,
1000
0001
0000
0020
1000
0000
0130
0000
0001
1000
0000
0010
0100
0000
0000
0000
,
0010
1000
0001
0000
1000
0100
0000
1001
0000
0010
0100
0010
0001
0000
0010
0001
,
0100
0000
2000
0000
0001
0000
0100
0000
3001
0000
0001
0010
0000
0000
1001
0000
,
0110
0000
0000
0000
1000
0000
0000
0001
0000
0000
2000
0000
0001
0000
0100
0000
,
0001
0100
3010
0001
0100
0001
0020
0100
,
0130
0000
2000
0000
0010
0000
0000
0100
3000
0000
0001
0000
0100
0000
2002
0000
,
3003
0000
0220
0000
2300
0000
3030
0000
0000
0000
0000
0000
2000
3200
0320
0032
,
0023
0230
0300
0001
0000
0100
0000
0002
0023
0230
2300
3000
0000
0000
1000
0100
,
1000
0000
0001
0100
0001
0000
0010
0001
0100
0000
0010
0100
1000
0000
0010
0100
,
0010
0001
0010
0000
0000
1000
0100
0010
0000
0002
1000
0000
1003
0000
0010
0000
,
0001
0010
0100
0000
0000
0100
0001
0010
0100
0000
1000
0000
0020
0000
0100
0000
,
0130
0000
0002
0000
1000
0000
0000
0010
0000
0000
0203
0000
0000
0000
0010
0000
,
0000
0000
0001
0000
0000
0000
1000
0000
0000
0000
0001
0000
0301
0010
0000
1000
,
0000
0010
0000
0001
0000
0010
0000
1000
0000
0000
0100
0000
0000
0000
0000
0001
,
0010
1000
0000
0000
1000
0010
0001
0000
0000
0000
0100
0000
1000
0100
0000
0001
,
0000
0100
0000
1000
0000
0100
0000
0002
0000
0000
1000
0000
0000
0000
0010
0000
,
0000
0000
1000
0000
0000
0000
0100
0000
0000
0000
0020
0000
0003
0030
0100
0000
,
1000
0000
0001
0000
0010
0000
1000
0100
0010
0000
0001
0100
1000
0000
0020
0000
,
1000
0030
1000
0001
0000
0000
0001
0100
1000
0000
0001
0010
1000
0000
1000
0100
,
0001
0000
0100
0000
0001
0000
0010
0000
0100
0000
1000
0100
0001
0000
1000
0000
,
1000
0000
0100
0000
0010
0000
0001
0000
0100
0000
0001
0010
1000
0000
0000
0000
,
1000
0000
0010
0100
0000
0002
0000
0000
0013
0000
1000
0100
0001
0000
0001
0000
,
0001
0010
1000
0000
1000
0000
0010
0000
0000
1001
0000
0000
0010
0100
0000
0000
,
1100
0000
0000
0010
0001
0000
1000
0000
0010
0000
0100
0000
0001
0010
0001
0000
,
1000
0000
0100
0000
0010
0000
0001
0000
0010
0000
1000
0000
0100
1000
0100
0000
,
0010
0000
0100
0000
1000
0100
0000
0001
0010
0000
0100
0010
0000
0000
1000
0000
,
0001
0000
0000
0000
0220
0000
0000
0000
0330
0000
0001
0010
0100
1000
0010
0100
,
0001
1000
0000
0000
0000
0000
0000
0000
0000
0000
0000
0000
0000
0000
0000
0000
;
