#TITLE:Change My World (Going Mad Mix) - short 7;
#SUBTITLE:;
#ARTIST:Hitomi Sakuma;
#TITLETRANSLIT:;
#SUBTITLETRANSLIT:;
#ARTISTTRANSLIT:;
#GENRE:;
#CREDIT:;
#MUSIC:Change My World (Going Mad Mix) - shorter 7.ogg;
#BANNER:eurobeat_is_crack-BN.png;
#BACKGROUND:eurobeat_is_crack-BG.png;
#CDTITLE:cdtitlelninja.png;
#SAMPLESTART:50.754;
#SAMPLELENGTH:39.842;
#SELECTABLE:YES;
#OFFSET:0.090;
#BPMS:0.000=179.963;
#STOPS:;
#BGCHANGES:;
#FGCHANGES:;

//--------------- dance-single - LNinja ----------------
#NOTES:
     dance-single:
     LNinja:
     Hard:
     15:
     0,0,0,0,0:
0000
1000
0100
0010
0001
0100
0010
1000
,
0100
0010
0001
0100
0010
1000
0100
0010
,
0001
0100
0010
1000
0100
0010
0001
0100
,
0010
1000
0100
0010
0001
0100
0010
1000
,
0100
0010
0001
0100
0010
1000
0100
0010
,
0001
0100
0010
1000
0100
0010
0001
0100
,
0010
1000
0100
0010
0001
0100
0010
1000
,
0100
0010
0001
0100
0010
1000
0100
0010
,
0001
1000
0000
0010
0100
0001
1000
0010
,
0100
0100
0001
1000
,
0002
1000
2003
0010
3020
0100
0230
0001
,
0302
2003
3002
0203
,
0300
2002
0000
3003
2020
0000
3030
0202
,
0303
2200
0000
3300
2002
0000
0000
0000
,
3003
0010
0000
0100
0000
0001
0001
0001
,
0000
1000
1000
0010
0010
0000
1000
0001
,
0000
1000
0000
1000
0000
0001
0001
0000
,
0100
0000
0010
0000
1000
0010
0100
0001
,
0000
0010
0000
0010
0000
0100
0100
0000
,
1000
0000
1000
0000
0001
0010
0100
1000
,
0000
0001
0000
0001
0000
1000
1000
0000
,
0100
0000
0010
0000
0001
0010
0100
1000
,
0000
0010
0000
0010
0000
0100
0100
0000
,
0001
0000
0001
0000
1000
0010
0100
0001
,
0000
1001
0000
0101
0000
1100
1100
0000
,
1010
0000
0101
0000
0001
0010
0100
1000
,
0000
0110
0000
0011
0000
0101
0101
0000
,
1001
0000
1001
0000
0001
0100
0010
1000
,
0000
1001
0000
1010
0000
0011
0011
0000
,
0101
0000
1010
0000
1000
0100
0010
0001
,
0000
0110
0000
1100
0000
1010
1010
0000
,
1001
0000
1001
0000
1000
0010
0100
0001
,
0000
0012
0000
0010
0000
1000
1000
0000
,
0100
0000
1000
0000
0100
0100
0100
0100
,
0003
2010
0000
0010
0000
0001
0001
0000
,
0100
0000
0001
0000
0100
0100
0100
0100
,
3000
1020
0000
1000
0000
0100
0100
0000
,
0001
0000
0100
0000
1000
1000
1000
1000
,
0030
0201
0000
0001
0000
0010
0010
0000
,
1000
0000
0010
0000
0001
0001
0001
0001
,
0300
0001
0010
1000
0010
0000
0001
0010
,
1000
0010
0001
0010
1000
0000
1000
0100
,
0001
0100
1000
0100
0001
0000
0001
0100
,
1000
0100
0001
0100
1000
0000
1000
0010
,
0100
0101
0000
1100
0000
0010
0010
0000
,
1000
0000
0000
0000
0000
0000
0000
0000
0000
0000
0000
0000
0001
0000
0000
1000
0000
0001
0000
0000
0000
0100
0000
0000
,
0000
0001
0000
0010
0000
0100
0100
0000
,
1000
0001
0000
0100
0000
0010
0000
1000
,
0000
1001
1001
0010
0100
0001
0000
1000
,
0000
0110
0110
1000
0001
0100
0000
0010
,
0000
0011
0011
0100
1000
0001
0000
0010
,
0000
1010
1010
0001
0100
0010
0000
1000
,
0000
1000
0000
0010
0100
0001
1000
0010
,
0100
0100
0001
1000
,
0002
1000
2003
0010
3020
0100
0230
0001
,
0302
2003
3002
0203
,
0300
2002
0000
3003
2020
0000
3030
0202
,
0303
2200
0000
3300
2002
0000
0000
0000
,
3003
0010
0000
0100
0000
0001
0001
0001
,
0000
1000
1000
0010
0010
0000
1000
0002
,
0000
1003
0000
0001
0010
0001
0000
1000
,
0001
1000
0010
0100
0002
0000
0000
0000
,
0003
0001
1000
0010
1000
0200
0000
2300
,
0000
3001
0010
0100
2000
0000
3020
0000
,
0130
0200
0001
0302
0010
0023
0100
0230
,
1000
2300
0001
3002
0200
0003
0000
0000
,
0000
0301
0000
0010
0000
0100
1000
0010
,
0200
0000
0302
0000
1003
2000
0000
3020
,
0000
0130
0000
0010
1000
0001
0001
0100
,
0100
0010
1000
0100
0020
0000
0000
0000
,
0000
0031
0000
0100
0010
0100
0000
0010
,
0100
0001
1000
0010
2000
0000
3001
0000
,
0010
0100
0000
1000
0010
1000
0100
0010
,
0001
0100
0001
1000
0002
0000
0000
0000
,
0000
0013
0000
0001
0010
0001
1000
0010
,
0200
0000
0301
0000
0010
0100
0000
1000
,
0000
1010
0000
0101
0000
1100
1100
0000
,
1010
0000
0101
0000
0001
0010
0100
1000
,
0000
0110
0000
0011
0000
0101
0101
0000
,
1001
0000
1001
0000
0001
0100
0010
1000
,
0000
1001
0000
1010
0000
0011
0011
0000
,
0101
0000
1010
0000
1000
0100
0010
0001
,
0000
0110
0000
1100
0000
1010
1010
0000
,
1001
0000
1001
0000
1000
0010
0100
0001
,
0000
0012
0000
0010
0000
1000
1000
0000
,
0100
0000
1000
0000
0100
0100
0100
0100
,
0003
2010
0000
0010
0000
0001
0001
0000
,
0100
0000
0001
0000
0100
0100
0100
0100
,
3000
1020
0000
1000
0000
0100
0100
0000
,
0001
0000
0100
0000
1000
1000
1000
1000
,
0030
0201
0000
0001
0000
0010
0010
0000
,
1000
0000
0010
0000
0001
0001
0001
0001
,
0300
0001
0010
1000
0010
0000
0001
0010
,
1000
0010
0001
0010
1000
0000
1000
0100
,
0001
0100
1000
0100
0001
0000
0001
0100
,
1000
0100
0001
0100
1000
0000
1000
0010
,
0100
0001
0001
1000
0000
0100
0000
1001
,
0000
1000
1000
0001
0000
0010
0000
0110
,
0000
0100
0100
0001
0000
1000
0000
0101
,
0001
0000
0000
0000
1000
0000
0000
0001
0000
0000
0000
0000
0100
0000
0000
0000
0001
0000
0000
0000
1000
0000
0000
0001
0000
0000
0000
0000
0100
0000
0000
0000
,
0000
1000
0000
0010
0100
0001
1000
0010
,
0100
0100
0001
1000
,
0002
1000
2003
0010
3020
0100
0230
0001
,
0302
2003
3002
0203
,
0300
2002
0000
3003
2020
0000
3030
0202
,
0303
2200
0000
3300
2002
0000
0000
0000
,
3003
0010
0000
0100
0000
0001
0001
0001
,
0000
1000
1000
0010
0010
0000
1000
0002
,
0000
1003
0000
0001
0010
0001
0000
1000
,
0001
1000
0010
0100
0002
0000
0000
0000
,
0003
0001
1000
0010
1000
0200
0000
2300
,
0000
3001
0010
0100
2000
0000
3020
0000
,
0130
0200
0001
0302
0010
0023
0100
0230
,
1000
2300
0001
3002
0200
0003
0000
0000
,
0000
0301
0000
0010
0000
0100
1000
0010
,
0200
0000
0302
0000
1003
2000
0000
3020
,
0000
0130
0000
0010
1000
0001
0001
0100
,
0100
0010
1000
0100
0020
0000
0000
0000
,
0000
0031
0000
0100
0010
0100
0000
0010
,
0100
0001
1000
0010
2000
0000
3001
0000
,
0010
0100
0000
1000
0010
1000
0100
0010
,
0001
0100
0001
1000
0002
0000
0000
0000
,
0000
0013
0000
0001
0010
0001
1000
0010
,
0200
0000
0301
0000
0010
0100
0000
1000
,
0000
1000
0100
0010
0001
0100
0010
1000
,
0100
0010
0001
0100
0010
1000
0100
0010
,
0001
0100
0010
1000
0100
0010
0001
0100
,
0010
1000
0100
0010
0001
0100
0010
1000
,
0100
0010
0001
0100
0010
1000
0100
0010
,
0001
0100
0010
1000
0100
0010
0001
0100
,
0010
1000
0100
0010
0001
0100
0010
1000
,
0100
0010
0001
0100
0010
1000
0100
0010
,
0001
0000
0000
0000
;
