#VERSION:0.83;
#TITLE:Be My Lover - short ver;
#SUBTITLE:;
#ARTIST:Maria Valentino;
#TITLETRANSLIT:;
#SUBTITLETRANSLIT:;
#ARTISTTRANSLIT:;
#GENRE:;
#CREDIT:;
#MUSIC:Be My Lover - short ver.ogg;
#BANNER:eurobeat_is_crack-BN.png;
#BACKGROUND:eurobeat_is_crack-BG.png;
#CDTITLE:cdtitlelninja.png;
#SAMPLESTART:27.416;
#SAMPLELENGTH:12.542;
#SELECTABLE:YES;
#OFFSET:-0.371;
#BPMS:0.000=153.081;
#STOPS:;
#SPEEDS:0.000=1.000=0.000=0;
#SCROLLS:0.000=1.000;
#TICKCOUNTS:0.000=4;
#TIMESIGNATURES:0.000=4=4;
#LABELS:0.000=Song Start;
#COMBOS:0.000=1;
#ORIGIN:;
#PREVIEWVID:;
#JACKET:Be My Lover-jacket.png;
#CDIMAGE:;
#DISCIMAGE:;
#BGCHANGES:;
#FGCHANGES:;

//--------------- dance-single - LNinja ----------------
#NOTEDATA:;
#STEPSTYPE:dance-single;
#DESCRIPTION:LNinja;
#DIFFICULTY:Hard;
#METER:15;
#RADARVALUES:0.476984,0.722344,0.05,0.4,0.427778,601,592,9,72,0,4,0,0,0,0.476984,0.722344,0.05,0.4,0.427778,601,592,9,72,0,4,0,0,0;
#CHARTNAME:LNinja;
#CHARTSTYLE:;
#CREDIT:LNinja;
#NOTES:
0000
0000
2002
0000
0000
0000
3003
0020
,
0030
0100
0002
0000
0000
0000
0003
1000
,
0100
0010
0202
0000
0000
0000
0000
0000
,
0303
0000
0010
0200
0300
0001
1000
0001
,
0100
0000
0020
0030
1000
0001
1000
0020
,
0030
0000
0000
0000
0000
0000
0100
0000
0000
0000
0000
0000
0001
0000
0000
0000
0000
0000
0000
0000
0000
0000
0000
0000
0000
0000
0000
0000
0001
0000
0000
0000
0000
1000
0000
0000
0001
0000
0000
0000
0000
0000
1000
0000
0000
0000
0000
0000
,
0001
0010
0202
0000
0000
0000
0000
0000
,
0000
0000
0000
0000
,
0000
0000
0000
0000
,
0000
0303
1001
0000
0100
0001
0000
0100
,
0000
0001
1000
0000
0000
0000
0000
1000
,
0001
0010
0100
0000
0000
0000
0000
0000
,
0010
0000
1000
0001
0100
0010
1000
0001
,
0200
0300
0001
0000
1000
0010
0000
0100
,
0000
0010
1000
0000
0000
0000
0000
0001
,
0010
1000
0010
0000
1000
0001
0000
1000
,
0001
0100
0000
0001
0000
1000
0000
0010
,
0000
0000
0000
0000
1001
0000
0000
0000
0001
0010
0100
1000
0200
0000
0300
0000
,
1000
0100
0010
0001
0020
0000
0000
0000
0030
0000
0001
0010
0001
1000
0100
0010
,
0001
0010
0100
1000
0200
0000
0000
0300
0000
1000
0000
0001
0000
0100
0000
0010
,
0000
1000
0000
0100
2000
0000
0000
0000
3000
0000
0001
1000
0000
0010
0000
0100
,
0000
0002
0000
0003
2000
0000
3000
0000
0001
0010
0100
1000
0200
0000
0300
0000
,
1000
0100
0010
0001
0020
0000
0000
0000
0030
0000
0001
0010
0001
1000
0100
0010
,
0001
0010
0100
1000
0200
0000
0000
0300
0000
1000
0000
0001
0000
0100
0000
0010
,
0000
1000
0000
0100
2000
0000
0000
0000
3000
0000
0001
1000
0000
0010
0000
0100
,
0000
0001
0000
0000
1000
0000
0000
0000
0010
0000
0000
0000
0100
0000
0000
0000
,
0001
1000
0010
0100
0000
0002
0000
0003
,
0000
0000
0000
0000
1000
0010
0100
0001
,
1000
0100
2000
0000
3001
0200
0300
0000
,
0000
0000
0010
1000
,
0001
0010
0001
1000
0000
0100
0000
0000
,
1000
0100
0000
0000
1000
0100
0000
0000
,
1000
0100
0000
0000
0000
0000
0000
0000
,
0001
0100
0001
0000
1000
0100
0000
0010
,
0000
0100
0000
0000
0000
0000
0000
0000
,
1000
0000
0001
0000
1000
0100
0000
0010
,
0000
0001
0000
1000
0000
0001
0000
0000
,
0000
0100
0001
0000
1000
0010
0000
0100
,
0000
0001
0000
1000
0000
0000
0000
0000
,
0001
0100
0001
1000
0000
0001
0000
0001
,
0000
0010
0100
1000
0001
0010
0000
0200
,
0000
0300
2002
0000
0000
0000
0000
3003
,
0010
0100
0000
0001
0000
0000
1000
0000
,
0010
0000
1000
0000
0010
1000
0000
0100
,
0000
0010
0000
0001
0000
0000
1000
0000
,
0001
0000
0020
0000
0100
0000
0100
0030
,
0100
1000
0000
0010
0000
0000
1000
0000
,
0001
0000
0100
0000
0001
1000
0000
0010
,
0000
1000
0000
0001
0000
0010
0000
0100
,
0000
2002
0100
0000
0000
0000
0100
3003
,
0010
0100
0000
0001
0000
0000
1000
0000
,
0010
0000
1000
0000
0010
1000
0000
0100
,
0000
0010
0000
0001
0000
0000
1000
0000
,
0001
0000
0010
0000
0001
1000
0000
0001
,
0000
0100
0000
0001
0000
0000
0000
1000
,
0010
0100
0001
1000
0000
0001
0000
0100
,
0000
0020
0000
0000
0000
0030
1000
0100
,
0010
0000
0100
0000
1000
0000
0000
0000
0001
1000
0001
1000
0002
0000
0003
0000
,
0100
0010
0100
0010
0200
0000
0000
0000
0300
0000
0001
0010
0001
1000
0100
1000
,
0001
0010
0001
1000
0200
0000
0000
0300
0000
1000
0000
0001
0000
0100
0000
0010
,
0000
1000
0000
0100
2000
0000
0000
0000
3000
0000
0001
1000
0000
0010
0000
0100
,
0000
0002
0000
0003
2000
0000
3000
0000
0001
1000
0001
1000
0002
0000
0003
0000
,
0100
0010
0100
0010
0200
0000
0000
0000
0300
0000
0001
0010
0001
1000
0100
1000
,
0001
0010
0001
1000
0200
0000
0000
0300
0000
1000
0000
0001
0000
0100
0000
0010
,
0000
1000
0000
0100
2000
0000
0000
0000
3000
0000
0001
1000
0000
0010
0000
0100
,
0000
0001
0000
0000
1000
0000
0000
0000
0010
0000
0000
0000
0100
0000
0000
0000
,
0001
1000
0010
0100
0000
0002
0000
0003
,
0000
0000
0000
0000
1000
0010
0100
0001
,
1000
0100
2000
0000
3001
0200
0300
0000
,
0000
0000
0010
1000
,
0001
0010
0001
1000
0000
0100
0000
0000
,
1000
0100
0000
0000
1000
0100
0000
0000
,
1000
0100
0000
0000
0000
0000
0000
0000
,
0001
0100
0001
0000
1000
0100
0000
0010
,
0000
0100
0000
0000
0000
0000
0000
0000
,
1000
0000
0001
0000
1000
0100
0000
0010
,
0000
0001
0000
1000
0000
0001
0000
0000
,
0000
0100
0001
0000
1000
0010
0000
0100
,
0000
0001
0000
1000
0000
0000
0000
0000
,
0001
0100
0001
1000
0000
0001
0000
0001
,
0000
0010
0100
1000
0001
0010
0000
0200
,
0000
0300
2002
0000
0000
0000
0000
3003
,
0010
0100
0000
0001
0000
0000
1000
0000
,
0010
0000
1000
0000
0010
1000
0000
0100
,
0000
0010
0000
0001
0000
0000
1000
0000
,
0001
0000
0020
0000
0100
0000
0100
0030
,
0100
1000
0000
0010
0000
0000
1000
0000
,
0001
0000
0100
0000
0001
1000
0000
0010
,
0000
1000
0000
0001
0000
0010
0000
0100
,
0000
2002
0100
0000
0000
0000
0100
3003
,
0010
0100
0000
0001
0000
0000
1000
0000
,
0010
0000
1000
0000
0010
1000
0000
0100
,
0000
0010
0000
0001
0000
0000
1000
0000
,
0001
0000
0010
0000
0001
1000
0000
0001
,
0000
0100
0000
0001
0000
0000
0000
1000
,
0010
0100
0001
1000
0000
0001
0000
0100
,
0000
0020
0000
0000
0000
0030
1000
0100
,
0010
0000
0100
0000
1000
0000
0000
0000
0001
0010
0100
1000
0200
0000
0300
0000
,
1000
0100
0010
0001
0020
0000
0000
0000
0030
0000
0001
0010
0001
1000
0100
0010
,
0001
0010
0100
1000
0200
0000
0000
0300
0000
1000
0000
0001
0000
0100
0000
0010
,
0000
1000
0000
0100
2000
0000
0000
0000
3000
0000
0001
1000
0000
0010
0000
0100
,
0000
0002
0000
0003
2000
0000
3000
0000
0001
0010
0100
1000
0200
0000
0300
0000
,
1000
0100
0010
0001
0020
0000
0000
0000
0030
0000
0001
0010
0001
1000
0100
0010
,
0001
0010
0100
1000
0200
0000
0000
0300
0000
1000
0000
0001
0000
0100
0000
0010
,
0000
1000
0000
0100
2000
0000
0000
0000
3000
0000
0001
1000
0000
0010
0000
0100
,
0000
0001
0000
0000
1000
0000
0000
0000
0001
1000
0001
1000
0002
0000
0003
0000
,
0100
0010
0100
0010
0200
0000
0000
0000
0300
0000
0001
0010
0001
1000
0100
1000
,
0001
0010
0001
1000
0200
0000
0000
0300
0000
1000
0000
0001
0000
0100
0000
0010
,
0000
1000
0000
0100
2000
0000
0000
0000
3000
0000
0001
1000
0000
0010
0000
0100
,
0000
0002
0000
0003
2000
0000
3000
0000
0001
1000
0001
1000
0002
0000
0003
0000
,
0100
0010
0100
0010
0200
0000
0000
0000
0300
0000
0001
0010
0001
1000
0100
1000
,
0001
0010
0001
1000
0200
0000
0000
0300
0000
1000
0000
0001
0000
0100
0000
0010
,
0000
1000
0000
0100
2000
0000
0000
0000
3000
0000
0001
1000
0000
0010
0000
0100
,
0000
0001
0000
0000
0000
0000
0000
0000
0000
0000
0000
0000
0000
0000
0000
0000
;

//--------------- dance-single - LNinja ----------------
#NOTEDATA:;
#STEPSTYPE:dance-single;
#DESCRIPTION:LNinja;
#DIFFICULTY:Edit;
#METER:15;
#RADARVALUES:0.593651,0.722344,0.15,0.772222,0.475,748,721,27,139,0,17,0,0,0,0.593651,0.722344,0.15,0.772222,0.475,748,721,27,139,0,17,0,0,0;
#CHARTNAME:LNinja;
#CHARTSTYLE:;
#CREDIT:LNinja;
#NOTES:
0000
0000
2002
0000
3100
0000
0003
0020
,
0030
0100
0002
0000
1000
0000
0003
1000
,
0100
0010
0202
0000
1000
0000
1000
0000
,
1303
0000
0010
0200
0300
0001
1000
0001
,
0100
0000
0020
0030
1000
0001
1000
0020
,
0030
0000
0000
0000
0000
0000
0100
0000
0000
0000
0000
0000
0001
0000
0000
0000
0000
0000
0000
0000
0000
0000
0000
0000
0000
0000
0000
0000
0001
0000
0000
0000
0000
1000
0000
0000
0001
0000
0000
0000
0000
0000
1000
0000
0000
0000
0000
0000
,
0001
0010
0002
0000
1000
0000
0010
0000
,
1000
0010
1000
0010
,
1000
0010
1000
0010
,
1000
0003
2002
0000
3203
0002
0300
0203
,
0000
0302
2000
0003
0010
0001
3000
1000
,
0001
0010
0200
0000
0001
0000
0001
0300
,
0020
0000
2030
3002
0203
0320
2030
3002
,
0203
0300
0002
0000
2003
3020
0000
0230
,
0000
0320
2030
0000
0010
0001
0000
3001
,
0010
1000
0020
0030
1010
0101
0000
1010
,
0101
0200
0300
0101
0000
1010
0000
2002
,
0000
0000
3003
0000
0220
0000
0330
0000
0001
0010
0100
1000
0200
0000
0300
0000
,
1000
0100
0010
0001
0020
0000
0000
0000
0030
0000
0001
0010
0001
1000
0100
0010
,
0001
0010
0100
1000
0200
0000
0000
0300
0000
1000
0000
0001
0000
0100
0000
0010
,
0000
1000
0000
0100
2000
0000
0000
0000
3000
0000
0001
1000
0000
0010
0000
0100
,
0000
0002
0000
0003
2000
0000
3000
0000
0001
0010
0100
1000
0200
0000
0300
0000
,
1000
0100
0010
0001
0020
0000
0000
0000
0030
0000
0001
0010
0001
1000
0100
0010
,
0001
0010
0100
1000
0200
0000
0000
0300
0000
1000
0000
0001
0000
0100
0000
0010
,
0000
1000
0000
0100
2000
0000
0000
0000
3000
0000
0001
1000
0000
0010
0000
0100
,
0000
0001
0000
0000
1000
0000
0001
0000
0010
0000
0000
0000
0100
0000
0010
0000
,
0001
1000
0010
0100
0000
0002
0000
1003
,
0010
0100
0000
0000
1000
0010
0100
0001
,
1000
0000
0100
0000
2000
0000
0000
0000
3001
0000
0200
0000
0300
0000
0001
0010
,
0100
1000
0100
1000
0000
0000
0000
0000
0020
0000
0000
0000
1030
0000
0001
0000
,
0001
0010
0001
1000
0000
0100
0000
0000
,
1010
0101
0000
0000
1010
0101
0000
0000
,
1010
0000
0101
0000
1000
0100
0010
0001
0010
0100
1000
0100
0010
0000
0001
0000
,
1000
1000
0001
0000
1000
0100
0000
0010
,
0000
0200
0000
1000
0000
0001
0000
0000
,
1300
0000
0002
0000
1003
0200
0010
0320
,
0001
0032
1000
2003
0000
3002
0100
0000
,
0000
0103
0002
0000
2003
0020
3000
0230
,
0000
0302
0000
2003
0000
0001
0000
0001
,
3001
0100
0001
1000
0000
0001
1000
0001
,
0000
0010
0100
1000
0001
0020
0000
0200
,
0000
0330
2002
0000
0100
0000
0100
3003
,
0010
0200
0000
0301
0000
1000
1000
0000
,
0010
0000
1000
0000
0010
2000
0100
3200
,
0010
0320
0001
0032
1000
1003
1000
0000
,
0001
0000
0020
0000
0100
0000
0100
0030
,
0100
1000
0000
0010
0000
1000
1000
0000
,
0001
0000
0100
0000
0001
1000
0000
0010
,
0000
2000
0001
3002
0010
0023
0100
0230
,
0000
2302
0100
0000
0100
0000
0100
3003
,
0010
0100
0000
0001
0000
1000
1000
0000
,
0001
0000
1000
0000
0010
2000
0100
3200
,
0010
0320
0001
0032
1000
1003
1000
0000
,
0001
0000
0010
0000
0001
1000
0000
0001
,
0000
0100
0000
0001
0000
0000
1000
1000
,
0010
0100
0001
1000
0000
0001
0000
0100
,
0000
0020
1000
0000
1000
0030
1000
0100
,
0010
0000
0100
0000
1000
0000
0000
0000
0001
1000
0001
1000
0002
0000
0003
0000
,
0100
0010
0100
0010
0200
0000
0000
0000
0300
0000
0001
0010
0001
1000
0100
1000
,
0001
0010
0001
1000
0200
0000
0000
0300
0000
1000
0000
0001
0000
0100
0000
0010
,
0000
1000
0000
0100
2000
0000
0000
0000
3000
0000
0001
1000
0000
0010
0000
0100
,
0000
0002
0000
0003
2000
0000
3000
0000
0001
1000
0001
1000
0002
0000
0003
0000
,
0100
0010
0100
0010
0200
0000
0000
0000
0300
0000
0001
0010
0001
1000
0100
1000
,
0001
0010
0001
1000
0200
0000
0000
0300
0000
1000
0000
0001
0000
0100
0000
0010
,
0000
1000
0000
0100
2000
0000
0000
0000
3000
0000
0001
1000
0000
0010
0000
0100
,
0000
0001
0000
0000
1000
0000
0000
0000
0010
0000
0000
0000
0100
0000
0000
0000
,
0001
1000
0010
0100
0000
0002
0000
1003
,
0000
1000
0000
0001
1000
0010
0100
0001
,
1000
0000
0100
0000
2000
0000
0000
0000
3001
0000
0200
0000
0301
0010
0100
1000
,
0100
1000
0100
0000
0000
0000
0000
0000
0010
0000
1000
0000
1000
0000
0010
0000
,
0100
0010
0100
0001
0000
0100
0000
0000
,
1010
0101
0000
0000
1010
0101
0000
0000
,
1010
0000
0101
0000
1000
0100
0010
0001
0010
0100
1000
0100
0010
0000
0001
0000
,
0001
0100
0001
0000
1000
0100
0000
0010
,
0000
0200
0001
0000
1000
0000
0001
0000
,
1300
0000
0001
0000
1000
0100
0000
0010
,
0000
0000
0001
0000
0000
0000
1000
0000
0000
0000
0001
0010
0100
1000
0100
0010
,
0001
0100
0001
0000
1000
0010
0000
0100
,
0000
0001
0000
2000
0001
0000
0010
0000
,
3001
0100
0001
1000
0000
0001
0000
0001
,
0000
0010
0100
1000
0001
0010
0000
0200
,
0000
0300
2002
0000
0100
0000
0100
3003
,
0010
0100
0000
0001
0000
1000
1000
0000
,
0010
0000
1000
0000
0010
2000
0100
3200
,
0010
0320
0001
0032
1000
1003
1000
0000
,
0001
0000
0020
0000
0100
0000
1000
0030
,
0100
1000
0000
0010
0000
1000
1000
0000
,
0001
0000
0100
0000
0001
1000
0000
0010
,
0000
1000
0000
0002
0010
0023
0100
0230
,
0000
2302
0100
0000
0100
0000
0100
3003
,
0010
0100
0000
0001
0000
1000
1000
0000
,
0010
0000
1000
0000
0010
2000
0100
3200
,
0010
0320
0001
0032
1000
1003
1000
0000
,
0001
0000
0010
0000
0001
1000
0000
0001
,
0000
0100
0000
0001
0000
0000
1000
1000
,
0010
0100
0001
1000
0000
0001
0000
0100
,
0000
0020
1000
0000
1000
0030
1000
0100
,
0010
0000
0100
0000
1000
0000
0000
0000
0001
0010
0100
1000
0200
0000
0300
0000
,
1000
0100
0010
0001
0020
0000
0000
0000
0030
0000
0001
0010
0001
1000
0100
0010
,
0001
0010
0100
1000
0200
0000
0000
0300
0000
1000
0000
0001
0000
0100
0000
0010
,
0000
1000
0000
0100
2000
0000
0000
0000
3000
0000
0001
1000
0000
0010
0000
0100
,
0000
0002
0000
0003
2000
0000
3000
0000
0001
0010
0100
1000
0200
0000
0300
0000
,
1000
0100
0010
0001
0020
0000
0000
0000
0030
0000
0001
0010
0001
1000
0100
0010
,
0001
0010
0100
1000
0200
0000
0000
0300
0000
1000
0000
0001
0000
0100
0000
0010
,
0000
1000
0000
0100
2000
0000
0000
0000
3000
0000
0001
1000
0000
0010
0000
0100
,
0000
0001
0000
0000
1000
0000
0000
0000
0001
1000
0001
1000
0002
0000
0003
0000
,
0100
0010
0100
0010
0200
0000
0000
0000
0300
0000
0001
0010
0001
1000
0100
1000
,
0001
0010
0001
1000
0200
0000
0000
0300
0000
1000
0000
0001
0000
0100
0000
0010
,
0000
1000
0000
0100
2000
0000
0000
0000
3000
0000
0001
1000
0000
0010
0000
0100
,
0000
0002
0000
0003
2000
0000
3000
0000
0001
1000
0001
1000
0002
0000
0003
0000
,
0100
0010
0100
0010
0200
0000
0000
0000
0300
0000
0001
0010
0001
1000
0100
1000
,
0001
0010
0001
1000
0200
0000
0000
0300
0000
1000
0000
0001
0000
0100
0000
0010
,
0000
1000
0000
0100
2000
0000
0000
0000
3000
0000
0001
1000
0000
0010
0000
0100
,
0000
0001
0000
0000
0000
0000
0000
0000
0000
0000
0000
0000
0000
0000
0000
0000
;
