#TITLE:Bad Apple!!;
#SUBTITLE:pjsekai ver;
#ARTIST:beatMARIO, Maron, marasy, Masayoshi Minoshima;
#TITLETRANSLIT:;
#SUBTITLETRANSLIT:;
#ARTISTTRANSLIT:;
#GENRE:;
#CREDIT:Alstroemeria Records, ZUN;
#MUSIC:pjsekai Bad Apple!!.ogg;
#BANNER:pjsekai Bad Apple!!-bn.png;
#BACKGROUND:pjsekai Bad Apple!!-bg.png;
#CDTITLE:cdtitlelninja.png;
#SAMPLESTART:0.000;
#SAMPLELENGTH:0.000;
#SELECTABLE:YES;
#OFFSET:-0.087;
#BPMS:0.000=138.000;
#STOPS:;
#BGCHANGES:;
#FGCHANGES:;

//--------------- dance-single - LNinja ----------------
#NOTES:
     dance-single:
     LNinja:
     Hard:
     15:
     0,0,0,0,0:
0000
0000
0000
0000
,
0000
0000
0000
0000
,
1001
0000
0000
0000
0100
0000
0000
0000
0010
0000
0000
0000
0100
0010
0100
0010
,
0100
0000
1001
0000
0010
0000
1000
0001
,
1001
0000
0000
0000
0100
0000
0000
0000
0010
0000
0000
0000
1000
0001
1000
0001
,
1000
0000
0100
0000
0010
0000
0001
0100
,
1001
0000
0000
0000
0010
0000
0000
0000
0100
0000
0000
0000
0001
0010
0001
0010
,
0001
0000
1000
0000
0100
0000
0010
0001
,
1001
0000
0000
0000
0100
0000
0000
0000
0010
0000
0000
0000
1000
0100
1000
0100
,
1000
0001
0100
1001
,
0020
0000
0000
0130
0000
0001
0010
0100
2000
0000
0000
3010
0000
0100
0001
0010
,
0200
0000
0000
1300
0000
0001
0100
0010
2000
0000
3010
1000
0002
0000
0103
0001
,
0020
0000
0000
0130
0000
0001
1000
0100
0020
0000
0000
0031
0000
1000
0010
0100
,
0002
0000
0000
0013
0000
0100
1000
0001
0100
0010
0100
0001
0010
0100
1000
0001
,
0200
0000
0000
0310
0000
1000
0001
0010
0200
0000
0000
1300
0000
0010
0100
0001
,
2000
0000
0000
3010
0000
0100
0001
0010
0200
0000
1300
0001
0200
0000
0310
0100
,
0002
0000
0000
0013
0000
0100
1000
0001
0020
0000
0000
0130
0000
1000
0001
0100
,
0020
0000
0000
0000
0000
0000
0000
0000
0000
1030
0000
0000
0000
0000
0000
0001
0000
0000
0010
0000
0000
0001
0000
0000
0100
0000
0000
0000
0010
0000
0000
0000
0100
0000
0000
0000
0001
0000
0000
0000
1000
0000
0000
0000
0001
0000
0000
0000
,
1001
0100
0010
1000
0001
0000
0011
1100
,
1001
0000
0110
0000
1000
0010
0001
0100
,
1000
0100
0001
0010
1000
0000
0100
0010
,
2000
0100
3002
0100
2003
0100
3001
0100
,
1010
0100
0001
0010
0100
0000
1010
0101
,
1001
0000
0110
0000
0001
0100
1000
0010
,
0001
0010
1000
0100
0001
0000
0011
1001
,
0101
0000
0000
1010
0000
0000
1000
0100
0010
0001
0010
0100
,
1000
0001
1000
0100
0001
0000
1010
0101
,
1002
0000
0100
0000
0013
0100
1000
0010
,
0001
0100
0010
0001
1000
0000
0100
0010
,
0002
0010
2003
0010
3002
0010
1003
0010
,
0001
0100
0010
1000
0101
0000
0011
1100
,
2001
0000
0100
0000
3010
0001
0010
1000
,
0001
0010
0100
0001
2000
0000
3100
0010
,
1001
0000
0000
0110
0000
0000
0001
0010
0100
1000
0100
0010
,
0001
0100
0010
0100
2001
0000
3100
0001
,
0010
1000
0010
0100
1002
0000
0103
1000
,
0010
0001
0010
0100
1001
0000
0010
0001
,
2001
0100
3002
0100
1003
0001
0100
0010
,
1000
0010
0100
0001
2001
0000
3100
0010
,
0001
0100
1000
0100
1002
0000
0013
0100
,
1000
0010
0001
0010
1001
0000
0100
0010
,
2000
0000
0000
0010
0000
0000
3002
0000
0000
0010
0000
0000
1003
0000
0010
0000
1000
0000
0001
0000
0010
0000
0001
0000
,
1000
0100
1001
0010
0100
0000
1010
0110
,
0101
1001
1100
0110
1001
0000
1100
1001
,
0101
0110
1100
1001
0110
0000
1010
0011
,
0101
1100
0101
0011
1010
0000
2000
0100
,
0001
0010
0100
0001
3001
0000
0002
0100
,
1000
0010
0100
1000
1003
0000
0200
0010
,
0302
0000
0010
0000
2003
0000
0100
0000
3020
0000
0000
0000
0031
1000
0001
1000
,
0001
0000
0100
0000
0010
0000
1000
0000
0001
0000
0000
0000
0010
0100
0010
0100
,
0002
0100
1000
0100
,
2003
0010
0001
0010
,
3020
0100
1000
0100
,
0230
0010
0001
0010
,
0302
1000
0203
1000
,
0320
0001
2030
0001
,
3202
0300
2000
3000
2203
0300
0002
0003
,
3220
0000
0000
0300
0000
0000
2000
0000
0000
3000
0000
0000
1030
0000
0100
0000
0010
0000
0100
0000
0010
0000
0001
0000
,
1000
0110
0001
1001
0100
0000
0101
0010
,
1000
1100
0010
0001
1001
0000
1100
0001
,
0100
1010
0100
0001
1001
0000
0110
0001
,
1000
1010
0001
0100
1001
0000
0001
0010
,
1000
0010
0001
0100
0010
0000
1000
0100
,
0001
0100
2000
0010
3100
0000
0010
0001
,
0010
0100
0001
1000
0010
0001
0100
1000
,
0001
0010
1000
0001
1100
0000
0011
0000
,
1001
0000
0000
0000
0000
0000
0000
0000
0000
0000
0000
0000
0000
0000
0000
0000
0000
0000
0000
0000
0000
0000
0000
0000
0010
0000
0000
0000
0000
0000
0000
0000
0000
0000
0000
0000
0000
0000
0000
0000
0000
0000
0000
0000
0000
0000
0000
0000
0100
0000
0000
0000
0000
0000
0000
0000
0000
0000
0000
0000
0010
0000
0000
0000
0000
0000
0000
0000
0000
0000
0000
0000
0000
0000
0000
0000
0000
0000
0000
0000
0000
0000
0000
0000
0010
0000
0000
0000
0000
0000
0000
0000
0000
0000
0000
0000
0000
0000
0000
0000
0000
0000
0000
0000
0000
0000
0000
0000
4000
0000
0000
0000
0000
0000
0000
0000
0000
0000
0000
0000
0000
0000
0000
0000
0000
0000
0000
0000
0000
0000
0000
3000
0400
0300
0000
0000
0000
0000
0000
0000
0000
0000
0000
0000
0000
0000
0000
0000
0000
0000
0000
0000
0000
0000
0000
0000
0004
0000
0000
0000
0000
0000
0000
0000
0000
0000
0000
0000
0000
0000
0000
0000
0000
0000
0000
0000
0000
0000
0000
0003
0040
0030
0000
0000
0000
0000
0000
0000
0000
0000
0000
0000
,
0000
0000
0000
0000
0000
0000
0000
0000
0000
0000
0000
0000
4000
0000
0000
0000
0000
0000
0000
0000
0000
0000
0000
0000
0000
0000
0000
0000
0000
0000
0000
0000
3400
0000
0000
0000
0000
0000
0000
0000
0000
0000
0000
0000
0000
0000
0000
0000
0304
0000
0000
0000
0000
0000
0000
0000
0000
0000
0000
0000
0000
0000
0000
0000
0000
0000
0000
0000
0000
0000
0000
0000
0043
0000
0000
0000
0000
0000
0000
0000
0000
0000
0000
0000
0000
0000
0000
0000
0000
0000
0000
0000
0000
0000
0000
0000
0430
0300
0000
0000
0000
0000
0000
0000
0000
0000
0000
0000
0000
0000
0000
0000
0000
0000
0000
0000
0000
0000
0000
0000
1001
0000
0000
0000
0000
0000
0000
0000
0000
0000
0000
0000
0000
0000
0000
0000
0000
0000
0000
0000
0000
0000
0000
0000
0010
0000
0000
0000
0000
0000
0000
0000
0000
0000
0000
0000
0100
0000
0000
0000
0000
0000
0000
0000
0000
0000
0000
0000
0000
0000
0000
0000
0000
0000
0000
0000
0000
0000
0000
0000
1001
0000
0000
0000
0000
0000
0000
0000
0000
0000
0000
0000
,
0000
0040
0030
0000
0000
1000
0010
0100
0002
0000
0000
0000
1003
0000
0100
0000
,
0004
0000
0000
0000
0000
0000
0000
0000
0000
0000
0000
0000
0403
0300
0000
0000
0000
0000
0000
0000
0000
0000
0000
0000
0000
0000
0000
0000
0000
0000
0000
0000
0000
0000
0000
0000
4000
0000
0000
0000
0000
0000
0000
0000
0000
0000
0000
0000
3400
0300
0000
0000
0000
0000
0000
0000
0000
0000
0000
0000
0000
0000
0000
0000
0000
0000
0000
0000
0000
0000
0000
0000
0010
0000
0000
0000
0000
0000
0000
0000
0000
0000
0000
0000
0000
0000
0000
0000
0000
0000
0000
0000
0000
0000
0000
0000
0002
0000
0000
0000
0000
0000
0000
0000
0000
0000
0000
0000
0000
0000
0000
0000
0000
0000
0000
0000
0000
0000
0000
0000
0000
0000
0000
0000
0000
0000
0000
0000
0000
0000
0000
0000
0203
0000
0000
0000
0000
0000
0000
0000
0000
0000
0000
0000
0000
0000
0000
0000
0000
0000
0000
0000
0000
0000
0000
0000
0000
0000
0000
0000
0000
0000
0000
0000
0000
0000
0000
0000
1300
0000
0000
0000
0000
0000
0000
0000
0000
0000
0000
0000
0000
0000
0000
0000
0000
0000
0000
0000
0000
0000
0000
0000
,
0000
0010
0100
0000
0101
0000
1010
0000
0101
0000
0011
0000
1100
0000
0010
0001
,
4000
0000
0000
0000
0000
0000
0000
0000
0000
0000
0000
0000
3400
0300
0000
0000
0000
0000
0000
0000
0000
0000
0000
0000
0000
0000
0000
0000
0000
0000
0000
0000
0000
0000
0000
0000
0000
0000
0000
0000
0000
0000
0000
0000
0000
0000
0000
0000
0004
0000
0000
0000
0000
0000
0000
0000
0000
0000
0000
0000
0403
0300
0000
0000
0000
0000
0000
0000
0000
0000
0000
0000
0000
0000
0000
0000
0000
0000
0000
0000
0000
0000
0000
0000
0000
0000
0000
0000
0000
0000
0000
0000
0000
0000
0000
0000
1100
0000
0000
0000
0000
0000
0000
0000
0000
0000
0000
0000
0000
0000
0000
0000
0000
0000
0000
0000
0000
0000
0000
0000
0101
0000
0000
0000
0000
0000
0000
0000
0000
0000
0000
0000
0000
0000
0000
0000
0000
0000
0000
0000
0000
0000
0000
0000
1100
0000
0000
0000
0000
0000
0000
0000
0000
0000
0000
0000
0000
0000
0000
0000
0000
0000
0000
0000
0000
0000
0000
0000
0004
0000
0000
0000
0000
0000
0000
0000
0000
0000
0000
0000
0000
0000
0000
0000
0000
0000
0000
0000
0000
0000
0000
0000
,
4043
0030
0000
0000
0000
0000
0000
0000
0000
0000
0000
0000
0000
0000
0000
0000
0000
0000
0000
0000
0000
0000
0000
0000
3400
0000
0000
0000
0000
0000
0000
0000
0000
0000
0000
0000
0000
0000
0000
0000
0000
0000
0000
0000
0000
0000
0000
0000
0344
0030
0000
0000
0000
0000
0000
0000
0000
0000
0000
0000
0000
0000
0000
0000
0000
0000
0000
0000
0000
0000
0000
0000
0043
0000
0000
0000
0000
0000
0000
0000
0000
0000
0000
0000
0000
0000
0000
0000
0000
0000
0000
0000
0000
0000
0000
0000
4430
0300
0000
0000
0000
0000
0000
0000
0000
0000
0000
0000
0000
0000
0000
0000
0000
0000
0000
0000
0000
0000
0000
0000
3400
0000
0000
0000
0000
0000
0000
0000
0000
0000
0000
0000
0000
0000
0000
0000
0000
0000
0000
0000
0000
0000
0000
0000
0344
0030
0000
0000
0000
0000
0000
0000
0000
0000
0000
0000
0000
0000
0000
0000
0000
0000
0000
0000
0000
0000
0000
0000
0043
0000
0000
0000
0000
0000
0000
0000
0000
0000
0000
0000
0000
0000
0000
0000
0000
0000
0000
0000
0000
0000
0000
0000
,
4430
0300
0000
0000
0000
0000
0000
0000
0000
0000
0000
0000
0000
0000
0000
0000
3040
0000
0000
0000
0000
0000
0000
0000
0000
0000
0000
0000
0000
0000
0000
0000
0034
0000
0000
0000
0000
0000
0000
0000
0000
0000
0000
0000
0000
0000
0000
0000
4003
0000
0000
0000
0000
0000
0000
0000
0000
0000
0000
0000
0000
0000
0000
0000
0000
0000
0000
0000
0000
0000
0000
0000
3004
0000
0000
0000
0000
0000
0000
0000
0000
0000
0000
0000
0000
0000
0000
0000
0000
0000
0000
0000
0000
0000
0000
0000
0403
0000
0000
0000
0000
0000
0000
0000
0000
0000
0000
0000
0000
0000
0000
0000
0340
0000
0000
0000
0000
0000
0000
0000
0000
0000
0000
0000
0000
0000
0000
0000
0000
0000
0000
0000
0000
0000
0000
0000
0000
0000
0000
0000
0000
0000
0000
0000
0430
0000
0000
0000
0000
0000
0000
0000
0000
0000
0000
0000
0000
0000
0000
0000
0304
0000
0000
0000
0000
0000
0000
0000
0000
0000
0000
0000
0000
0000
0000
0000
0000
0000
0000
0000
0000
0000
0000
0000
0000
0000
0000
0000
0000
0000
0000
0000
,
1043
0030
0000
0000
0000
0000
0000
0000
0000
0000
0000
0000
0000
0000
0000
0000
0000
0000
0000
0000
0000
0000
0000
0000
0100
0000
0000
0000
0000
0000
0000
0000
0000
0000
0000
0000
0000
0000
0000
0000
0000
0000
0000
0000
0000
0000
0000
0000
0001
0000
0000
0000
0000
0000
0000
0000
0000
0000
0000
0000
0000
0000
0000
0000
0000
0000
0000
0000
0000
0000
0000
0000
0100
0000
0000
0000
0000
0000
0000
0000
0000
0000
0000
0000
0000
0000
0000
0000
0000
0000
0000
0000
0000
0000
0000
0000
1000
0000
0000
0000
0000
0000
0000
0000
0000
0000
0000
0000
0000
0000
0000
0000
0000
0000
0000
0000
0000
0000
0000
0000
0000
0000
0000
0000
0000
0000
0000
0000
0000
0000
0000
0000
0000
0000
0000
0000
0000
0000
0000
0000
0000
0000
0000
0000
0001
0000
0000
0000
0000
0000
0000
0000
0000
0000
0000
0000
0000
0000
0000
0000
0000
0000
0000
0000
0000
0000
0000
0000
0010
0000
0000
0000
0000
0000
0000
0000
0000
0000
0000
0000
0000
0000
0000
0000
0000
0000
0000
0000
0000
0000
0000
0000
,
2000
0000
0000
0000
0000
0000
0000
0000
0000
0000
0000
0000
0000
0000
0000
0000
0000
0000
0000
0000
0000
0000
0000
0000
0000
0000
0000
0000
0000
0000
0000
0000
0000
0000
0000
0000
0000
0000
0000
0000
0000
0000
0000
0000
0000
0000
0000
0000
0000
0000
0000
0000
0000
0000
0000
0000
0000
0000
0000
0000
0000
0000
0000
0000
0000
0000
0000
0000
0000
0000
0000
0000
0040
0000
0000
0000
0000
0000
0000
0000
0000
0000
0000
0000
0000
0000
0000
0000
0000
0000
0034
0003
0000
0000
0000
0000
0000
0000
0000
0000
0000
0000
0000
0000
0000
0000
0000
0000
0000
0000
0000
0000
0000
0000
0000
0000
0000
0000
0000
0000
0000
0000
0000
0000
0000
0000
0000
0000
0000
0000
0000
0000
0000
0000
0000
0000
0000
0000
0000
0000
0000
0000
0000
0000
3100
0000
0000
0000
0000
0000
0000
0000
0000
0000
0000
0000
0000
0000
0000
0000
0000
0000
0000
0000
0000
0000
0000
0000
0010
0000
0000
0000
0000
0000
0000
0000
0000
0000
0000
0000
0000
0000
0000
0000
0000
0000
0000
0000
0000
0000
0000
0000
,
0001
0100
1000
0100
0002
0000
0013
0100
,
2000
0000
3010
0000
0004
0043
0430
0300
,
0001
0010
1000
0100
0001
0000
1000
0010
,
0001
0100
1000
0100
0010
0000
1000
0100
,
0001
0010
1000
0010
0100
0000
1000
0010
,
0100
0000
0000
0000
0000
0000
0000
0000
0000
0000
0000
0000
0000
0000
0000
0000
0000
0000
0000
0000
0000
0000
0000
0000
0001
0000
0000
0000
0000
0000
0000
0000
0000
0000
0000
0000
0000
0000
0000
0000
0000
0000
0000
0000
0000
0000
0000
0000
1000
0000
0000
0000
0000
0000
0000
0000
0000
0000
0000
0000
0010
0000
0000
0000
0000
0000
0000
0000
0000
0000
0000
0000
0100
0000
0000
0000
0000
0000
0000
0000
0000
0000
0000
0000
0001
0000
0000
0000
0000
0000
0000
0000
0000
0000
0000
0000
4000
0000
0000
0000
0000
0000
0000
0000
0000
0000
0000
0000
0000
0000
0000
0000
0000
0000
0000
0000
0000
0000
0000
0000
3400
0300
0000
0000
0000
0000
0000
0000
0000
0000
0000
0000
0000
0000
0000
0000
0000
0000
0000
0000
0000
0000
0000
0000
0040
0000
0000
0000
0000
0000
0000
0000
0000
0000
0000
0000
0000
0000
0000
0000
0000
0000
0000
0000
0000
0000
0000
0000
0034
0003
0000
0000
0000
0000
0000
0000
0000
0000
0000
0000
0000
0000
0000
0000
0000
0000
0000
0000
0000
0000
0000
0000
,
4400
3300
0000
0000
0000
0000
0000
0000
;

//--------------- dance-single - LNinja ----------------
#NOTES:
     dance-single:
     LNinja:
     Challenge:
     17:
     0,0,0,0,0:
0000
0000
0000
0000
,
0000
0000
0000
0000
,
1001
0000
0000
0000
0101
0000
0000
0000
1100
0000
0000
0000
0001
0100
0001
0100
,
0001
0000
1100
0000
0101
0000
1001
1001
,
0110
0000
0000
0000
1010
0000
0000
0000
0011
0000
0000
0000
1000
0100
1000
0100
,
1000
0000
0011
0000
1010
0000
0110
0110
,
1001
0000
0100
0000
0010
0000
1000
0000
0001
0000
0100
0000
0001
0010
0001
0010
,
0001
0100
1010
0100
0001
0010
1000
0100
,
0001
0000
0010
0000
1000
0000
0010
0000
0001
0000
0100
0000
1000
0010
1000
0010
,
1000
0001
0010
1000
0100
0000
1001
0000
,
2020
0000
3232
0303
0000
1000
0010
0100
0202
0000
2323
3030
0000
0001
0010
0100
,
2200
0000
3322
0033
0000
1000
0001
0010
2001
0000
3001
0100
0002
0000
1003
0100
,
0022
0000
2233
3300
0000
0010
0100
0001
2002
0000
3223
0330
0000
0100
0010
0100
,
1000
0100
0010
0001
0100
0010
0100
0010
1000
0001
1000
0010
1000
0100
0010
1000
,
0040
0400
0000
0000
0330
1100
0010
0000
,
0011
0000
0010
0000
1010
0000
0100
0000
0101
0000
0100
0000
1100
0000
0001
0010
,
0100
1000
0001
0010
0100
1000
0001
0010
0100
1000
0001
0000
0100
0000
1000
0000
,
4004
0000
0000
0000
0000
0000
0000
0000
0000
0000
0000
0000
0000
0000
0000
0000
0000
0000
0000
0000
0000
3003
0000
0000
0110
0000
0000
0000
0110
0000
0000
0000
0110
0000
0000
0000
1001
0000
0000
0000
1001
0000
0000
0000
1001
0000
0000
0000
,
0002
1023
0230
0321
0130
1000
1020
0230
,
2302
0100
3203
0010
0302
0013
2000
3010
,
0201
2310
3200
0302
1013
0000
1100
0010
,
2000
0000
0000
0000
0000
0000
0000
0000
0000
0000
0000
0000
0000
0000
0000
0000
0000
0000
0000
0000
0000
0000
0000
0000
0200
0000
0000
0000
0000
0000
0000
0000
0000
0000
0000
0000
0000
0000
0000
0000
0000
0000
0000
0000
0000
0000
0000
0000
3302
0000
0000
0000
0000
0000
0000
0000
0000
0000
0000
0000
0000
0000
0000
0000
0000
0000
0000
0000
0000
0000
0000
0000
0200
0000
0000
0000
0000
0000
0000
0000
0000
0000
0000
0000
0000
0000
0000
0000
0000
0000
0000
0000
0000
0000
0000
0000
2303
0000
0000
0000
0000
0000
0000
0000
0000
0000
0000
0000
0000
0000
0000
0000
0000
0000
0000
0000
0000
0000
0000
0000
0200
0000
0000
0000
0000
0000
0000
0000
0000
0000
0000
0000
0000
0000
0000
0000
0000
0000
0000
0000
0000
0000
0000
0000
3302
0000
0000
0000
0000
0000
0000
0000
0000
0000
0000
0000
0000
0000
0000
0000
0000
0000
0000
0000
0000
0000
0000
0000
0203
0300
0000
0000
0000
0000
0000
0000
0000
0000
0000
0000
0000
0000
0000
0000
0000
0000
0000
0000
0000
0000
0000
0000
,
1100
0010
0102
1023
0130
0000
0011
1010
,
0200
0001
0302
1000
2003
0010
3020
1030
,
0012
0000
0123
0000
1230
0000
2301
0000
3020
0030
0000
0000
0100
0000
0100
0000
,
1001
0000
0000
0100
0000
0000
1001
0000
0000
0010
0000
0000
1000
0000
1000
0000
1000
0000
0001
0000
0001
0000
0001
0000
,
1000
0000
0010
0100
1000
0000
0100
0010
0001
0000
0010
0100
0001
0000
0100
0010
,
1000
0000
0001
0010
0100
0000
1000
0100
0010
0000
0001
0010
0001
0100
0010
1000
,
0100
0000
0010
0001
0100
0000
0100
0010
1000
0000
0001
0100
1000
0000
1000
0100
,
0001
1000
0010
0001
0100
1000
0001
0010
1000
0100
0001
1000
0100
1000
0001
0100
,
1000
0000
0100
0010
1000
0000
0010
0100
0001
0000
0100
0010
0001
0000
0010
0100
,
1000
0000
1000
0100
0010
0000
0001
0010
0100
0000
0010
0100
0001
0000
0110
0000
,
1000
0010
0100
0010
0100
0001
0010
0100
1000
0001
0100
0010
1000
0010
0100
0001
,
1000
0000
0000
1001
0000
0000
0110
0110
0110
1001
1001
1001
,
1001
0000
0001
0000
0011
0000
0101
0000
1001
0000
0010
0100
0001
0000
0100
0010
,
1000
0000
1000
0000
1100
0000
1010
0000
1001
0000
0100
0010
1000
0000
0110
0000
,
1001
0000
0100
0000
1100
0000
0110
0000
0011
0000
0100
0010
1000
0000
0010
0100
,
2000
3101
1002
1013
0101
0000
1001
0100
,
1001
0000
0010
0000
0100
0000
0110
0000
1001
0000
0001
0010
0001
0000
1000
0100
,
1000
0000
0010
0000
0001
0000
0010
0000
1000
0000
0010
0100
0010
0000
0100
0010
,
0100
0000
0001
0000
0010
0000
1000
0000
0100
0000
0010
0001
0100
0000
0010
1000
,
0100
0000
0000
0100
0000
0000
0020
0000
0000
0100
0000
0000
1030
0000
0100
0000
0010
0000
0001
0000
0010
0000
0100
0000
,
2000
3201
1302
1023
1031
0000
0110
0011
,
1002
1023
2030
3201
0301
0000
0101
1001
,
2100
3210
0321
0032
1003
0000
1010
1001
,
0012
0123
1230
2300
3001
0000
1000
0001
,
0010
0100
0010
0001
1000
0000
0001
1000
,
0100
0010
0100
1000
0001
0000
2001
3200
,
0001
0000
1301
0000
1002
0000
0203
0000
1000
0000
0310
1000
0001
1000
0001
1000
,
0002
0023
2030
3200
0302
0003
0100
0010
,
1002
0010
0023
0100
2230
3300
0102
1000
,
2003
0100
3200
0010
0322
0033
2010
0001
,
3002
0010
0023
0100
2230
3300
0012
0100
,
0203
0010
0320
0001
0032
0003
2010
0100
,
3002
0010
2003
0100
3002
0003
0102
0010
,
2003
0100
3002
0010
2003
3000
0020
0200
,
0032
0320
0203
2030
0320
3030
0200
0020
,
2300
0000
0000
0230
0000
0000
3020
0000
0000
0302
0000
0000
1033
0000
1000
0000
0110
0000
0001
0000
0001
0000
0110
0000
,
2000
3001
1010
0100
1001
0000
1001
0100
,
0010
1001
0010
0100
1001
0000
1001
0010
,
0100
1001
0100
0010
1001
0000
0001
0110
,
1000
0110
0001
0110
1000
0000
1001
0100
,
1001
0010
1001
0100
1001
0000
0101
1010
,
1100
0011
1001
0110
1001
0000
0200
0001
,
1000
0320
0001
2000
0032
3003
0022
0233
,
2320
3232
0323
2032
3103
0000
0101
0000
,
1001
0000
0010
0000
0100
0010
0000
0110
0000
1000
0010
0010
0000
0100
0001
0001
,
0000
1000
0010
1000
0001
0100
0001
0100
0001
0000
1010
0000
0001
0100
0000
0101
,
0000
1010
1010
0000
0000
1000
0100
0010
0102
0000
0000
0000
1003
0000
0101
0000
,
1000
0000
0000
0000
0000
0000
0000
0000
0000
0000
0000
0000
1010
0000
0000
0000
0000
0000
0000
0000
0000
0000
0000
0000
0000
0000
0000
0000
0000
0000
0000
0000
0000
0000
0000
0000
0001
0000
0000
0000
0000
0000
0000
0000
0000
0000
0000
0000
0201
0000
0000
0000
0000
0000
0000
0000
0000
0000
0000
0000
0000
0000
0000
0000
0000
0000
0000
0000
0000
0000
0000
0000
0040
0030
0000
0000
0000
0000
0000
0000
0000
0000
0000
0000
0000
0000
0000
0000
0000
0000
0000
0000
0000
0000
0000
0000
0302
0000
0000
0000
0000
0000
0000
0000
0000
0000
0000
0000
0000
0000
0000
0000
0000
0000
0000
0000
0000
0000
0000
0000
0000
0000
0000
0000
0000
0000
0000
0000
0000
0000
0000
0000
2043
0030
0000
0000
0000
0000
0000
0000
0000
0000
0000
0000
0000
0000
0000
0000
0000
0000
0000
0000
0000
0000
0000
0000
0000
0000
0000
0000
0000
0000
0000
0000
0000
0000
0000
0000
3401
0300
0000
0000
0000
0000
0000
0000
0000
0000
0000
0000
0000
0000
0000
0000
0000
0000
0000
0000
0000
0000
0000
0000
,
0000
1000
1000
0000
0001
0010
0100
1000
0001
0000
0110
0000
1010
0000
0010
0100
,
0001
0001
0000
0000
0110
0110
0000
0000
0101
0000
1001
0000
1010
0000
0010
0010
,
4000
3400
0340
0034
4003
3400
0340
0034
4003
3400
0340
0034
4003
3400
0340
0034
,
4003
3400
0000
0340
4030
3400
0000
0340
0430
0340
0000
0034
0403
0340
0000
0034
,
1003
0100
0010
0100
1010
0000
0100
0010
,
2100
0000
0000
0000
0000
0000
0000
0000
0000
0000
0000
0000
0000
0000
0000
0000
0000
0000
0000
0000
0000
0000
0000
0000
0000
0000
0000
0000
0000
0000
0000
0000
0000
0000
0000
0000
0000
0000
0000
0000
0000
0000
0000
0000
0000
0000
0000
0000
0000
0000
0000
0000
0000
0000
0000
0000
0000
0000
0000
0000
0000
0000
0000
0000
0000
0000
0000
0000
0000
0000
0000
0000
0040
0000
0000
0000
0000
0000
0000
0000
0000
0000
0000
0000
0000
0000
0000
0000
0000
0000
0034
0003
0000
0000
0000
0000
0000
0000
0000
0000
0000
0000
0000
0000
0000
0000
0000
0000
0000
0000
0000
0000
0000
0000
0000
0000
0000
0000
0000
0000
0000
0000
0000
0000
0000
0000
0000
0000
0000
0000
0000
0000
0000
0000
0000
0000
0000
0000
0000
0000
0000
0000
0000
0000
3100
0000
0000
0000
0000
0000
0000
0000
0000
0000
0000
0000
0000
0000
0000
0000
0000
0000
0000
0000
0000
0000
0000
0000
0010
0000
0000
0000
0000
0000
0000
0000
0000
0000
0000
0000
0000
0000
0000
0000
0000
0000
0000
0000
0000
0000
0000
0000
,
0101
1001
1010
0100
2000
0000
3001
0010
,
0102
0000
0000
0000
2003
0000
0000
0000
3001
0010
0100
1000
0010
0100
1000
0000
,
4001
0100
0010
0001
3100
0000
1004
0010
,
1000
0100
0010
1000
0103
0000
4000
3040
,
0430
0304
0043
0430
4300
3000
0010
0001
,
0010
0000
0000
0000
0000
0000
1000
0000
0000
0000
0000
0000
0100
0000
0000
1000
0000
0000
0001
0000
0000
0100
0000
0000
4000
0000
0000
0000
3400
0000
0000
0000
0304
0000
0000
0000
0403
0000
0000
0000
4300
0000
0000
0000
3004
0000
0000
0000
,
2203
3300
0000
0000
;

//--------------- dance-single - LNinja - Expert 24 ----------------
#NOTES:
     dance-single:
     LNinja - Expert 24:
     Edit:
     24:
     0,0,0,0,0:
0000
0000
0000
0000
,
0000
0000
0000
0000
,
1001
0000
0000
0000
0010
0000
0000
0000
0010
0000
0000
0000
0010
0100
0010
0100
,
0010
0000
0010
0000
0010
0000
0010
0010
,
1001
0000
0000
0000
0100
0000
0000
0000
0100
0000
0000
0000
0100
0010
0100
0010
,
0100
0000
0100
0000
0100
0000
0100
0100
,
1001
0000
0000
0000
0010
0000
0000
0000
0010
0000
0000
0000
0010
0100
0010
0100
,
0010
0000
0010
0000
0010
0000
0010
0010
,
1001
0000
0000
0000
0100
0000
0000
0000
0100
0000
0000
0000
0100
0010
0100
0010
,
0100
0100
0100
1001
,
2002
0000
0000
3003
0000
0001
0100
0010
2000
0000
0000
3010
0000
1000
0010
0100
,
0002
0000
0000
0103
0000
0001
0100
0010
2000
0000
3010
1000
0002
0000
0103
0001
,
0200
0000
0000
0310
0000
0100
0001
1000
0020
0000
0000
0130
0000
0010
1000
0001
,
0200
0000
0000
0310
0000
0010
0100
0001
1000
0010
1000
0010
0100
0001
0010
0001
,
2000
0000
0000
3010
0000
1000
0010
0100
0002
0000
0000
0103
0000
0001
0100
0010
,
2000
0000
0000
3010
0000
1000
0010
0100
0002
0000
0103
0001
2000
0000
3010
1000
,
0020
0000
0000
0130
0000
0010
1000
0001
0200
0000
0000
0310
0000
0100
0001
1000
,
0020
0000
0000
0000
0000
0000
0000
0000
0000
0130
0000
0000
0000
0000
0000
0010
0000
0000
0100
0000
0000
0010
0000
0000
1000
0000
0000
0000
0100
0000
0000
0000
1000
0000
0000
0000
0001
0000
0000
0000
0010
0000
0000
0000
0001
0000
0000
0000
,
1000
1000
0100
0010
0001
0000
0101
0100
,
1010
0000
1001
0000
0101
0010
0100
1000
,
0001
0010
0100
1000
1000
0000
0010
0100
,
0210
0000
0320
0000
0230
0001
0310
0100
,
1001
0001
0010
0100
1000
0000
1010
0010
,
0101
0000
1001
0000
1010
0100
0010
0001
,
1000
1000
0100
0010
0001
0000
1010
0101
,
1010
0000
0000
0101
0000
0000
1000
0100
0010
0100
0010
0001
,
1000
0100
1010
0100
1001
0000
0101
1001
,
2010
0000
0001
0000
3001
0010
1001
0100
,
1001
0010
0100
0010
1001
0000
0100
0010
,
0120
0000
0230
0000
0320
1000
0130
0010
,
1001
0010
0101
0010
1001
0000
1010
1001
,
0102
0000
1000
0000
1003
0100
1001
0010
,
1001
0100
0010
0100
1002
0000
0113
0010
,
1001
0000
0000
1001
0000
0000
1000
0001
0010
0100
0010
0100
,
1000
0100
0010
0100
1002
0000
0113
0010
,
1001
0010
0100
0010
2001
0000
3110
0100
,
1001
0010
0100
0010
1001
0000
0100
0010
,
2001
0000
3120
0000
1031
0110
1001
0000
,
1001
0010
0100
0010
2001
0000
3110
0100
,
1001
0100
0010
0100
1002
0000
0113
0010
,
1001
0100
0010
0100
1001
0000
0010
0100
,
1002
0000
0000
0213
0000
0000
1301
0010
0100
0010
0100
1000
,
1001
0100
1001
0010
1001
0000
0101
0110
,
1001
0010
1001
0100
1001
0000
1010
1001
,
0011
0100
1001
0100
0011
0000
0101
0110
,
1100
0010
1001
0010
1100
0001
1010
0000
,
1001
0110
1001
0110
1001
0000
1010
0110
,
1001
0110
1001
0110
1001
0000
0101
1001
,
1010
0000
0100
0000
0101
0000
0010
0000
1010
0000
0000
0000
0100
0010
0100
0010
,
0100
0000
0000
0000
0000
0000
0000
0000
0000
0000
0000
0000
0010
0100
0010
0100
,
0002
0100
1000
0100
,
2003
0010
0001
0010
,
3002
0100
1000
0100
,
2003
0010
0001
0010
,
3002
1000
0213
0001
,
1320
0100
2031
0010
,
3120
1000
0231
0010
,
1302
0000
0000
0100
0000
0000
1003
1000
1000
0001
0001
0001
,
1100
0110
1100
0011
1100
0000
1100
0001
,
1000
0010
1000
0100
1000
0000
1001
0001
,
1100
0010
1000
0001
1000
0000
1100
0100
,
1000
0010
1000
0001
1000
0000
1001
0100
,
0001
0100
0001
1000
0001
0000
0101
1000
,
0001
0100
0001
0010
0001
0000
0101
0100
,
0001
1000
0001
0100
0001
1000
0001
0100
,
0001
0010
0100
1000
0101
0000
1010
0000
,
1001
0000
0000
0000
0000
0000
0000
0000
0000
0000
0000
0000
0000
0000
0000
0000
0000
0000
0000
0000
0000
0000
0000
0000
0010
0000
0000
0000
0000
0000
0000
0000
0000
0000
0000
0000
0000
0000
0000
0000
0000
0000
0000
0000
0000
0000
0000
0000
0100
0000
0000
0000
0000
0000
0000
0000
0000
0000
0000
0000
0010
0000
0000
0000
0000
0000
0000
0000
0000
0000
0000
0000
0000
0000
0000
0000
0000
0000
0000
0000
0000
0000
0000
0000
0010
0000
0000
0000
0000
0000
0000
0000
0000
0000
0000
0000
0000
0000
0000
0000
0000
0000
0000
0000
0000
0000
0000
0000
4000
0000
0000
0000
0000
0000
0000
0000
0000
0000
0000
0000
0000
0000
0000
0000
0000
0000
0000
0000
0000
0000
0000
3000
0400
0300
0000
0000
0000
0000
0000
0000
0000
0000
0000
0000
0000
0000
0000
0000
0000
0000
0000
0000
0000
0000
0000
0000
0004
0000
0000
0000
0000
0000
0000
0000
0000
0000
0000
0000
0000
0000
0000
0000
0000
0000
0000
0000
0000
0000
0000
0003
0040
0030
0000
0000
0000
0000
0000
0000
0000
0000
0000
0000
,
0000
0000
0000
4000
0000
0000
0000
0000
3400
0000
0000
0000
0304
0000
0000
0000
0000
0000
0043
0000
0000
0000
0000
0000
0030
0000
0000
0000
0000
0000
1001
0000
0000
0000
0000
0000
0010
0000
0000
0100
0000
0000
0000
0000
0000
1001
0000
0000
,
0000
0040
0030
0000
0000
1000
0010
0100
0002
0000
0000
0000
1003
0000
0100
0000
,
0004
0003
0000
4000
3000
0000
0010
0000
0102
0000
0000
1023
0000
0000
0131
0000
,
0000
0010
0100
0000
0101
0000
1010
0000
0101
0000
1001
0000
1010
0000
0010
0100
,
0004
0003
0000
0000
4000
3000
0000
0000
0101
0000
1001
0000
1010
0000
0004
0000
,
4043
0030
0000
0000
0000
0000
0000
0000
0000
0000
0000
0000
0000
0000
0000
0000
0000
0000
0000
0000
0000
0000
0000
0000
3400
0000
0000
0000
0000
0000
0000
0000
0000
0000
0000
0000
0000
0000
0000
0000
0000
0000
0000
0000
0000
0000
0000
0000
0344
0030
0000
0000
0000
0000
0000
0000
0000
0000
0000
0000
0000
0000
0000
0000
0000
0000
0000
0000
0000
0000
0000
0000
0043
0000
0000
0000
0000
0000
0000
0000
0000
0000
0000
0000
0000
0000
0000
0000
0000
0000
0000
0000
0000
0000
0000
0000
4430
0300
0000
0000
0000
0000
0000
0000
0000
0000
0000
0000
0000
0000
0000
0000
0000
0000
0000
0000
0000
0000
0000
0000
3400
0000
0000
0000
0000
0000
0000
0000
0000
0000
0000
0000
0000
0000
0000
0000
0000
0000
0000
0000
0000
0000
0000
0000
0344
0030
0000
0000
0000
0000
0000
0000
0000
0000
0000
0000
0000
0000
0000
0000
0000
0000
0000
0000
0000
0000
0000
0000
0043
0000
0000
0000
0000
0000
0000
0000
0000
0000
0000
0000
0000
0000
0000
0000
0000
0000
0000
0000
0000
0000
0000
0000
,
4430
0300
0000
0000
0000
0000
0000
0000
0000
0000
0000
0000
0000
0000
0000
0000
3040
0000
0000
0000
0000
0000
0000
0000
0000
0000
0000
0000
0000
0000
0000
0000
0034
0000
0000
0000
0000
0000
0000
0000
0000
0000
0000
0000
0000
0000
0000
0000
4003
0000
0000
0000
0000
0000
0000
0000
0000
0000
0000
0000
0000
0000
0000
0000
0000
0000
0000
0000
0000
0000
0000
0000
3004
0000
0000
0000
0000
0000
0000
0000
0000
0000
0000
0000
0000
0000
0000
0000
0000
0000
0000
0000
0000
0000
0000
0000
0403
0000
0000
0000
0000
0000
0000
0000
0000
0000
0000
0000
0000
0000
0000
0000
0340
0000
0000
0000
0000
0000
0000
0000
0000
0000
0000
0000
0000
0000
0000
0000
0000
0000
0000
0000
0000
0000
0000
0000
0000
0000
0000
0000
0000
0000
0000
0000
0430
0000
0000
0000
0000
0000
0000
0000
0000
0000
0000
0000
0000
0000
0000
0000
0304
0000
0000
0000
0000
0000
0000
0000
0000
0000
0000
0000
0000
0000
0000
0000
0000
0000
0000
0000
0000
0000
0000
0000
0000
0000
0000
0000
0000
0000
0000
0000
,
1043
0030
0000
0000
0000
0000
0000
0000
0000
0000
0000
0000
0000
0000
0000
0000
0000
0000
0000
0000
0000
0000
0000
0000
0100
0000
0000
0000
0000
0000
0000
0000
0000
0000
0000
0000
0000
0000
0000
0000
0000
0000
0000
0000
0000
0000
0000
0000
0010
0000
0000
0000
0000
0000
0000
0000
0000
0000
0000
0000
0000
0000
0000
0000
0000
0000
0000
0000
0000
0000
0000
0000
0100
0000
0000
0000
0000
0000
0000
0000
0000
0000
0000
0000
0000
0000
0000
0000
0000
0000
0000
0000
0000
0000
0000
0000
0010
0000
0000
0000
0000
0000
0000
0000
0000
0000
0000
0000
0000
0000
0000
0000
0000
0000
0000
0000
0000
0000
0000
0000
0000
0000
0000
0000
0000
0000
0000
0000
0000
0000
0000
0000
0000
0000
0000
0000
0000
0000
0000
0000
0000
0000
0000
0000
1000
0000
0000
0000
0000
0000
0000
0000
0000
0000
0000
0000
0000
0000
0000
0000
0000
0000
0000
0000
0000
0000
0000
0000
0010
0000
0000
0000
0000
0000
0000
0000
0000
0000
0000
0000
0000
0000
0000
0000
0000
0000
0000
0000
0000
0000
0000
0000
,
2000
0000
0000
0000
0000
0000
0000
0000
0000
0000
0000
0000
0000
0000
0000
0000
0000
0000
0000
0000
0000
0000
0000
0000
0000
0000
0000
0000
0000
0000
0000
0000
0000
0000
0000
0000
0000
0000
0000
0000
0000
0000
0000
0000
0000
0000
0000
0000
0000
0000
0000
0000
0000
0000
0000
0000
0000
0000
0000
0000
0000
0000
0000
0000
0000
0000
0000
0000
0000
0000
0000
0000
0040
0000
0000
0000
0000
0000
0000
0000
0000
0000
0000
0000
0000
0000
0000
0000
0000
0000
0034
0003
0000
0000
0000
0000
0000
0000
0000
0000
0000
0000
0000
0000
0000
0000
0000
0000
0000
0000
0000
0000
0000
0000
0000
0000
0000
0000
0000
0000
0000
0000
0000
0000
0000
0000
0000
0000
0000
0000
0000
0000
0000
0000
0000
0000
0000
0000
0000
0000
0000
0000
0000
0000
3100
0000
0000
0000
0000
0000
0000
0000
0000
0000
0000
0000
0000
0000
0000
0000
0000
0000
0000
0000
0000
0000
0000
0000
0010
0000
0000
0000
0000
0000
0000
0000
0000
0000
0000
0000
0000
0000
0000
0000
0000
0000
0000
0000
0000
0000
0000
0000
,
0001
0001
0010
0100
2000
0000
3010
0100
,
0020
0000
1030
0000
0004
0043
0430
0300
,
0001
0010
0100
0010
0100
0000
0100
0010
,
1000
0100
0010
0100
0010
0000
0100
0010
,
0001
0010
0100
1000
1000
0000
1000
0010
,
0100
0000
0000
0000
0000
0000
0000
0000
0000
0000
0000
0000
0000
0000
0000
0000
0000
0000
0000
0000
0000
0000
0000
0000
0001
0000
0000
0000
0000
0000
0000
0000
0000
0000
0000
0000
0000
0000
0000
0000
0000
0000
0000
0000
0000
0000
0000
0000
1000
0000
0000
0000
0000
0000
0000
0000
0000
0000
0000
0000
0010
0000
0000
0000
0000
0000
0000
0000
0000
0000
0000
0000
0100
0000
0000
0000
0000
0000
0000
0000
0000
0000
0000
0000
0001
0000
0000
0000
0000
0000
0000
0000
0000
0000
0000
0000
4000
0000
0000
0000
0000
0000
0000
0000
0000
0000
0000
0000
0000
0000
0000
0000
0000
0000
0000
0000
0000
0000
0000
0000
3400
0300
0000
0000
0000
0000
0000
0000
0000
0000
0000
0000
0000
0000
0000
0000
0000
0000
0000
0000
0000
0000
0000
0000
0040
0000
0000
0000
0000
0000
0000
0000
0000
0000
0000
0000
0000
0000
0000
0000
0000
0000
0000
0000
0000
0000
0000
0000
0034
0003
0000
0000
0000
0000
0000
0000
0000
0000
0000
0000
0000
0000
0000
0000
0000
0000
0000
0000
0000
0000
0000
0000
,
0110
0000
0000
0000
;

//--------------- dance-single - LNinja - Master 29 ----------------
#NOTES:
     dance-single:
     LNinja - Master 29:
     Edit:
     29:
     0,0,0,0,0:
0000
0000
0000
0000
,
0000
0000
0000
0000
,
1001
0000
0000
0000
1010
0000
0000
0000
1100
0000
0000
0000
0001
0100
0001
0100
,
0001
0000
1100
0000
1010
0000
1001
0110
,
1001
0000
0000
0000
0101
0000
0000
0000
0011
0000
0000
0000
1000
0100
1000
0100
,
1000
0000
0011
0000
0101
0000
1001
0110
,
1001
0000
0100
0000
1010
0000
0100
0000
1001
0000
0100
0000
0001
0010
0001
0010
,
0001
0100
1001
0100
1010
0100
1001
0110
,
1001
0000
0010
0000
0101
0000
0010
0000
1001
0000
0010
0000
1000
0010
1000
0010
,
1000
0010
1001
0010
0101
0000
1111
0000
,
2020
0000
3232
0303
0000
1000
0010
0100
2020
0000
3232
0303
0000
1000
0010
0100
,
2020
0000
3232
0303
0000
1000
0001
0010
2001
0000
3001
0100
0002
0000
1003
0100
,
0022
0000
2233
3300
0000
0001
0100
0010
0022
0000
2233
3300
0000
0001
0100
0010
,
0022
0000
2233
3300
0000
0001
1000
0010
1000
1000
0100
0010
0001
0010
0100
1000
,
2020
0000
3232
0303
0000
0001
0010
0100
2020
0000
3232
0303
0000
0010
0100
1000
,
2020
0000
3232
0303
0000
0010
0010
0100
2001
0000
3001
0100
0002
0000
1003
0010
,
0022
0000
2233
3300
0000
1000
0100
0010
0022
0000
2233
3300
0000
0100
0010
0001
,
0022
0000
0000
0000
0000
0000
2233
0000
0000
3300
0000
0000
0000
0000
0000
0100
0000
0000
0100
0000
0000
0010
0000
0000
1001
0000
0000
0000
1001
0000
0000
0000
1001
0000
0000
0000
0110
0000
0000
0000
0110
0000
0000
0000
0110
0000
0000
0000
,
1002
1023
2030
3201
0301
1000
0101
0100
,
1020
0100
0230
0010
0302
0013
2000
3010
,
0201
2310
3020
0132
1013
0001
1100
0010
,
4004
0000
0000
0000
,
3003
1001
0102
1023
1030
0001
1100
0010
,
0201
0010
0320
0100
2030
3100
0002
0013
,
1020
0132
0203
2310
3011
1000
0101
0010
,
1010
0000
0000
1001
0000
0000
0101
0000
0000
1001
0000
0000
1001
0000
1001
0000
0110
0000
1001
0000
1001
0000
0110
0000
,
1001
0000
0010
0100
1001
0000
0100
0010
1001
0000
0010
0100
1001
0000
0100
0010
,
1001
0000
0001
0010
0101
0000
1000
0100
1010
0000
0001
0010
0001
0100
0010
1000
,
0101
0000
0001
0010
1100
0000
1000
0100
0011
0000
0010
0010
1100
0000
0100
0100
,
0011
1000
0010
0001
0100
1000
0001
0010
1000
0100
0001
1000
0100
1000
0001
0100
,
1000
0000
0100
0010
1010
0000
0010
0100
0101
0000
0100
0010
1010
0000
0010
0100
,
0101
0000
1000
0100
1100
0000
0001
0010
0011
0000
0010
0100
1001
0000
0110
0000
,
1001
0010
0100
0010
0110
0001
0010
0100
1000
0001
0100
0010
1000
0010
0100
0001
,
1001
0000
0000
1001
0000
0000
0110
0110
0110
1001
1001
1001
,
1001
0000
0001
0000
0011
0000
0101
0000
1001
0000
0010
0100
0001
0000
0100
0010
,
1001
0000
1000
0000
1100
0000
1010
0000
1001
0000
0100
0010
1000
0000
0110
0000
,
1001
0000
0100
0000
1100
0000
1010
0000
1001
0000
0100
0010
1000
0000
0010
0100
,
2001
3101
1002
1013
1001
0110
1001
0000
,
1001
0000
0110
0000
0010
0000
0110
0000
1001
0000
0100
0100
0010
0000
0100
0010
,
1001
0000
0110
0000
0100
0000
0110
0000
1001
0000
0010
0010
0100
0000
0010
0100
,
1001
0000
0110
0000
0010
0000
0110
0000
1001
0000
0010
0010
0100
0000
0010
0100
,
1001
0000
0000
0110
0000
0000
0100
0000
0000
0110
0000
0000
1001
0000
1001
0000
0110
0000
1001
0000
1001
0000
0110
0000
,
2001
3201
1302
1023
1031
0110
1100
1010
,
1002
1023
2030
3201
1301
0110
0011
0101
,
2001
3200
2301
3200
1301
0110
0011
0110
,
1002
0023
1032
0023
1031
0110
0011
1000
,
1001
0010
1001
0100
1001
0010
0011
1000
,
1001
0100
1001
0010
1001
0100
1100
0001
,
1001
0000
0110
0000
1001
0000
0110
0000
1001
0000
0010
0010
0100
0010
0100
0010
,
2222
0003
0030
0300
3000
0000
0000
0000
,
1002
0000
0000
0000
0000
0000
0000
0000
0000
0000
0000
0000
0000
0000
0000
0000
0000
0000
0000
0000
0000
0000
0000
0000
0000
0000
0000
0000
0000
0000
0000
0000
0000
0000
0000
0000
0000
0000
0000
0000
0000
0000
0000
0000
0000
0000
0000
0000
0023
0000
0000
0000
0000
0000
0000
0000
0000
0000
0000
0000
0000
0000
0000
0000
0000
0000
0000
0000
0000
0000
0000
0000
0000
0000
0000
0000
0000
0000
0000
0000
0000
0000
0000
0000
0000
0000
0000
0000
0000
0000
0000
0000
0000
0000
0000
0000
2230
0000
0000
0000
0000
0000
0000
0000
0000
0000
0000
0000
0000
0000
0000
0000
0000
0000
0000
0000
0000
0000
0000
0000
0000
0000
0000
0000
0000
0000
0000
0000
0000
0000
0000
0000
0000
0000
0000
0000
0000
0000
0000
0000
0000
0000
0000
0300
3202
0000
0000
0000
0000
0000
0000
0000
0000
0000
0000
0000
0000
0000
0000
0000
0000
0000
0000
0000
0000
0000
0000
0000
0000
0000
0000
0000
0000
0000
0000
0000
0000
0000
0000
0000
0000
0000
0000
0000
0000
0000
0000
0000
0000
0000
0000
0000
,
2303
0000
0000
0000
0000
0000
0000
0000
0000
0000
0000
0000
0000
0000
0000
0000
0000
0000
0000
0000
0000
0000
0000
0000
0000
0000
0000
0000
0000
0000
0000
0000
0000
0000
0000
0000
0000
0000
0000
0000
0000
0000
0000
0000
0000
0000
0000
0000
3200
0000
0000
0000
0000
0000
0000
0000
0000
0000
0000
0000
0000
0000
0000
0000
0000
0000
0000
0000
0000
0000
0000
0000
0000
0000
0000
0000
0000
0000
0000
0000
0000
0000
0000
0000
0000
0000
0000
0000
0000
0000
0000
0000
0000
0000
0000
0000
0322
0000
0000
0000
0000
0000
0000
0000
0000
0000
0000
0000
0000
0000
0000
0000
0000
0000
0000
0000
0000
0000
0000
0000
0000
0000
0000
0000
0000
0000
0000
0000
0000
0000
0000
0000
0000
0000
0000
0000
0000
0000
0000
0000
0000
0000
0000
0030
2023
0000
0000
0000
0000
0000
0000
0000
0000
0000
0000
0000
0000
0000
0000
0000
0000
0000
0000
0000
0000
0000
0000
0000
3000
0000
0000
0000
0000
0000
0000
0000
0000
0000
0000
0000
0000
0000
0000
0000
0000
0000
0000
0000
0000
0000
0000
0000
,
0032
0000
0000
0000
0000
0000
0000
0000
0000
0000
0000
0000
0000
0000
0000
0000
0000
0000
0000
0000
0000
0000
0000
0000
0000
0000
0000
0000
0000
0000
0000
0000
0000
0000
0000
0000
0000
0000
0000
0000
0000
0000
0000
0000
0000
0000
0000
0000
0023
0000
0000
0000
0000
0000
0000
0000
0000
0000
0000
0000
0000
0000
0000
0000
0000
0000
0000
0000
0000
0000
0000
0000
0000
0000
0000
0000
0000
0000
0000
0000
0000
0000
0000
0000
0000
0000
0000
0000
0000
0000
0000
0000
0000
0000
0000
0000
2230
0000
0000
0000
0000
0000
0000
0000
0000
0000
0000
0000
0000
0000
0000
0000
0000
0000
0000
0000
0000
0000
0000
0000
0000
0000
0000
0000
0000
0000
0000
0000
0000
0000
0000
0000
0000
0000
0000
0000
0000
0000
0000
0000
0000
0000
0000
0300
3202
0000
0000
0000
0000
0000
0000
0000
0000
0000
0000
0000
0000
0000
0000
0000
0000
0000
0000
0000
0000
0000
0000
0000
0000
0000
0000
0000
0000
0000
0000
0000
0000
0000
0000
0000
0000
0000
0000
0000
0000
0000
0000
0000
0000
0000
0000
0000
,
2303
0000
0000
0000
0000
0000
0000
0000
0000
0000
0000
0000
0000
0000
0000
0000
0000
0000
0000
0000
0000
0000
0000
0000
0000
0000
0000
0000
0000
0000
0000
0000
0000
0000
0000
0000
0000
0000
0000
0000
0000
0000
0000
0000
0000
0000
0000
0000
3200
0000
0000
0000
0000
0000
0000
0000
0000
0000
0000
0000
0000
0000
0000
0000
0000
0000
0000
0000
0000
0000
0000
0000
0000
0000
0000
0000
0000
0000
0000
0000
0000
0000
0000
0000
0000
0000
0000
0000
0000
0000
0000
0000
0000
0000
0000
0000
0322
0000
0000
0000
0000
0000
0000
0000
0000
0000
0000
0000
0000
0000
0000
0000
0000
0000
0000
0000
0000
0000
0000
0000
0000
0000
0000
0000
0000
0000
0000
0000
0000
0000
0000
0000
0000
0000
0000
0000
0000
0000
0000
0000
0000
0000
0000
0030
2023
0000
0000
0000
0000
0000
0000
0000
0000
0000
0000
0000
0000
0000
0000
0000
0000
0000
0000
0000
0000
0000
0000
0000
0000
0000
0000
0000
0000
0000
0000
0000
0000
0000
0000
0000
0000
0000
0000
0000
0000
0000
0000
0000
0000
0000
0000
0000
,
3032
0000
0000
0000
0000
0000
0000
0000
0000
0000
0000
0000
0000
0000
0000
0000
0000
0000
0000
0000
0000
0000
0000
0000
0000
0000
0000
0000
0000
0000
0000
0000
0000
0000
0000
0000
0000
0000
0000
0000
0000
0000
0000
0000
0000
0000
0000
0000
0123
0000
0000
0000
0000
0000
0000
0000
0000
0000
0000
0000
0000
0000
0000
0000
0000
0000
0000
0000
0000
0000
0000
0000
0000
0000
0000
0000
0000
0000
0000
0000
0000
0000
0000
0000
0000
0000
0000
0000
0000
0000
0000
0000
0000
0000
0000
0000
2230
0000
0000
0000
0000
0000
0000
0000
0000
0000
0000
0000
0000
0000
0000
0000
0000
0000
0000
0000
0000
0000
0000
0000
0000
0000
0000
0000
0000
0000
0000
0000
0000
0000
0000
0000
0000
0000
0000
0000
0000
0000
0000
0000
0000
0000
0000
0300
3202
0000
0000
0000
0000
0000
0000
0000
0000
0000
0000
0000
0000
0000
0000
0000
0000
0000
0000
0000
0000
0000
0000
0000
0000
0000
0000
0000
0000
0000
0000
0000
0000
0000
0000
0000
0000
0000
0000
0000
0000
0000
0000
0000
0000
0000
0000
0000
,
2303
0000
0000
0000
0000
0000
0000
0000
0000
0000
0000
0000
0000
0000
0000
0000
0000
0000
0000
0000
0000
0000
0000
0000
0000
0000
0000
0000
0000
0000
0000
0000
0000
0000
0000
0000
0000
0000
0000
0000
0000
0000
0000
0000
0000
0000
0000
0000
3210
0000
0000
0000
0000
0000
0000
0000
0000
0000
0000
0000
0000
0000
0000
0000
0000
0000
0000
0000
0000
0000
0000
0000
0000
0000
0000
0000
0000
0000
0000
0000
0000
0000
0000
0000
0000
0000
0000
0000
0000
0000
0000
0000
0000
0000
0000
0000
0322
0000
0000
0000
0000
0000
0000
0000
0000
0000
0000
0000
0000
0000
0000
0000
0000
0000
0000
0000
0000
0000
0000
0000
0000
0000
0000
0000
0000
0000
0000
0000
0000
0000
0000
0000
0000
0000
0000
0000
0000
0000
0000
0000
0000
0000
0000
0030
2023
0000
0000
0000
0000
0000
0000
0000
0000
0000
0000
0000
0000
0000
0000
0000
0000
0000
0000
0000
0000
0000
0000
0000
0000
0000
0000
0000
0000
0000
0000
0000
0000
0000
0000
0000
0000
0000
0000
0000
0000
0000
0000
0000
0000
0000
0000
0000
,
3032
0000
0000
0000
0000
0000
0000
0000
0123
0000
0000
0000
0000
0000
0000
0000
2230
0000
0000
0000
0000
0000
0000
3000
2302
0000
0000
0000
0000
0000
0000
0000
,
3003
0000
0000
0110
0000
0000
1001
1001
0110
0110
1001
1001
,
1001
0001
1010
0100
1001
0000
1001
0100
,
1010
0001
1010
0100
1001
0000
1001
0001
,
1010
0100
1001
0100
1001
0000
1001
0100
,
1010
0001
1010
0100
1001
0000
1001
0110
,
1001
1000
0101
0010
1001
0000
1001
0010
,
0101
1000
0101
0010
1001
0000
1001
1000
,
0101
0010
1001
0010
1001
0110
1001
0110
,
2222
0000
3333
1111
,
1001
0000
0010
0000
0100
0010
0000
0110
0000
1000
0010
0010
0000
0100
0001
0001
,
0000
1000
0010
1000
0001
0100
0001
0100
0001
0000
1010
0000
0001
0100
0000
0101
,
0000
1010
1010
0000
0000
1000
0100
0010
0102
0000
0000
0000
1003
0000
0101
0000
,
1000
0000
0000
0000
0000
0000
0000
0000
0000
0000
0000
0000
1010
0000
0000
0000
0000
0000
0000
0000
0000
0000
0000
0000
0000
0000
0000
0000
0000
0000
0000
0000
0000
0000
0000
0000
0001
0000
0000
0000
0000
0000
0000
0000
0000
0000
0000
0000
0201
0000
0000
0000
0000
0000
0000
0000
0000
0000
0000
0000
0000
0000
0000
0000
0000
0000
0000
0000
0000
0000
0000
0000
0010
0000
0000
0000
0000
0000
0000
0000
0000
0000
0000
0000
0000
0000
0000
0000
0000
0000
0000
0000
0000
0000
0000
0000
0302
0000
0000
0000
0000
0000
0000
0000
0000
0000
0000
0000
0000
0000
0000
0000
0000
0000
0000
0000
0000
0000
0000
0000
0000
0000
0000
0000
0000
0000
0000
0000
0000
0000
0000
0000
2023
0030
0000
0000
0000
0000
0000
0000
0000
0000
0000
0000
0000
0000
0000
0000
0000
0000
0000
0000
0000
0000
0000
0000
0000
0000
0000
0000
0000
0000
0000
0000
0000
0000
0000
0000
3201
0300
0000
0000
0000
0000
0000
0000
0000
0000
0000
0000
0000
0000
0000
0000
0000
0000
0000
0000
0000
0000
0000
0000
,
0000
1010
1010
0000
0001
0010
0100
1000
0001
0000
0110
0000
1010
0000
0010
0100
,
0001
0001
0000
0000
0110
0110
0000
0000
0101
0000
1001
0000
1010
0000
0010
0010
,
4000
3400
0340
0034
4003
3400
0340
0034
4003
3400
0340
0034
4003
3400
0340
0034
,
4003
3400
0000
0340
4030
3400
0000
0340
0430
0340
0000
0034
0403
0340
0000
0034
,
1003
0100
0010
0100
1010
0000
0100
0010
,
2100
0000
0000
0000
0000
0000
0000
0000
0000
0000
0000
0000
0000
0000
0000
0000
0000
0000
0000
0000
0000
0000
0000
0000
0000
0000
0000
0000
0000
0000
0000
0000
0000
0000
0000
0000
0000
0000
0000
0000
0000
0000
0000
0000
0000
0000
0000
0000
0000
0000
0000
0000
0000
0000
0000
0000
0000
0000
0000
0000
0000
0000
0000
0000
0000
0000
0000
0000
0000
0000
0000
0000
0040
0000
0000
0000
0000
0000
0000
0000
0000
0000
0000
0000
0000
0000
0000
0000
0000
0000
0034
0003
0000
0000
0000
0000
0000
0000
0000
0000
0000
0000
0000
0000
0000
0000
0000
0000
0000
0000
0000
0000
0000
0000
0000
0000
0000
0000
0000
0000
0000
0000
0000
0000
0000
0000
0000
0000
0000
0000
0000
0000
0000
0000
0000
0000
0000
0000
0000
0000
0000
0000
0000
0000
3100
0000
0000
0000
0000
0000
0000
0000
0000
0000
0000
0000
0000
0000
0000
0000
0000
0000
0000
0000
0000
0000
0000
0000
0010
0000
0000
0000
0000
0000
0000
0000
0000
0000
0000
0000
0000
0000
0000
0000
0000
0000
0000
0000
0000
0000
0000
0000
,
0101
1001
1010
0100
2000
0000
3001
0010
,
0102
0000
0000
0000
2003
0000
0000
0000
3001
0010
0100
1000
0010
0100
1000
0000
,
4001
0001
0010
0100
0010
0000
0100
0010
,
0001
0001
0010
0100
0010
0000
0100
0010
,
0001
0001
0010
0100
0010
0000
0010
0100
,
3010
0000
0000
0000
0000
0000
0000
0000
0000
0000
0000
0000
0000
0000
0000
0000
0000
0000
0000
0000
0000
0000
0000
0000
0100
0000
0000
0000
0000
0000
0000
0000
0000
0000
0000
0000
0000
0000
0000
0000
0000
0000
0000
0000
0000
0000
0000
0000
0001
0000
0000
0000
0000
0000
0000
0000
0000
0000
0000
0000
1000
0000
0000
0000
0000
0000
0000
0000
0000
0000
0000
0000
0010
0000
0000
0000
0000
0000
0000
0000
0000
0000
0000
0000
1000
0000
0000
0000
0000
0000
0000
0000
0000
0000
0000
0000
1400
0000
0000
0000
0000
0000
0000
0000
0000
0000
0000
0000
0000
0000
0000
0000
1340
0030
0000
0000
0000
0000
0000
0000
0000
0000
0000
0000
0000
0000
0000
0000
1000
0000
0000
0000
0000
0000
0000
0000
0000
0000
0000
0000
0000
0000
0000
0000
1040
0000
0000
0000
0000
0000
0000
0000
0000
0000
0000
0000
0000
0000
0000
0000
1034
0003
0000
0000
0000
0000
0000
0000
0000
0000
0000
0000
0000
0000
0000
0000
1000
0000
0000
0000
0000
0000
0000
0000
0000
0000
0000
0000
0000
0000
0000
0000
,
1100
0000
0000
0000
;
