#TITLE:AKAGE [赤毛] (feat. Kasane Teto) WIP;
#SUBTITLE:;
#ARTIST:Smily;
#TITLETRANSLIT:;
#SUBTITLETRANSLIT:;
#ARTISTTRANSLIT:;
#GENRE:;
#CREDIT:Video by LinesAnil / laik7u7;
#MUSIC:AKAGE.ogg;
#BANNER:AKAGE-bn.png;
#BACKGROUND:AKAGE-bg.png;
#CDTITLE:cdtitlelninja.png;
#SAMPLESTART:30.154;
#SAMPLELENGTH:20.154;
#SELECTABLE:YES;
#OFFSET:-0.000;
#BPMS:0.000=195.000;
#STOPS:;
#BGCHANGES:;
#FGCHANGES:;

//--------------- dance-single - LNinja ----------------
#NOTES:
     dance-single:
     LNinja:
     Easy:
     14:
     0,0,0,0,0:
0000
0000
0000
0000
,
0010
0000
1000
0000
0100
0100
0010
0001
,
0200
0000
0300
0000
1000
0001
0010
0010
,
0100
0010
0010
0001
0100
0010
2000
3001
,
0100
0000
0100
0000
0100
0001
0010
0100
,
2002
0000
3003
0000
0100
0000
0010
0000
0000
0000
1000
0000
0010
0000
0001
0010
,
0200
0000
0300
0000
0010
0100
1000
1000
,
0001
0100
0100
0010
1000
1000
0100
0010
,
0000
0000
0000
0000
1000
0010
0100
0001
,
2002
3000
0013
0000
0100
0000
1000
0100
,
0010
0100
1000
0000
0002
0000
0003
0000
,
0001
0100
1000
0000
0100
0001
0010
0100
,
1000
0000
0100
0000
0200
0000
0301
0010
,
2000
3010
0200
0001
,
1300
0010
0100
0001
0020
0000
0230
0000
,
1300
1000
0010
0000
0010
0000
0001
0100
,
0010
0100
0001
0000
0020
0000
0230
0000
,
1300
0000
0101
0000
1100
0000
0001
0100
,
0001
1000
0100
0000
0010
0000
0100
0000
,
1000
0010
0100
0000
0010
0000
0010
0000
,
0001
0010
0100
1000
0010
0000
0100
0000
,
0001
0010
0001
0000
0001
0000
1000
0000
,
1000
0010
0100
0001
0010
0000
0001
0000
,
2000
0000
0000
0000
0000
0000
0000
0000
0000
0000
0000
0000
0000
0000
0000
0000
0000
0000
0000
0000
0000
0000
0000
0000
0000
3000
0000
0000
0000
0000
0000
0000
0000
0000
0000
0000
0000
0000
0000
0000
0000
0000
0000
0000
0000
0000
0000
0000
0000
0000
0000
0000
0000
0000
0000
0000
0000
0000
0000
0000
0000
0000
0000
0000
0000
0000
0000
0000
0000
0000
0000
0000
0000
0000
0000
0000
0000
0000
0000
0000
0000
0000
0000
0000
0000
0000
0000
0000
0000
0000
0000
0000
0000
0000
0000
0000
,
4004
0000
3003
0000
0010
0100
0001
1000
,
1001
0000
0011
0000
1100
0000
0100
1000
,
0100
0010
0001
0000
1001
0000
0001
0010
,
0100
1000
0100
0010
0001
0000
1000
0100
,
0010
0001
0010
0100
1000
0001
0101
0000
,
1010
0000
0011
0000
1100
0000
0010
0100
,
0001
1000
0001
0100
0010
0000
0100
0010
,
1000
0001
1000
0010
0100
0000
0100
0000
,
0001
0100
1000
0100
0001
0000
0100
1000
,
1100
0010
0000
0100
1000
0100
0001
0010
,
1000
0100
0000
0100
0010
0100
0010
0010
,
0001
0000
1000
0000
0000
0000
1000
0100
0010
0000
0001
0000
0100
0000
1000
0000
,
0010
0000
0100
0001
0100
0010
1000
0100
,
0001
0000
0000
0001
0010
0100
1000
0100
,
0010
0000
0000
1000
0100
0010
0001
0010
,
0200
0300
0000
0010
0100
0001
1000
0001
,
0100
0000
0000
0100
0001
0000
0110
0000
,
1001
0000
0100
0000
0001
1000
1000
0100
,
0020
0000
0030
0000
0001
0100
0010
0010
,
1000
0001
0001
1000
0100
0001
0100
1000
,
0010
0000
0100
0000
0100
0001
1000
0010
,
0400
0000
0000
0000
0300
0000
1001
0000
0000
0000
0020
0000
0130
0000
1000
0001
,
1000
0000
0000
0000
0010
0001
1000
1000
,
0010
0100
0100
0010
1000
1000
0100
0001
,
0000
0000
0000
0000
0000
2002
3013
0100
,
0220
0330
2002
3003
0220
0330
0022
0033
,
2200
0000
3300
0000
2002
0000
3003
0000
0110
0000
0110
0000
0000
0000
4004
3003
,
0020
0030
2020
3030
0202
0303
0022
0033
,
2200
3300
0022
0033
1001
1001
0100
0000
,
2200
3300
0202
0303
0022
0033
2020
3030
,
2200
3300
0202
0303
1010
0100
0001
1000
,
2200
3300
2020
3030
0022
0033
0202
0303
,
2200
3300
0202
0303
0110
0110
1000
0001
,
0100
0000
0000
0000
0000
0000
1000
0100
,
0001
0010
1000
0000
0020
0000
0030
0000
,
0001
0010
1000
0000
0100
0001
0010
0100
,
1000
0000
0100
0000
0200
0000
0301
1000
,
0020
0130
0020
0001
,
1030
0100
0010
0001
0020
0000
0230
0000
,
0300
1000
0100
0000
0100
0010
0001
1000
,
0010
0100
0010
0200
0000
0000
0000
0000
,
2300
3200
0320
0030
0002
0000
0203
0000
,
0300
0000
0000
0000
0002
0023
2030
3000
,
2000
3002
0003
0000
,
0020
0230
2300
3000
0002
0000
0203
0000
,
0300
0000
0000
0000
2000
3200
0302
0000
,
1003
0000
0002
0023
2030
3000
2000
0000
,
3020
0032
0203
0300
2000
3000
0200
0000
,
0300
0000
0000
0000
0200
0320
0032
0003
,
0002
0023
0000
0030
,
2000
3200
0320
0030
0002
2003
0000
0000
,
0000
0100
3020
0000
,
0230
0000
0302
0000
0000
0000
0000
0003
,
2000
3200
0320
0030
0002
0000
0203
0000
,
0300
0000
0000
0000
0002
0023
2030
3000
,
2000
3002
0003
0000
,
0020
0230
2300
3000
0002
0000
0203
0000
,
0300
0000
0000
0000
0002
0203
2300
0000
,
3001
0000
2000
3020
0032
0003
0002
0000
,
0023
0000
0000
0000
,
0000
0000
0200
0000
,
0000
0000
0000
0000
0000
0000
0000
0330
,
2000
0000
0002
0000
,
3020
0000
0203
0000
,
2030
0000
0302
0000
,
3020
0000
0000
0000
,
0000
0000
0000
0000
,
0000
0000
0000
0000
,
0000
0000
0033
0000
0001
1000
1001
0000
,
1100
0000
0011
0000
0010
0001
0010
0100
,
1000
0000
1001
0000
1000
0100
0010
0001
,
0010
0100
1000
0000
0001
0010
0100
1000
,
0100
0010
0001
1000
1010
0000
0101
0000
,
1100
0000
0011
0000
0100
0010
1000
0001
,
1000
0010
0100
0000
0010
0100
0001
1000
,
0001
0100
0010
0000
0010
0000
1000
0010
,
0001
0010
1000
0000
0010
0001
0011
0100
,
0000
0010
0001
0010
1000
0100
0001
0010
,
0000
0010
0100
0010
0100
0100
1000
0001
,
0000
0000
0001
0010
0100
0000
1000
0000
0010
0000
0001
0000
0100
0000
0000
0000
,
0010
1000
0010
0100
0001
0010
1000
0000
,
0000
1000
0100
0010
0001
0010
0100
0000
,
0000
0001
0010
0100
1000
0100
0020
0030
,
0000
0100
0010
1000
0001
1000
0010
0000
,
0000
0010
1000
0000
0110
0000
1001
0010
,
0100
1000
0100
0010
0001
0010
0100
0000
,
1000
0001
2002
3003
0000
0000
0000
0000
;

//--------------- dance-single - LNinja ----------------
#NOTES:
     dance-single:
     LNinja:
     Medium:
     15:
     0,0,0,0,0:
0000
0000
0000
0000
,
0010
0000
1001
0000
0100
0010
0001
0100
,
2000
0000
3000
0000
1000
0001
0010
0010
,
0100
0010
1000
0001
0100
0010
2000
3100
,
0001
0000
0100
0000
0100
0001
0010
1000
,
2002
0000
3003
0000
0100
0000
0010
0000
0000
0000
1000
0000
0010
0000
0001
0010
,
0200
0000
0300
0000
0010
0001
1000
1000
,
0010
0100
0100
0001
1000
1000
0100
0001
,
0000
0000
0000
0000
0001
0100
1000
0100
,
2002
3000
0013
0000
0100
0000
1000
0010
,
0001
0010
1000
0000
0002
0000
0003
0000
,
0001
0100
1000
0000
0100
0001
0010
1000
,
0100
0000
0100
0000
0200
0000
0301
0010
,
2000
3010
0200
0001
,
0310
1000
0100
0001
0020
0000
2000
0030
,
3010
0001
0010
0000
0010
0000
0001
0100
,
1000
0100
0001
0000
0020
0000
0200
0300
,
0031
0000
0101
0000
1100
0000
0001
0100
,
1000
0010
0100
0000
1000
0000
0100
0000
,
0001
0100
1000
0000
0010
0000
0010
0000
,
0001
0010
0100
0001
0100
0000
0100
0000
,
0010
1000
0100
0000
0001
0000
1000
0000
,
1000
0100
0001
0100
0010
0000
1000
0000
,
0220
0330
0000
0000
,
4004
0000
3003
0000
0010
0100
0001
0001
,
1001
0000
1010
0000
0101
0000
0100
0010
,
0100
0001
0010
0000
1100
0000
0010
0001
,
0100
0001
0010
0001
0100
0000
1000
0010
,
0001
1000
0010
1000
0100
0001
1100
0000
,
0011
0000
1010
0000
0101
0000
0010
0100
,
0001
1000
0001
0100
1000
0000
0100
0010
,
1000
0001
0010
1000
0010
0000
0010
0000
,
0001
0100
1000
0100
0001
0000
0100
1000
,
0110
0010
0000
0100
0001
0100
1000
0010
,
0100
1000
0000
0100
0010
0100
0010
0010
,
1000
0000
0001
0000
0000
0000
0100
0010
0100
0000
0001
0000
0100
0000
1000
0000
,
0010
0000
0100
0001
1010
0100
0001
0010
,
1001
0000
0000
0001
0010
1000
0001
0100
,
2000
3000
0000
1000
0100
0001
1000
0010
,
0002
0003
0000
0010
1000
0010
0001
0010
,
1000
0000
0000
0100
0101
0000
0110
0000
,
1001
0000
0100
0000
0001
1000
1000
0100
,
0002
0000
0003
0000
0001
0100
0010
0010
,
1001
0001
0001
1000
0100
0001
0100
1000
,
0010
0000
0100
0000
0100
0001
0100
1000
,
0400
0000
0000
0000
0300
0000
1001
0000
0000
0000
0020
0000
0130
0000
1000
0100
,
0001
0000
0000
0000
0010
0001
1000
1000
,
0101
0100
0100
0010
1000
1000
0100
0001
,
0000
0000
0000
0000
0000
2002
3013
0100
,
2020
3030
2200
3300
2020
3030
2200
3300
,
2020
0000
3030
0000
2200
0000
3300
0000
0110
0000
0110
0000
0000
0000
4004
3003
,
0020
0030
2020
3030
0022
0033
2020
3030
,
0022
0033
2020
3030
1001
1001
0100
0000
,
2200
3300
0202
0303
2200
3300
0202
0303
,
2200
3300
0202
0303
1010
0100
0001
1000
,
0022
0033
0202
0303
0022
0033
0202
0303
,
0022
0033
0202
0303
0110
0110
1000
0001
,
0100
0000
0000
0000
0000
0000
1000
0100
,
0001
0010
1000
0000
0020
0000
0030
0000
,
0001
0010
1000
0000
0100
0001
0100
1000
,
0010
0000
0100
0000
0200
0000
0301
0100
,
2000
3100
0020
0001
,
1030
0010
0001
0010
0020
0000
0230
0000
,
0300
1000
0100
0000
0100
0001
0100
1000
,
0010
1000
0010
0002
0000
0000
0000
0000
,
2003
3200
0320
0030
0002
0000
0203
0000
,
0300
1000
0100
0001
0002
0023
2030
3000
,
2000
0010
3002
0000
0003
0010
0100
0010
,
0200
0320
0032
0003
2000
0010
3200
0000
,
0300
0001
0010
0001
2000
3200
0302
0000
,
1003
0000
0002
0023
2030
3000
2000
0000
,
3020
0032
0203
0300
2000
3000
0200
0000
,
0300
0010
0100
0010
0200
2300
3020
0030
,
0002
0100
0023
0000
1000
0000
0030
0000
,
2000
3200
0302
0003
0020
2030
0000
0000
,
0100
0100
3020
0100
,
0230
0000
0302
0000
0000
0000
0000
0003
,
2000
3200
0302
0003
0002
0100
0203
0000
,
0300
0010
1000
0100
0002
0023
2030
3000
,
2000
0010
3002
0000
0003
1000
0010
0100
,
0002
0203
2300
3000
2000
0010
3200
0000
,
0300
0000
0000
0000
0002
0203
2300
0000
,
3001
0000
2000
3020
0032
0003
0002
0000
,
0023
0000
0000
0000
,
0000
0000
0200
0000
,
0000
0000
0000
0000
0000
0000
0000
0330
,
2000
0000
0002
0000
,
3020
0000
0203
0000
,
2030
0000
0302
0000
,
3020
0000
0000
0000
,
0000
0000
0000
0000
,
0000
0000
0000
0000
,
0000
0000
0033
0000
1000
1000
1001
0000
,
0101
0000
1010
0000
0010
0100
0010
1000
,
0100
0000
0011
0000
0100
1000
0010
1000
,
0100
1000
0010
0000
0001
0100
1000
0001
,
0100
0001
0010
1000
0011
0000
1100
0000
,
0101
0000
1010
0000
0100
0010
1000
0001
,
1000
0010
0001
0000
0010
0100
0001
1000
,
0100
0001
0100
0000
0100
0000
1000
0010
,
0001
0010
1000
0000
0010
0001
0110
0100
,
0000
0010
1000
0010
0001
0100
0010
0001
,
0000
0010
0100
0010
0100
0100
0001
1000
,
0000
0000
0010
0100
0010
0000
1000
0000
0010
0000
0001
0000
0100
0000
0000
0000
,
0010
1000
0101
0010
1000
0100
1001
0000
,
0000
1000
0100
0001
1000
0010
0002
0003
,
0000
0001
0010
1000
0001
0100
2000
3000
,
0000
0100
0001
0100
1000
0100
0001
0000
,
0000
0010
1010
0000
0110
0000
1001
0100
,
0001
0100
1000
0010
0001
0100
1000
0000
,
0010
0100
2002
3003
0000
0000
0000
0000
;

//--------------- dance-single - LNinja ----------------
#NOTES:
     dance-single:
     LNinja:
     Hard:
     17:
     0,0,0,0,0:
0000
0000
0000
0000
,
0101
0000
0000
0000
1010
0000
0001
0000
0100
0000
0100
0000
0001
0000
0010
0100
,
1000
0000
0000
1000
0000
0000
0001
0000
0100
0000
0010
0000
1000
0000
1000
0000
,
0011
0000
0100
0000
0100
0000
1000
0001
0100
0000
0010
1000
0002
0000
0010
0000
,
0103
0000
0000
0001
0100
0000
0010
0000
1000
0000
0100
0000
0010
0001
1000
0000
,
2020
0000
3030
0000
0100
0000
0010
0000
0000
0000
0100
0000
1000
0000
0010
0100
,
0002
0000
0000
0100
0003
0000
0001
0000
0010
0000
0100
0000
1000
0000
1000
0000
,
1010
0000
0100
0000
0100
0000
0001
1000
0010
0000
0010
0000
1001
0000
0100
0000
,
0001
0000
0000
0010
0000
0000
1000
0000
0100
0000
0001
0000
0100
0000
1000
0000
,
2002
0000
0000
0003
3010
0000
0000
0000
0001
0000
0000
0000
1000
0000
0100
0010
,
0100
1000
0001
0000
0200
0000
0301
0000
,
0010
1000
0010
0000
0100
0000
0001
1000
0100
0000
0010
0000
0100
0000
1000
0001
,
0100
0000
0100
0010
0200
0001
1300
0010
,
2000
0000
0001
3010
0100
0000
0000
0000
0200
0000
0000
0000
0010
0000
0301
1000
,
0010
0100
0010
1000
0020
0000
2000
0030
,
3010
0100
0001
0000
0010
0000
0000
0000
0010
0000
0000
0000
0001
0000
0100
0000
,
1000
0001
0100
0000
0001
0000
0000
0000
0020
0000
0000
0000
0200
0000
0300
0030
,
0001
0010
0100
0000
1001
0000
0000
0000
0101
0000
0000
0000
0001
0000
0100
0000
,
1000
0100
0010
0000
0100
0000
0001
1000
0100
0000
0010
0000
0100
0000
0000
0000
,
0100
0010
0001
0000
0010
0000
0000
0000
0100
0000
0000
0000
0100
0000
0100
0010
,
0001
0000
0100
0000
0001
0000
0010
0100
1000
0000
0100
0000
1000
0000
0010
0000
,
0100
0001
1000
0000
0100
0000
0000
0000
0001
0000
0000
0000
1000
0000
0010
0100
,
0001
0000
1000
0000
0100
0000
0010
0001
0010
0000
0001
1000
0010
0000
0000
0000
,
0100
0001
2000
0000
0200
0000
0000
3000
0010
0000
0000
0000
1000
0000
0300
0000
,
4004
0000
3003
0000
0010
0100
0001
0001
,
1001
0100
1010
0001
0101
0010
0100
0010
,
0100
0001
1000
0000
0100
0000
0001
0000
1010
0000
0100
0000
0001
0000
1000
0000
,
0100
0010
0001
0000
0010
0000
0100
0000
1000
0000
0100
0000
0010
0000
0001
0000
,
0100
0000
0000
0010
0000
0000
1000
0000
0000
0000
0000
0000
0010
0000
0000
0000
0000
0000
1000
0000
0000
0000
0000
0000
0100
0000
0000
0000
0000
0000
0001
0000
0000
0000
0000
0000
0101
0000
0000
0000
0000
0000
0001
0000
0010
0000
0100
0000
,
1000
0001
1010
0100
0101
0010
0010
0100
,
0001
0010
0100
0000
0010
0000
0001
0000
1000
0000
0010
0000
0001
0000
0010
0000
,
0100
1000
0001
0000
0100
0000
0010
0000
0100
0000
0001
0000
0010
0000
0100
0000
,
1000
0001
0010
0000
0100
0000
1000
0000
0010
0000
0100
0000
0001
0000
0010
0000
,
0110
0000
0100
0000
1000
0000
0100
0000
0001
0010
0100
0000
1000
0100
0010
0000
,
0100
0000
1000
0000
0010
0000
0010
0100
0001
0000
0100
0000
0010
0000
0010
0000
,
1000
0000
0001
0000
1000
0000
0100
0010
0100
0000
0001
0000
1000
0010
1000
0000
,
1010
0000
0000
0000
0000
0000
0001
0000
0000
0000
0000
0000
0100
0000
0000
0000
0000
0000
0001
0000
0000
0000
0000
0000
0001
0000
0000
0100
0000
0000
0010
0000
0000
0000
0000
0000
1000
0000
0000
0000
0000
0000
1000
0000
0100
0000
0010
0000
,
0001
0000
0100
0000
0010
0000
0001
0000
0010
0000
1000
0000
0001
0010
0100
0000
,
2000
0000
3010
0000
0100
0000
1000
0000
0100
0000
0001
0000
1000
0100
0010
0000
,
0002
0000
0103
0000
1000
0000
0010
0000
1000
0100
0010
0000
0001
0000
0100
0000
,
1000
0001
1000
0100
0101
1000
0110
0000
,
1001
0000
0000
0000
0100
0000
0010
0100
0001
0000
1000
0000
1000
0000
0100
0010
,
0002
0000
0000
0100
0003
0000
0100
0000
0001
1000
0100
1000
0001
0100
0010
0000
,
1001
0000
0001
0000
0100
0010
1000
0000
0001
0010
0100
0000
0010
0001
1000
0001
,
0100
0000
0000
0100
0010
0000
1000
0000
0100
0000
0001
0000
0100
0010
1000
0000
,
0400
0000
0000
0000
0300
0000
1001
0000
0000
0000
0020
0000
0130
0000
1000
0001
,
0200
0300
0000
0100
0000
0000
0100
0000
0010
0000
0001
0000
1000
0000
1000
0000
,
0101
0000
0100
0000
0100
0001
0010
0100
1000
0000
1000
0001
0100
0010
1000
0000
,
0100
0000
0000
0100
0000
0000
0100
0000
0000
0000
2002
0000
3013
0000
0100
0000
,
0022
0000
0000
0000
0000
0000
0000
0000
0000
0000
0000
0000
0000
0000
0000
0000
0000
0000
0000
0000
0000
0000
0000
0000
0000
0000
0000
0000
0000
0000
0000
0000
0000
0000
0000
0000
0000
0000
0000
0000
0000
0000
0000
0000
0000
0000
0000
0033
0202
0000
0000
0000
0000
0000
0000
0000
0000
0000
0000
0000
0000
0000
0000
0000
0000
0000
0000
0000
0000
0000
0000
0000
0000
0000
0000
0000
0000
0000
0000
0000
0000
0000
0000
0000
0000
0000
0000
0000
0000
0000
0000
0000
0000
0000
0000
0303
0022
0000
0000
0000
0000
0000
0000
0000
0000
0000
0000
0000
0000
0000
0000
0000
0000
0000
0000
0000
0000
0000
0000
0000
0000
0000
0000
0000
0000
0000
0000
0000
0000
0000
0000
0000
0000
0000
0000
0000
0000
0000
0000
0000
0000
0000
0000
0033
0202
0000
0000
0000
0000
0000
0000
0000
0000
0000
0000
0000
0000
0000
0000
0000
0000
0000
0000
0000
0000
0000
0000
0000
0000
0000
0000
0000
0000
0000
0000
0000
0000
0000
0000
0000
0000
0000
0000
0000
0000
0000
0000
0000
0000
0000
0000
0303
,
0022
0000
0000
0000
0000
0000
0000
0000
0000
0000
0000
0000
0000
0000
0000
0000
0000
0000
0000
0000
0000
0000
0000
0000
0000
0000
0000
0000
0000
0000
0000
0000
0000
0000
0000
0000
0000
0000
0000
0000
0000
0000
0000
0000
0000
0000
0000
0033
0202
0000
0000
0000
0000
0000
0000
0000
0000
0000
0000
0000
0000
0000
0000
0000
0000
0000
0000
0000
0000
0000
0000
0000
0000
0000
0000
0000
0000
0000
0000
0000
0000
0000
0000
0000
0000
0000
0000
0000
0000
0000
0000
0000
0000
0000
0000
0303
0110
0000
0000
0000
0000
0000
0000
0000
0000
0000
0000
0000
0000
0000
0000
0000
0000
0000
0000
0000
0000
0000
0000
0000
0110
0000
0000
0000
0000
0000
0000
0000
0000
0000
0000
0000
0000
0000
0000
0000
0000
0000
0000
0000
0000
0000
0000
0000
0000
0000
0000
0000
0000
0000
0000
0000
0000
0000
0000
0000
0000
0000
0000
0000
0000
0000
0000
0000
0000
0000
0000
0000
4004
0000
0000
0000
0000
0000
0000
0000
0000
0000
0000
0000
3003
0000
0000
0000
0000
0000
0000
0000
0000
0000
0000
0000
,
0022
0000
0000
0000
0000
0000
0000
0000
0000
0000
0000
0000
0000
0000
0000
0000
0000
0000
0000
0000
0000
0000
0000
0000
0000
0000
0000
0000
0000
0000
0000
0000
0000
0000
0000
0000
0000
0000
0000
0000
0000
0000
0000
0000
0000
0000
0000
0033
2020
0000
0000
0000
0000
0000
0000
0000
0000
0000
0000
0000
0000
0000
0000
0000
0000
0000
0000
0000
0000
0000
0000
0000
0000
0000
0000
0000
0000
0000
0000
0000
0000
0000
0000
0000
0000
0000
0000
0000
0000
0000
0000
0000
0000
0000
0000
3030
0022
0000
0000
0000
0000
0000
0000
0000
0000
0000
0000
0000
0000
0000
0000
0000
0000
0000
0000
0000
0000
0000
0000
0000
0000
0000
0000
0000
0000
0000
0000
0000
0000
0000
0000
0000
0000
0000
0000
0000
0000
0000
0000
0000
0000
0000
0000
0033
2020
0000
0000
0000
0000
0000
0000
0000
0000
0000
0000
0000
0000
0000
0000
0000
0000
0000
0000
0000
0000
0000
0000
0000
0000
0000
0000
0000
0000
0000
0000
0000
0000
0000
0000
0000
0000
0000
0000
0000
0000
0000
0000
0000
0000
0000
0000
3030
,
0022
0000
0000
0000
0000
0000
0000
0000
0000
0000
0000
0000
0000
0000
0000
0000
0000
0000
0000
0000
0000
0000
0000
0000
0000
0000
0000
0000
0000
0000
0000
0000
0000
0000
0000
0000
0000
0000
0000
0000
0000
0000
0000
0000
0000
0000
0000
0033
2020
0000
0000
0000
0000
0000
0000
0000
0000
0000
0000
0000
0000
0000
0000
0000
0000
0000
0000
0000
0000
0000
0000
0000
0000
0000
0000
0000
0000
0000
0000
0000
0000
0000
0000
0000
0000
0000
0000
0000
0000
0000
0000
0000
0000
0000
0000
3030
0011
0000
0000
0000
0000
0000
0000
0000
0000
0000
0000
0000
0000
0000
0000
0000
0000
0000
0000
0000
0000
0000
0000
0000
1001
0000
0000
0000
0000
0000
0000
0000
0000
0000
0000
0000
0000
0000
0000
0000
0000
0000
0000
0000
0000
0000
0000
0000
0100
0000
0000
0000
0000
0000
0000
0000
0000
0000
0000
0000
0000
0000
0000
0000
0000
0000
0000
0000
0000
0000
0000
0000
0000
0000
0000
0000
0000
0000
0000
0000
0000
0000
0000
0000
0000
0000
0000
0000
0000
0000
0000
0000
0000
0000
0000
0000
,
0202
0000
0000
0000
0000
0000
0000
0000
0000
0000
0000
0000
0000
0000
0000
0000
0000
0000
0000
0000
0000
0000
0000
0000
0000
0000
0000
0000
0000
0000
0000
0000
0000
0000
0000
0000
0000
0000
0000
0000
0000
0000
0000
0000
0000
0000
0000
0303
2200
0000
0000
0000
0000
0000
0000
0000
0000
0000
0000
0000
0000
0000
0000
0000
0000
0000
0000
0000
0000
0000
0000
0000
0000
0000
0000
0000
0000
0000
0000
0000
0000
0000
0000
0000
0000
0000
0000
0000
0000
0000
0000
0000
0000
0000
0000
3300
0202
0000
0000
0000
0000
0000
0000
0000
0000
0000
0000
0000
0000
0000
0000
0000
0000
0000
0000
0000
0000
0000
0000
0000
0000
0000
0000
0000
0000
0000
0000
0000
0000
0000
0000
0000
0000
0000
0000
0000
0000
0000
0000
0000
0000
0000
0000
0303
2200
0000
0000
0000
0000
0000
0000
0000
0000
0000
0000
0000
0000
0000
0000
0000
0000
0000
0000
0000
0000
0000
0000
0000
0000
0000
0000
0000
0000
0000
0000
0000
0000
0000
0000
0000
0000
0000
0000
0000
0000
0000
0000
0000
0000
0000
0000
3300
,
0202
0000
0000
0000
0000
0000
0000
0000
0000
0000
0000
0000
0000
0000
0000
0000
0000
0000
0000
0000
0000
0000
0000
0000
0000
0000
0000
0000
0000
0000
0000
0000
0000
0000
0000
0000
0000
0000
0000
0000
0000
0000
0000
0000
0000
0000
0000
0303
2200
0000
0000
0000
0000
0000
0000
0000
0000
0000
0000
0000
0000
0000
0000
0000
0000
0000
0000
0000
0000
0000
0000
0000
0000
0000
0000
0000
0000
0000
0000
0000
0000
0000
0000
0000
0000
0000
0000
0000
0000
0000
0000
0000
0000
0000
0000
3300
0011
0000
0000
0000
0000
0000
0000
0000
0000
0000
0000
0000
0000
0000
0000
0000
0000
0000
0000
0000
0000
0000
0000
0000
0100
0000
0000
0000
0000
0000
0000
0000
0000
0000
0000
0000
0000
0000
0000
0000
0000
0000
0000
0000
0000
0000
0000
0000
1000
0000
0000
0000
0000
0000
0000
0000
0000
0000
0000
0000
0000
0000
0000
0000
0000
0000
0000
0000
0000
0000
0000
0000
0001
0000
0000
0000
0000
0000
0000
0000
0000
0000
0000
0000
0000
0000
0000
0000
0000
0000
0000
0000
0000
0000
0000
0000
,
2020
0000
0000
0000
0000
0000
0000
0000
0000
0000
0000
0000
0000
0000
0000
0000
0000
0000
0000
0000
0000
0000
0000
0000
0000
0000
0000
0000
0000
0000
0000
0000
0000
0000
0000
0000
0000
0000
0000
0000
0000
0000
0000
0000
0000
0000
0000
3030
2200
0000
0000
0000
0000
0000
0000
0000
0000
0000
0000
0000
0000
0000
0000
0000
0000
0000
0000
0000
0000
0000
0000
0000
0000
0000
0000
0000
0000
0000
0000
0000
0000
0000
0000
0000
0000
0000
0000
0000
0000
0000
0000
0000
0000
0000
0000
3300
2020
0000
0000
0000
0000
0000
0000
0000
0000
0000
0000
0000
0000
0000
0000
0000
0000
0000
0000
0000
0000
0000
0000
0000
0000
0000
0000
0000
0000
0000
0000
0000
0000
0000
0000
0000
0000
0000
0000
0000
0000
0000
0000
0000
0000
0000
0000
3030
2200
0000
0000
0000
0000
0000
0000
0000
0000
0000
0000
0000
0000
0000
0000
0000
0000
0000
0000
0000
0000
0000
0000
0000
0000
0000
0000
0000
0000
0000
0000
0000
0000
0000
0000
0000
0000
0000
0000
0000
0000
0000
0000
0000
0000
0000
0000
3300
,
2020
0000
0000
0000
0000
0000
0000
0000
0000
0000
0000
0000
0000
0000
0000
0000
0000
0000
0000
0000
0000
0000
0000
0000
0000
0000
0000
0000
0000
0000
0000
0000
0000
0000
0000
0000
0000
0000
0000
0000
0000
0000
0000
0000
0000
0000
0000
3030
2200
0000
0000
0000
0000
0000
0000
0000
0000
0000
0000
0000
0000
0000
0000
0000
0000
0000
0000
0000
0000
0000
0000
0000
0000
0000
0000
0000
0000
0000
0000
0000
0000
0000
0000
0000
0000
0000
0000
0000
0000
0000
0000
0000
0000
0000
0000
3300
0110
0000
0000
0000
0000
0000
0000
0000
0000
0000
0000
0000
0000
0000
0000
0000
0000
0000
0000
0000
0000
0000
0000
0000
0110
0000
0000
0000
0000
0000
0000
0000
0000
0000
0000
0000
0000
0000
0000
0000
0000
0000
0000
0000
0000
0000
0000
0000
0001
0000
0000
0000
0000
0000
0000
0000
0000
0000
0000
0000
0000
0000
0000
0000
0000
0000
0000
0000
0000
0000
0000
0000
1000
0000
0000
0000
0000
0000
0000
0000
0000
0000
0000
0000
0000
0000
0000
0000
0000
0000
0000
0000
0000
0000
0000
0000
,
0100
0000
0100
0000
0100
0000
1000
0100
,
0001
0000
0010
0000
1000
0000
0001
0100
0020
0000
0230
0001
1300
0000
0000
0000
,
0001
0010
1000
0000
1000
0100
0001
0100
,
1000
0000
0001
0000
1000
0000
0001
0010
0200
0000
1000
0000
0310
0000
0001
0000
,
2000
0010
0000
0000
3100
0000
0000
0000
0020
0000
0000
0000
2030
0000
0100
0000
,
3001
0000
0010
0000
0001
0000
0100
0010
0200
0000
0001
1300
0200
0000
0000
0000
,
0310
0000
1000
0000
0100
0000
0000
0000
0100
0000
0001
0000
0100
0001
1000
0000
,
0010
0001
0010
2000
0000
0000
0000
0000
,
3002
0203
2300
3000
2000
0000
3200
0000
,
0300
0001
0100
1000
2000
3020
0032
1003
,
0002
0010
2003
0100
3001
0010
0100
0010
,
0002
0020
2030
3103
0020
0100
2030
0000
,
3000
1000
0010
0100
0002
0023
2030
0000
,
3100
0000
0020
2030
3200
0300
0002
0000
,
0023
2030
3020
0031
0002
0013
0200
1000
,
0301
0010
0100
0010
0002
2003
3020
0130
,
0020
0000
1000
0000
0230
0000
1300
0000
0001
0000
1000
0000
0100
1000
0001
0000
,
0002
0000
0203
0010
2300
0000
3001
0000
0200
0000
0320
0000
2030
0000
3200
0000
,
0320
0032
0203
0320
2031
3000
0001
0010
,
0200
0000
0000
1000
0000
0000
2300
0000
0000
0000
0100
0000
0000
0000
0000
0000
0000
0000
0000
0000
0000
3000
0000
0000
,
0002
0203
2300
3100
2000
0100
3200
0001
,
1300
0010
0001
0100
2000
3020
0032
1003
,
0002
0010
2003
0100
3010
0001
0010
0100
,
2000
3200
0302
0013
0002
0010
0203
1000
,
0310
0001
0100
0010
2000
3200
0302
0100
,
1003
0000
0100
0000
0002
0100
0023
0000
2030
0000
3010
0000
2000
0000
0000
0000
,
3002
0023
0230
2300
3002
0023
0230
2300
,
3002
0023
0230
2300
3200
0320
0032
2003
,
3200
0320
0032
2003
3200
0320
0032
2003
,
3020
0230
0302
2003
3020
0230
0302
2003
,
3200
0320
2030
3002
0203
0320
2030
3002
,
0203
0000
0310
0000
1000
0010
1000
0000
2000
0000
0100
0000
3001
0000
0200
0000
,
0020
0000
0000
0000
,
0000
0000
0000
0000
,
0000
0000
0000
0000
0000
0000
0000
0300
,
0100
0000
0130
0000
0100
0010
0100
0000
0010
0000
1000
0000
1001
0000
0010
0000
,
0101
0000
1000
0000
1010
0000
0100
0000
0010
0000
0100
0000
0010
1000
0001
0000
,
0010
0000
1000
0000
0101
0000
0010
0000
1000
0000
0001
0000
0010
0100
1000
0000
,
0100
0000
0010
0000
0001
0000
0010
0000
0100
0000
1000
0000
0010
0100
0001
0000
,
0100
0000
0000
0001
0000
0000
0010
0000
0000
1000
0000
0000
1010
0000
0000
1000
0100
0010
0001
0000
0000
1000
0000
0000
,
0101
0000
0010
0000
1010
0000
0100
0000
0100
0000
0010
0000
1000
0100
0010
0000
,
0100
0000
1000
0000
0001
0000
0100
0000
1000
0000
0100
0000
0010
0001
1000
0000
,
0010
0000
0100
0000
0010
0000
1000
0000
0100
0000
0010
0000
0001
1000
0100
0000
,
0010
0001
0100
0010
1000
0100
0110
0010
,
0000
0000
0010
0000
1000
0000
0000
0000
0001
0010
0100
1000
0010
0000
0001
0000
,
0100
0000
0100
0010
1000
0000
0010
0000
0100
0000
0100
0000
0001
0000
1000
0000
,
0001
0000
0010
0100
0010
0000
1000
0000
0001
0100
0001
0000
0101
0000
1000
0000
,
0010
0000
0000
0000
0000
0000
1000
0000
0000
0000
0000
0000
1000
0000
0000
0010
0000
0000
0100
0000
0000
0000
0000
0000
0001
0000
0000
0000
0000
0000
0001
0000
0010
0000
0100
0000
1000
0000
0000
0000
0000
0000
0010
0000
0000
0000
0000
0000
,
0100
0000
1000
0000
0100
0000
0001
0000
1000
0100
0010
0000
0002
0000
0103
0000
,
0010
0000
0001
0000
0010
0000
1000
0000
0001
0010
0100
0000
2000
0000
3010
0000
,
0001
0000
0100
0000
0001
0010
0100
0000
1000
0000
0010
0000
0001
0000
1000
0000
,
0001
0000
0000
0010
0000
0000
1010
0000
0000
0001
0000
0000
0110
0000
0000
0001
0010
0100
1000
0000
0000
0100
0000
0000
,
0001
0100
1000
0010
0001
0100
1000
0000
,
0010
0001
2002
3003
0000
0000
0000
0000
;

//--------------- dance-single - LNinja ----------------
#NOTES:
     dance-single:
     LNinja:
     Challenge:
     18:
     0,0,0,0,0:
0000
0000
0000
0000
;

//--------------- dance-single - LNinja - mines ----------------
#NOTES:
     dance-single:
     LNinja - mines:
     Edit:
     15:
     0,0,0,0,0:
0000
0000
0000
0000
,
0010
0000
1000
0000
0100
0100
0010
0001
,
0200
0000
0300
0000
1000
0001
0010
0010
,
0100
0010
0010
0001
0100
0010
2000
3001
,
0100
0000
0100
0000
0100
0001
0010
0100
,
2002
0000
3003
0000
0100
0000
0010
0000
0000
0000
1000
0000
0010
0000
0001
0010
,
0200
0000
0300
0000
0010
0100
1000
1000
,
0001
0100
0100
0010
1000
1000
0100
0010
,
0000
0000
0000
0000
1000
0010
0100
0001
,
2002
3000
0013
0000
0100
0000
1000
0100
,
0010
0100
1000
0000
0002
0000
0003
0000
,
0001
0100
1000
0000
0100
0001
0010
0100
,
1000
0000
0100
0000
0200
0000
0301
0010
,
2000
3010
0200
0001
,
1300
0010
0100
0001
0020
0000
0230
0000
,
1300
1000
0010
0000
0010
0000
0001
0100
,
0010
0100
0001
0000
0020
0000
0230
0000
,
1300
0000
0101
0000
1100
0000
0001
0100
,
0001
1000
0100
0000
0010
0000
0100
0000
,
1000
0010
0100
0000
0010
0000
0010
0000
,
0001
0010
0100
1000
0010
0000
0100
0000
,
0001
0010
0001
0000
0001
0000
1000
0000
,
1000
0010
0100
0001
0010
0000
0001
0000
,
2000
0000
0000
0000
0000
0000
0000
0000
0000
0000
0000
0000
0000
0000
0000
0000
0000
0000
0000
0000
0000
0000
0000
0000
0000
3000
0000
0000
0000
0000
0000
0000
0000
0000
0000
0000
0000
0000
0000
0000
0000
0000
0000
0000
0000
0000
0000
0000
0000
0000
0000
0000
0000
0000
0000
0000
0000
0000
0000
0000
0000
0000
0000
0000
0000
0000
0000
0000
0000
0000
0000
0000
0000
0000
0000
0000
0000
0000
0000
0000
0000
0000
0000
0000
0000
0000
0000
0000
0000
0000
0000
0000
0000
0000
0000
0000
,
4004
0000
3003
0000
0010
0100
0001
0001
,
1001
0000
0011
0000
1100
0000
0100
1000
,
0100
0010
0001
0000
1001
0000
0001
0010
,
0100
1000
0100
0010
0001
0000
1000
0100
,
0010
0001
0010
0100
1000
0001
0101
0000
,
1010
0000
0011
0000
1100
0000
0010
0100
,
0001
1000
0001
0100
0010
0000
0100
0010
,
1000
0001
1000
0010
0100
0000
0100
0000
,
0001
0100
1000
0100
0001
0000
0100
1000
,
1100
0010
0000
0100
1000
0100
0001
0010
,
1000
0100
0000
0100
0010
0100
0010
0010
,
0001
0000
1000
0000
0000
0000
1000
0100
0010
0000
0001
0000
0100
0000
1000
0000
,
0010
0000
0100
0001
0100
0010
1000
0100
,
0001
0000
0000
0001
0010
0100
1000
0100
,
0010
0000
0000
1000
0100
0010
0001
0010
,
0200
0300
0000
0010
0100
0001
1000
0001
,
0100
0000
0000
0100
0001
0000
0110
0000
,
1001
0000
0100
0000
0001
1000
1000
0100
,
0020
0000
0030
0000
0001
0100
0010
0010
,
1010
0001
0001
1000
0100
0001
0100
1000
,
0010
0000
0010
0000
0100
0001
1000
0010
,
0400
0000
0000
0000
0300
0000
1001
0000
0000
0000
0020
0000
0130
0000
1000
0001
,
1000
0000
0000
0000
0010
0001
1000
1000
,
1010
0100
0100
0010
1000
1000
0100
0001
,
0000
0000
0000
0000
0000
2002
3013
0100
,
0220
0330
2002
3003
0220
0330
0022
0033
,
2200
0000
3300
0000
2002
0000
3003
0000
0110
0000
0110
0000
0000
0000
4004
3003
,
0020
0030
2020
3030
0202
0303
0022
0033
,
2200
3300
0022
0033
1001
1001
0100
0000
,
2200
3300
0202
0303
0022
0033
2020
3030
,
2200
3300
0202
0303
1010
0100
0001
1000
,
2200
3300
2020
3030
0022
0033
0202
0303
,
2200
3300
0202
0303
0110
0110
1000
0001
,
0100
0000
0000
0000
0000
0000
1000
0100
,
0001
0010
1000
0000
0020
0000
0030
0000
,
0001
0010
1000
0000
0100
0001
0010
0100
,
1000
0000
0100
0000
0200
0000
0301
1000
,
0020
0130
0020
0001
,
1030
0100
0010
0001
0020
0000
0230
0000
,
0300
1000
0100
0000
0100
0010
0001
1000
,
0010
0100
0010
0200
0000
0000
0000
0000
,
2300
3200
0320
0030
0002
0000
0203
0000
,
0300
0000
0000
0000
0002
0023
2030
3000
,
2000
3002
0003
0000
,
0020
0230
2300
3000
0002
0000
0203
0000
,
0300
0000
0000
0000
2000
3200
0302
0000
,
1003
0000
0002
0023
2030
3000
2000
0000
,
3020
0032
0203
0300
2000
3000
0200
0000
,
0300
0000
0000
0000
0200
0320
0032
0003
,
0002
0023
0000
0030
,
2000
3200
0320
0030
0002
2003
0000
0000
,
0000
0100
3020
0000
,
0230
0000
0302
0000
0000
0000
0000
0003
,
2000
3200
0320
0030
0002
0000
0203
0000
,
0300
0000
0000
0000
0002
0023
2030
3000
,
2000
3002
0003
0000
,
0020
0230
2300
3000
0002
0000
0203
0000
,
0300
0000
0000
0000
0002
0203
2300
0000
,
3001
0000
2000
3020
0032
0003
0002
0000
,
0023
0000
0000
0000
,
0000
0000
0200
0000
,
0000
0000
0000
0000
0000
0000
0000
0330
,
2000
0000
0002
0000
,
3020
0000
0203
0000
,
2030
0000
0302
0000
,
3020
0000
0000
0000
,
0000
0000
0000
0000
,
0000
0000
0000
0000
,
0000
0000
0033
0000
0001
1000
1001
0000
,
1100
0000
0011
0000
0010
0001
0010
0100
,
1000
0000
1001
0000
1000
0100
0010
0001
,
0010
0100
1000
0000
0001
0010
0100
1000
,
0100
0010
0001
1000
1010
0000
0101
0000
,
1100
0000
0011
0000
0100
0010
1000
0001
,
1000
0010
0100
0000
0010
0100
0001
1000
,
0001
0100
0010
0000
0010
0000
1000
0010
,
0001
0010
1000
0000
0010
0001
0011
0100
,
0000
0010
0001
0010
1000
0100
0001
0010
,
0000
0010
0100
0010
0100
0100
1000
0001
,
0000
0000
0001
0010
0100
0000
1000
0000
0010
0000
0001
0000
0100
0000
0000
0000
,
0010
1000
0010
0100
0001
0010
1000
0000
,
0000
1000
0100
0010
0001
0010
0100
0000
,
0000
0001
0010
0100
1000
0100
0020
0030
,
0000
0100
0010
1000
0001
1000
0010
0000
,
0000
0010
1000
0000
0110
0000
1001
0010
,
0100
1000
0100
0010
0001
0010
0100
0000
,
1000
0001
2002
3003
0000
0000
0000
0000
;

//--------------- dance-single - LNinja - XMOD ----------------
#NOTES:
     dance-single:
     LNinja - XMOD:
     Edit:
     15:
     0,0,0,0,0:
0000
0000
0000
0000
,
0010
0000
1000
0000
0100
0100
0010
0001
,
0200
0000
0300
0000
1000
0001
0010
0010
,
0100
0010
0010
0001
0100
0010
2000
3001
,
0100
0000
0100
0000
0100
0001
0010
0100
,
2002
0000
3003
0000
0100
0000
0010
0000
0000
0000
1000
0000
0010
0000
0001
0010
,
0200
0000
0300
0000
0010
0100
1000
1000
,
0001
0100
0100
0010
1000
1000
0100
0010
,
0000
0000
0000
0000
1000
0010
0100
0001
,
2002
3000
0013
0000
0100
0000
1000
0100
,
0010
0100
1000
0000
0002
0000
0003
0000
,
0001
0100
1000
0000
0100
0001
0010
0100
,
1000
0000
0100
0000
0200
0000
0301
0010
,
2000
3010
0200
0001
,
1300
0010
0100
0001
0020
0000
0230
0000
,
1300
1000
0010
0000
0010
0000
0001
0100
,
0010
0100
0001
0000
0020
0000
0230
0000
,
1300
0000
0101
0000
1100
0000
0001
0100
,
0001
1000
0100
0000
0010
0000
0100
0000
,
1000
0010
0100
0000
0010
0000
0010
0000
,
0001
0010
0100
1000
0010
0000
0100
0000
,
0001
0010
0001
0000
0001
0000
1000
0000
,
1000
0010
0100
0001
0010
0000
0001
0000
,
2000
0000
0000
0000
0000
0000
0000
0000
0000
0000
0000
0000
0000
0000
0000
0000
0000
0000
0000
0000
0000
0000
0000
0000
0000
3000
0000
0000
0000
0000
0000
0000
0000
0000
0000
0000
0000
0000
0000
0000
0000
0000
0000
0000
0000
0000
0000
0000
0000
0000
0000
0000
0000
0000
0000
0000
0000
0000
0000
0000
0000
0000
0000
0000
0000
0000
0000
0000
0000
0000
0000
0000
0000
0000
0000
0000
0000
0000
0000
0000
0000
0000
0000
0000
0000
0000
0000
0000
0000
0000
0000
0000
0000
0000
0000
0000
,
4004
0000
3003
0000
0010
0100
0001
0001
,
1001
0000
0011
0000
1100
0000
0100
1000
,
0100
0010
0001
0000
1001
0000
0001
0010
,
0100
1000
0100
0010
0001
0000
1000
0100
,
0010
0001
0010
0100
1000
0001
0101
0000
,
1010
0000
0011
0000
1100
0000
0010
0100
,
0001
1000
0001
0100
0010
0000
0100
0010
,
1000
0001
1000
0010
0100
0000
0100
0000
,
0001
0100
1000
0100
0001
0000
0100
1000
,
1100
0010
0000
0100
1000
0100
0001
0010
,
1000
0100
0000
0100
0010
0100
0010
0010
,
0001
0000
1000
0000
0000
0000
1000
0100
0010
0000
0001
0000
0100
0000
1000
0000
,
0010
0000
0100
0001
0100
0010
1000
0100
,
0001
0000
0000
0001
0010
0100
1000
0100
,
0010
0000
0000
1000
0100
0010
0001
0010
,
0200
0300
0000
0010
0100
0001
1000
0001
,
0100
0000
0000
0100
0001
0000
0110
0000
,
1001
0000
0100
0000
0001
1000
1000
0100
,
0020
0000
0030
0000
0001
0100
0010
0010
,
1010
0001
0001
1000
0100
0001
0100
1000
,
0010
0000
0010
0000
0100
0001
1000
0010
,
0400
0000
0000
0000
0300
0000
1001
0000
0000
0000
0020
0000
0130
0000
1000
0001
,
1000
0000
0000
0000
0010
0001
1000
1000
,
1010
0100
0100
0010
1000
1000
0100
0001
,
0000
0000
0000
0000
0000
2002
3013
0100
,
0220
0330
2002
3003
0220
0330
0022
0033
,
2200
0000
3300
0000
2002
0000
3003
0000
0110
0000
0110
0000
0000
0000
4004
3003
,
0020
0030
2020
3030
0202
0303
0022
0033
,
2200
3300
0022
0033
1001
1001
0100
0000
,
2200
3300
0202
0303
0022
0033
2020
3030
,
2200
3300
0202
0303
1010
0100
0001
1000
,
2200
3300
2020
3030
0022
0033
0202
0303
,
2200
3300
0202
0303
0110
0110
1000
0001
,
0100
0000
0000
0000
0000
0000
1000
0100
,
0001
0010
1000
0000
0020
0000
0030
0000
,
0001
0010
1000
0000
0100
0001
0010
0100
,
1000
0000
0100
0000
0200
0000
0301
1000
,
0020
0130
0020
0001
,
1030
0100
0010
0001
0020
0000
0230
0000
,
0300
1000
0100
0000
0100
0010
0001
1000
,
0010
0100
0010
0200
0000
0000
0000
0000
,
2300
3200
0320
0030
0002
0000
0203
0000
,
0300
0000
0000
0000
0002
0023
2030
3000
,
2000
3002
0003
0000
,
0020
0230
2300
3000
0002
0000
0203
0000
,
0300
0000
0000
0000
2000
3200
0302
0000
,
1003
0000
0002
0023
2030
3000
2000
0000
,
3020
0032
0203
0300
2000
3000
0200
0000
,
0300
0000
0000
0000
0200
0320
0032
0003
,
0002
0023
0000
0030
,
2000
3200
0320
0030
0002
2003
0000
0000
,
0000
0100
3020
0000
,
0230
0000
0302
0000
0000
0000
0000
0003
,
2000
3200
0320
0030
0002
0000
0203
0000
,
0300
0000
0000
0000
0002
0023
2030
3000
,
2000
3002
0003
0000
,
0020
0230
2300
3000
0002
0000
0203
0000
,
0300
0000
0000
0000
0002
0203
2300
0000
,
3001
0000
2000
3020
0032
0003
0002
0000
,
0023
0000
0000
0000
,
0000
0000
0200
0000
,
0000
0000
0000
0000
0000
0000
0000
0330
,
2000
0000
0002
0000
,
3020
0000
0203
0000
,
2030
0000
0302
0000
,
3020
0000
0000
0000
,
0000
0000
0000
0000
,
0000
0000
0000
0000
,
0000
0000
0033
0000
0001
1000
1001
0000
,
1100
0000
0011
0000
0010
0001
0010
0100
,
1000
0000
1001
0000
1000
0100
0010
0001
,
0010
0100
1000
0000
0001
0010
0100
1000
,
0100
0010
0001
1000
1010
0000
0101
0000
,
1100
0000
0011
0000
0100
0010
1000
0001
,
1000
0010
0100
0000
0010
0100
0001
1000
,
0001
0100
0010
0000
0010
0000
1000
0010
,
0001
0010
1000
0000
0010
0001
0011
0100
,
0000
0010
0001
0010
1000
0100
0001
0010
,
0000
0010
0100
0010
0100
0100
1000
0001
,
0000
0000
0001
0010
0100
0000
1000
0000
0010
0000
0001
0000
0100
0000
0000
0000
,
0010
1000
0010
0100
0001
0010
1000
0000
,
0000
1000
0100
0010
0001
0010
0100
0000
,
0000
0001
0010
0100
1000
0100
0020
0030
,
0000
0100
0010
1000
0001
1000
0010
0000
,
0000
0010
1000
0000
0110
0000
1001
0010
,
0100
1000
0100
0010
0001
0010
0100
0000
,
1000
0001
2002
3003
0000
0000
0000
0000
;
