#TITLE:!;
#SUBTITLE:Respect(Fanmade);
#ARTIST:髥莏;
#TITLETRANSLIT:;
#SUBTITLETRANSLIT:;
#ARTISTTRANSLIT:Takara;
#GENRE:;
#CREDIT:;
#MUSIC:!.ogg;
#BANNER:;
#BACKGROUND:!-bg.png;
#CDTITLE:cdtitlelninja.png;
#SAMPLESTART:29.803;
#SAMPLELENGTH:13.778;
#SELECTABLE:YES;
#OFFSET:-0.025;
#BPMS:0.000=135.000
,112.000=270.000
,114.000=135.000
,256.000=270.000
,259.000=135.000
;
#STOPS:112.000=0.111
,112.500=0.111
,113.000=0.111
,113.500=0.111
,256.000=0.111
,256.500=0.111
,257.000=0.111
,257.500=0.111
,258.000=0.111
,258.500=0.111
;
#DISPLAYBPM:135.000;
#BGCHANGES:;
#FGCHANGES:;

//--------------- dance-single - LNinja ----------------
#NOTES:
     dance-single:
     LNinja:
     Hard:
     14:
     0,0,0,0,0:
0000
0000
0000
0000
,
1001
0000
0000
0000
0000
0000
0110
0000
0000
0100
0000
0000
0001
0000
1000
0000
,
1010
0000
0000
0000
1100
0000
0000
0000
0011
0000
0000
1001
0000
0000
0101
0000
,
0000
1001
0000
0100
0000
0000
0100
1000
0100
0010
0010
0000
0000
0001
0000
0100
,
0100
0000
0000
0000
0000
0000
0000
0000
0000
0000
0000
0000
1000
0100
1000
0100
1000
0000
0000
0000
0000
0000
0000
0000
0101
0000
0000
0000
0100
0000
0000
0000
,
1001
0000
0000
0010
0000
0000
0100
0000
0001
0000
0000
1000
0000
0010
0100
0010
,
0100
0000
0000
1001
0000
0000
0010
0100
1000
0000
0000
0001
0000
0000
0100
0010
,
1000
0000
0000
0101
0000
0000
0010
0000
1000
0000
0000
0001
0000
0000
0000
0010
,
0001
0010
0100
0010
0100
1000
0100
1000
0010
0100
0010
1000
0001
1000
0010
1000
,
0020
0000
0000
0131
1000
0000
1000
0010
,
0001
0010
1000
0010
1000
0000
1000
0001
,
0202
0000
0023
0300
1030
0100
0010
0001
,
0202
0000
0303
2000
0200
3300
0020
0002
,
0230
1003
1310
0000
0101
0010
0100
1000
,
1000
0010
0100
0001
0001
0010
0100
1000
,
2020
0000
0000
0000
3030
0010
0100
1000
,
0100
0010
0100
0010
0002
0003
1000
0001
,
1000
0010
0001
1000
0001
0010
1000
0001
,
1000
0100
0001
0100
1000
0001
0010
0100
,
1000
0010
0100
0001
0010
0100
1000
0010
,
0001
0010
0100
1000
0010
0000
0010
1000
,
0200
0000
0300
0010
1000
0001
0100
1000
,
0010
0001
1000
0010
0020
0000
1030
0001
,
0200
0000
0310
1000
0100
0010
0001
0100
,
0020
1000
0100
0100
1030
0100
1000
0001
,
0100
0001
1000
0100
0001
0000
0001
1000
,
0100
1000
0001
0100
1000
0010
0100
0001
,
0000
0100
0100
0010
0001
0010
1000
0001
,
1001
0101
1100
0110
2002
3003
0020
0200
,
0032
0000
0000
1303
0100
0010
0100
1000
,
0001
0010
0100
0010
0001
0000
1010
0100
,
0020
0000
0000
0130
1000
0010
0001
0100
,
2000
0000
0010
0000
0100
0000
0100
0000
0010
0000
0001
3100
0001
0000
1000
0000
,
0200
0000
0000
0310
0001
0100
0010
0001
,
0100
0010
0100
1000
0200
0000
0300
0101
,
0010
0100
1000
0002
0000
0013
0100
1000
,
1200
0000
0010
0000
0001
0000
0010
0000
1000
0000
0010
0000
0001
0000
0010
0300
,
1100
0000
0011
0000
1001
0000
0010
0100
0001
1000
0100
0010
0001
0100
0010
1000
,
0001
0010
0200
0000
0000
0000
0000
0000
0300
0000
1000
0010
0100
0001
0010
0000
,
0001
0000
1000
0100
0000
0010
0001
0000
0100
0001
0000
0001
0010
0100
0010
0001
,
0020
0030
0010
1000
0000
0100
0010
0002
0010
0000
1000
0000
1000
0000
0100
0000
,
2013
0000
0100
0000
0001
0000
0010
0000
0001
0000
3001
0010
0100
0000
0100
0000
,
0010
0000
0100
0010
0000
0100
0010
0001
0100
0000
0100
0000
0100
0000
1000
0000
,
0011
0000
0010
0100
1000
0001
0100
0010
0200
0000
0310
0200
0000
0310
1000
0100
,
0020
0000
0130
0020
0000
0130
1000
0010
0200
0000
0000
0000
2302
0000
0000
0000
,
0023
0000
0000
3132
1000
0000
1003
0010
,
0001
0000
0010
0000
1000
0000
0010
0000
2000
0000
0000
3000
1000
0000
0001
0000
,
0202
0000
0023
0300
1030
0100
0010
0001
,
0202
0000
0303
2000
0200
3300
0020
0002
,
0230
1003
1310
0000
0101
0010
0100
1000
,
1000
0010
0100
0001
0001
0010
0100
1000
,
2020
0000
0000
0000
3030
0010
0100
1000
,
0100
0010
0100
0010
0002
0003
1000
0001
,
1000
0010
0001
1000
0001
0010
1000
0001
,
1000
0100
0001
0100
1000
0001
0010
0100
,
1000
0010
0100
0001
0010
0100
1000
0010
,
0001
0010
0100
1000
0010
0000
0010
1000
,
0200
0000
0300
0010
1000
0001
0100
1000
,
0010
0001
1000
0010
0020
0000
1030
0001
,
0200
0000
0310
1000
0100
0010
0001
0100
,
0020
1000
0100
0100
1030
0100
1000
0001
,
0100
0001
1000
0100
0001
0000
0001
1000
,
0100
1000
0001
0100
1000
0010
0100
0001
,
0000
0100
0100
0010
0001
0010
1000
0001
,
1001
0101
1100
0110
2002
3003
0020
0200
,
0032
0000
0000
1303
0100
0010
0100
1000
,
0001
0010
0100
0010
0001
0000
1010
0100
,
0020
0000
0000
0130
1000
0010
0001
0100
,
2000
0000
0010
0000
0100
0000
0100
0000
0010
0000
0001
3100
0001
0000
1000
0000
,
0200
0000
0000
0310
0001
0100
0010
0001
,
0100
0010
0100
1000
0200
0000
0300
0101
,
0010
0100
1000
0002
0000
0013
0100
1000
,
1200
0000
0010
0000
0001
0000
0010
0000
1000
0000
0010
0000
0001
0000
0010
0300
,
2200
0000
0000
0000
3300
0000
0022
0033
0220
0330
2200
3300
2020
3030
0022
0033
,
0202
0303
2020
3030
2200
3300
0220
0330
2002
0000
3003
0000
2200
3300
2200
3300
,
2020
0000
0000
0000
3030
0000
2200
3300
2002
3003
0202
0303
0022
0033
0220
0000
,
2332
0000
0000
0000
0000
0000
0000
0000
0000
0000
3003
0000
0022
0033
2002
3003
,
2020
0000
0000
0000
3030
0000
2002
3003
0022
0033
0022
0033
2020
3030
2200
3300
,
0202
0303
0022
0033
2020
3030
2200
3300
0202
0000
0000
0000
0303
0000
0220
0330
,
0202
0303
2200
0000
3322
0000
2233
0000
3300
0000
2002
0000
3223
0000
2332
3003
,
2002
0000
0000
0000
,
3003
0000
0000
0000
;

//--------------- dance-single - LNinja ----------------
#NOTES:
     dance-single:
     LNinja:
     Challenge:
     17:
     0,0,0,0,0:
0000
0000
0000
0000
,
1001
0000
0000
0000
0100
0000
0011
0000
0000
0100
0000
0000
1010
0000
0100
0000
,
0001
0000
1100
0000
0010
0000
0001
0000
1010
0000
0000
1001
0000
0000
1100
0000
,
0000
0101
0000
0010
0000
0000
1000
0100
0010
0001
0100
0000
0000
0010
0000
1000
,
0100
0000
0000
0000
0000
0000
0000
0000
0000
0000
0000
0000
0001
0100
0001
0100
0001
0000
0000
0000
0000
0000
0000
0000
1010
0000
0001
0000
0010
0000
0100
0000
,
1000
0000
0000
0101
0000
0000
1001
0000
0011
0000
0000
1100
0000
0001
0010
0001
,
0010
0000
0000
1001
0000
0000
0010
0100
0001
0000
0000
1000
0000
0000
0100
0010
,
1000
0000
0000
0101
0000
0000
0010
0000
1100
0000
0000
0001
0000
0000
0000
0010
,
0001
0010
0100
0010
0100
1000
0100
1000
0010
0100
0010
1000
0001
1000
0010
1000
,
0020
0000
0100
0000
0000
0000
0131
0000
1000
0000
0100
0010
0001
0000
1000
0010
,
0100
0000
0001
0010
0100
0000
1000
0100
0010
0000
1000
0000
0001
0000
0100
0000
,
2010
0000
0100
0000
3020
0000
0001
0000
0130
1000
0001
0000
0100
0000
0010
0001
,
0200
0000
1000
0000
0300
0000
2000
0100
0002
3000
0103
0000
0020
0000
0032
0000
,
0200
0300
2003
0000
3110
0000
0000
0000
0001
0010
0100
0000
0010
0100
1000
0000
,
1000
0100
0010
0000
0100
0010
0001
0000
1000
0000
0010
0100
0001
0000
1000
0000
,
2100
0001
0000
0010
3000
0010
0100
1000
,
0100
0010
0001
0010
0001
1000
0010
0100
0002
0000
1003
0000
0100
0000
0001
0000
,
0010
0000
1000
0100
0001
0000
0001
0000
1000
0000
0001
0100
1000
0000
1000
0000
,
0001
0000
0010
0100
1000
0001
0100
0000
0010
1000
0100
0001
1000
0100
0010
0000
,
1000
0000
0010
0100
0001
0000
0001
0000
0010
0000
1000
0010
0001
0000
0001
0000
,
1000
0000
0001
0010
1000
0000
1000
0000
0010
0000
0000
0000
0100
0000
0001
0000
,
1002
0000
0100
0000
0003
0000
1000
0100
0010
1000
0001
0100
0010
1000
0001
0000
,
0010
0100
1000
0100
0001
0000
0010
0000
0020
0000
0100
0000
0031
0000
0100
0000
,
2000
0000
0100
0000
3001
0100
0010
0000
0001
0100
1000
0000
1000
0100
0001
0000
,
0020
0000
0001
0000
0100
0000
0100
0000
1030
0001
0100
0010
1000
0000
0100
0000
,
0010
0000
0001
0000
0100
0010
1000
0000
0100
0010
0001
0000
1000
0000
1000
0000
,
1000
0100
0001
0000
0100
0010
1000
0000
0100
0000
0010
1000
0100
0000
0001
0000
,
0000
0000
0100
0010
1000
0000
0100
0000
0010
0001
0100
0010
1000
0000
0100
0000
,
1001
0101
1100
0110
2002
3103
0020
2000
,
3230
0000
0002
0000
0000
0000
1303
0000
0100
0010
0001
0100
0010
0000
1000
0000
,
0001
0000
0010
0100
1000
0100
0010
0000
0001
0000
0000
0000
1010
0000
0100
0000
,
0020
0000
1000
0000
0000
0000
0130
1000
0010
0000
0001
0100
0010
0000
0100
0000
,
2000
0000
0010
0000
0100
0000
0100
0000
0010
0000
0001
3100
0001
0000
1000
0000
,
0200
0000
0010
0000
0000
0000
0310
0001
0100
0000
1000
0000
0010
0000
0001
0010
,
0100
0000
0001
0000
0100
1000
0010
0000
0200
0000
0000
0000
0300
0000
1100
0000
,
0010
0001
0100
0000
1000
0000
0020
0000
0000
0000
0130
0000
0100
0000
0001
0000
,
1200
0000
0000
0000
0000
0000
0000
0000
0000
0000
0000
0000
0000
0000
0000
0000
0000
0000
0000
0000
0000
0000
0000
0000
0010
0000
0000
0000
0000
0000
0000
0000
0000
0000
0000
0000
0000
0000
0000
0000
0000
0000
0000
0000
0000
0000
0000
0000
0001
0000
0000
0000
0000
0000
0000
0000
0000
0000
0000
0000
0000
0000
0000
0000
0000
0000
0000
0000
0000
0000
0000
0000
0010
0000
0000
0000
0000
0000
0000
0000
0000
0000
0000
0000
0000
0000
0000
0000
0000
0000
0000
0000
0000
0000
0000
0000
1000
0000
0000
0000
0000
0000
0000
0000
0000
0000
0000
0000
0000
0000
0000
0000
0000
0000
0000
0000
0000
0000
0000
0000
0010
0000
0000
0000
0000
0000
0000
0000
0000
0000
0000
0000
0000
0000
0000
0000
0000
0000
0000
0000
0000
0000
0000
0000
0001
0000
0000
0000
0000
0000
0000
0000
0000
0000
0000
0000
0000
0000
0000
0000
0000
0000
0000
0000
0000
0000
0000
0000
0010
0000
0000
0000
0000
0000
0000
0000
0000
0000
0000
0000
0000
0000
0000
0000
0000
0000
0000
0000
0000
0000
0000
0300
,
1100
0000
0011
0000
1001
0000
0010
0100
0001
1000
0100
0010
0001
0100
0010
1000
,
0001
0010
0200
0000
1000
0000
0000
0000
1300
0000
1000
0010
0100
0001
0010
0000
,
0001
0000
1000
0100
0000
0010
0001
0000
0100
0001
0000
0001
0010
0100
0010
0001
,
0020
0000
0000
0000
0000
0000
0000
0000
0000
0000
0000
0000
0000
0000
0000
0000
0000
0000
0000
0000
0000
0000
0000
0030
0010
0000
0000
0000
0000
0000
0000
0000
0000
0000
0000
0000
1000
0000
0000
0000
0000
0000
0000
0000
0000
0000
0000
0000
0000
0000
0000
0000
0000
0000
0000
0000
0000
0000
0000
0000
0100
0000
0000
0000
0000
0000
0000
0000
0000
0000
0000
0000
0010
0000
0000
0000
0000
0000
0000
0000
0000
0000
0000
0000
0002
0000
0000
0000
0000
0000
0000
0000
0000
0000
0000
0000
0010
0000
0000
0000
0000
0000
0000
0000
0000
0000
0000
0000
0000
0000
0000
0000
0000
0000
0000
0000
0000
0000
0000
0000
0100
0000
0000
0000
0000
0000
0000
0000
0000
0000
0000
0000
0100
0000
0000
0000
0000
0000
0000
0000
0000
0000
0000
0000
0100
0000
0000
0000
0000
0000
0000
0000
0000
0000
0000
0000
0000
0000
0000
0000
0000
0000
0000
0000
0000
0000
0000
0000
1000
0000
0000
0000
0000
0000
0000
0000
0000
0000
0000
0000
0000
0000
0000
0000
0000
0000
0000
0000
0000
0000
0000
0000
,
2013
0000
0001
0001
0001
0000
0100
0000
3001
0010
0001
0010
0100
0000
0100
0000
,
0010
0000
0100
0010
0000
0100
0010
0001
0100
0000
0100
0000
0100
0000
0010
0000
,
1010
0000
0010
0100
0001
0010
0100
0010
0200
0000
0310
2000
0000
3010
0100
0001
,
0020
0000
0130
2000
0000
3001
0100
0010
2000
0000
0000
0000
3021
0000
0100
0030
,
2020
0000
0000
0000
0000
0000
3132
0000
1000
0000
0100
0000
1003
0100
0010
0000
,
0001
0000
0000
0000
0000
0000
0000
0000
0000
0000
0000
0000
0000
0000
0000
0000
0000
0000
0000
0000
0000
0000
0000
0000
0010
0000
0000
0000
0000
0000
0000
0000
0000
0000
0000
0000
0100
0000
0000
0000
0000
0000
0000
0000
0000
0000
0000
0000
1000
0000
0000
0000
0000
0000
0000
0000
0000
0000
0000
0000
0000
0000
0000
0000
0000
0000
0000
0000
0000
0000
0000
0000
0010
0000
0000
0000
0000
0000
0000
0000
0000
0000
0000
0000
0000
0000
0000
0000
0000
0000
0000
0000
0000
0000
0000
0000
2000
0000
0000
0000
0000
0000
0000
0000
0000
0000
0000
0000
0000
0000
0000
0000
0000
0000
0000
0000
0000
0000
0000
0000
0000
0000
0000
0000
0000
0000
0000
0000
0000
0000
0000
0000
0000
0000
0000
0000
0000
0000
0000
0000
0000
0000
0000
3000
1000
0000
0000
0000
0000
0000
0000
0000
0000
0000
0000
0000
0000
0000
0000
0000
0000
0000
0000
0000
0000
0000
0000
0000
0001
0000
0000
0000
0000
0000
0000
0000
0000
0000
0000
0000
0010
0000
0000
0000
0000
0000
0000
0000
0000
0000
0000
0000
,
0202
0000
0000
0000
0023
0000
0300
0000
1030
0000
0100
0010
1000
0000
0001
0000
,
0102
0000
1000
0000
0003
0000
2000
0100
0001
0000
3010
0000
0020
0000
0001
0000
,
0230
1000
0010
0000
1310
0000
0000
0000
0101
0000
0010
0100
1000
0000
1000
0000
,
0100
0010
0001
0000
0001
0000
0001
0010
0100
0000
0010
0100
1000
0000
1000
0000
,
1020
0000
0100
0000
0100
0000
0000
0000
0030
0000
0010
1000
0001
0010
0100
1000
,
0001
0010
1000
0100
0001
0000
0001
0000
0020
0000
0130
0000
1000
0000
0001
0100
,
1000
0100
0010
0000
0001
0000
1000
0000
0001
0100
0010
0100
1000
0000
0001
0000
,
1000
0000
0100
0010
0001
0010
0100
0000
1000
0000
0001
0000
0010
0100
0001
0100
,
1000
0000
0010
0100
0001
0000
0001
0100
0010
0000
0100
0010
1000
0000
0010
0000
,
0001
0010
0001
1000
0100
1000
0010
0100
0001
0000
0000
0000
0010
0000
1000
0100
,
0020
0000
0100
0000
0030
0000
1000
0000
0001
0010
0100
0000
0100
1000
0001
0000
,
1000
0000
0010
0100
1000
0000
1000
0100
0020
0000
0001
0000
0130
0000
0001
0000
,
0200
0000
0010
0000
0310
1000
0100
0001
0100
0010
1000
0001
0100
0010
0001
1000
,
0020
0000
1000
0000
0100
0100
0100
0000
1030
0000
0100
0010
1000
0000
0001
0000
,
0100
0000
0001
0010
1000
0000
0100
0000
0010
0000
0020
0001
0130
0000
1000
0000
,
0020
0100
1030
0000
0001
0010
0100
0000
1000
0000
0001
0000
0100
1000
0010
0000
,
0000
0000
0100
0000
0100
0000
0001
0010
0100
1000
0001
0000
0100
0000
0010
0000
,
1001
0101
1100
0110
2002
3103
0020
0200
,
0032
0000
2300
0000
0000
0000
3103
0010
0001
1000
0010
0001
0100
1000
0100
0000
,
0001
0000
0010
0000
0100
1000
0010
0000
0001
0000
0000
0000
1010
0100
0001
0000
,
0020
0000
0100
0000
0000
0000
0130
0000
1000
0000
0010
0100
0001
0000
0001
0000
,
0020
0000
0001
0000
0130
1000
0002
0000
0010
0000
1003
0100
0010
0000
1000
0000
,
0200
0000
1000
0000
0000
0000
0310
0001
0100
0000
0010
0000
1000
0000
0100
0010
,
0001
0000
0001
0000
0100
0000
1000
0100
0002
0000
0010
0000
0003
0000
0101
0000
,
0010
1000
0100
0010
0100
0000
2000
0000
0010
0000
3010
0000
0100
1000
0001
0000
,
1200
0000
0010
0000
0001
0000
0010
0000
1000
0000
0010
0000
0001
0000
0010
0300
,
1000
0100
0010
0001
0010
0000
0011
0100
0010
0000
0202
0303
0022
0033
1100
0010
,
0100
1000
0002
0003
0202
0303
0220
0000
2332
0000
3003
0000
1010
0100
0001
0020
,
0100
0000
0100
0000
0130
0000
0011
1000
0010
0100
1000
0001
0010
0100
1000
0000
,
0201
0000
0010
0000
1000
0000
0010
0000
0001
0000
0301
0010
0001
1000
0100
0010
,
2000
0000
0000
0000
0000
0000
0000
0000
0000
0000
0000
0000
0000
0000
0000
0000
0000
0000
0000
0000
0000
0000
0000
0000
0100
0000
0000
0000
0000
0000
0000
0000
0000
0000
0000
0000
0000
0000
0000
0000
0000
0000
0000
0000
0000
0000
0000
0000
3000
0000
0000
0000
0000
0000
0000
0000
0000
0000
0000
0000
0000
0000
0000
0000
0000
0000
0000
0000
0000
0000
0000
0000
0101
0000
0000
0000
0000
0000
0000
0000
0000
0000
0000
0000
0010
0000
0000
0000
0000
0000
0000
0000
0000
0000
0000
0000
1000
0000
0000
0000
0000
0000
0000
0000
0000
0000
0000
0000
0100
0000
0000
0000
0000
0000
0000
0000
0000
0000
0000
0000
0020
0000
0000
0000
0000
0000
0000
0000
0000
0000
0000
0000
0001
0000
0000
0000
0000
0000
0000
0000
0000
0000
0000
0030
0100
0000
0000
0000
0000
0000
0000
0000
0000
0000
0000
0000
0000
0000
0000
0000
0000
0000
0000
0000
0000
0000
0000
0000
2200
0000
0000
0000
0000
0000
0000
0000
0000
0000
0000
0000
3300
0000
0000
0000
0000
0000
0000
0000
0000
0000
0000
0000
,
0202
0303
0011
0100
2000
3000
1100
0010
0002
0000
0100
0000
0003
0000
0110
1000
,
0002
0010
0203
1000
0302
0100
0023
0000
0000
0030
1000
0100
0020
0000
2032
3003
,
2002
0000
0000
0000
,
3003
0000
0000
0000
;
