#TITLE:Someday;
#SUBTITLE:;
#ARTIST:Mariah Carey;
#TITLETRANSLIT:;
#SUBTITLETRANSLIT:;
#ARTISTTRANSLIT:;
#CREDIT:LFJ;
#BANNER:Someday-bn.png;
#BACKGROUND:Someday-bg.png;
#LYRICSPATH:;
#CDTITLE:;
#MUSIC:Someday (ITG2 Edit).OGG;
#OFFSET:-1.445;
#SAMPLESTART:53.570;
#SAMPLELENGTH:15.000;
#SELECTABLE:YES;
#BPMS:0.000=109.950;
#STOPS:;
#BGCHANGES:;

//---------------dance-single - ----------------
#NOTES:
     dance-single:
     :
     Hard:
     7:
     0.391,0.400,0.076,0.270,0.131:
0000
0000
0000
0000
,
0000
0000
0000
0000
,
0000
0000
0000
0000
,
0000
0000
0000
0000
,
1000
0000
0010
0000
0100
0001
1000
0000
,
0001
0000
0010
0000
0100
1000
0001
2000
,
0000
3002
0000
0023
0000
0230
0000
0000
,
1300
0000
0000
0000
0001
0000
0000
1000
0001
0000
0100
0000
0010
0100
0010
0000
,
1000
0000
0001
0000
0100
0000
0000
0000
0010
0000
0000
1000
0000
0000
0001
0000
,
0100
0000
0100
0001
1000
0000
0001
0010
,
0100
0000
0010
0000
0001
0000
0000
0000
1000
0000
0000
0001
0000
0000
1000
0000
,
0100
0000
1000
0100
1000
0000
0001
0100
,
0001
0000
1000
0000
0100
0000
0000
0000
0010
0000
0000
0001
0000
0000
1000
0000
,
0100
0000
0100
1000
0001
0000
1000
0010
,
0100
0000
0010
0000
1000
0000
0000
0000
0001
0000
0000
1000
0000
0000
0001
0000
,
0100
0000
0001
0100
0001
0000
1000
0100
,
1000
0001
0110
0000
0001
1000
0110
0000
,
0010
0000
0000
0010
0000
0000
0100
0000
2000
0000
0000
0000
0002
0000
0000
0000
,
3003
0000
0000
0000
0001
0010
0100
1000
,
0002
2003
3020
0230
,
0310
0100
1001
0000
0010
0100
1001
0000
,
2000
3020
0230
0320
,
1030
0100
0010
0100
1000
0001
0100
0010
,
0000
0000
0010
0000
0100
0000
0001
0000
0000
1000
0001
0000
0100
0000
0010
0100
,
0020
2030
3200
0320
,
0130
0000
1000
0000
0001
0000
0000
1000
0010
0000
0100
0000
0010
0000
0000
0000
,
1000
0001
0100
0001
0100
0010
1000
0001
,
1000
0000
0100
0000
0010
0000
0001
0000
0010
0000
0100
0000
1100
0000
0000
0100
,
0020
0032
2003
3200
,
0000
1000
0000
0001
0000
1300
0001
0100
,
0010
1000
0001
0100
0001
0100
1000
0100
,
0001
0010
0100
1000
0100
0010
0011
0000
,
0020
0032
0203
0320
,
0130
0000
0001
0000
1000
0000
0000
0001
0010
0000
0100
0000
0010
0000
0000
0000
,
0001
1000
0100
1000
0100
0010
0001
1000
,
0001
0000
0100
0000
0010
0000
1000
0000
0010
0000
0100
0000
0101
0000
0000
0100
,
0020
2030
3002
0203
,
0000
0001
0000
1000
0000
0301
1000
0100
,
0010
0001
1000
0100
1000
0100
0001
0100
,
1000
0010
0100
0001
0100
0010
1010
0000
,
0001
0000
0000
0000
1000
0000
0000
0000
0001
0000
0100
0010
0000
0000
0100
0010
,
0100
0010
1000
0001
1000
0000
0001
0100
0001
0000
1000
0000
0010
0000
0100
0000
,
0010
0000
0000
0000
1000
0000
0000
0000
0001
0000
1000
0100
0000
0000
0100
0010
,
0100
0010
0001
1000
0001
0000
1000
0001
1000
0000
0100
0000
0010
0000
0001
0000
,
1000
0000
0000
0000
0001
0000
0000
0000
1000
0000
0100
0010
0000
0000
0100
0010
,
0100
0010
0001
1000
0001
0000
1000
0100
1000
0000
0001
0000
0010
0000
0100
0000
,
0010
0000
0000
0001
0000
0000
1000
0000
0100
0000
0000
1000
0000
0000
0001
0000
,
0100
0000
0000
0010
0000
0000
1000
0000
0001
0000
0000
0000
1000
0000
0001
0000
,
0220
0000
0000
0000
,
0000
0000
0000
0000
,
0330
0000
0000
0000
;

//---------------dance-single - ----------------
#NOTES:
     dance-single:
     :
     Medium:
     4:
     0.338,0.316,0.101,0.320,0.000:
0000
0000
0000
0000
,
0000
0000
0000
0000
,
0000
0000
0000
0000
,
0000
0000
0000
0000
,
1000
0000
0010
0000
0100
0001
1000
0000
,
0001
0000
0010
0000
0100
1000
0001
0000
,
2000
3002
0023
0230
,
1300
0000
0001
1000
0001
0100
0010
0000
,
1000
0001
0100
0000
0001
0000
1000
0000
,
0001
0000
0100
0001
1000
0000
0001
0010
,
0100
0010
0001
0000
1000
0000
0001
1000
,
0100
0000
1000
0100
1000
0000
0001
0100
,
0001
1000
0100
0000
1000
0000
0001
0000
,
1000
0000
0100
1000
0001
0000
1000
0010
,
0100
0010
1000
0000
0001
0000
1000
0001
,
0100
0000
0001
0100
0001
0000
1000
0100
,
1000
0110
0001
0110
,
0020
0230
2300
0002
,
3003
0000
0000
0000
0001
0010
0100
1000
,
0002
2003
3020
0230
,
0310
1001
0010
1001
,
2000
3020
0230
0320
,
1030
0100
0010
0000
0001
1000
0001
0000
,
0001
0100
0010
0000
1000
0001
0100
0010
,
0020
2030
3200
0320
,
0130
1000
0001
0000
1000
0010
1000
0000
,
1000
0001
0100
0001
0100
0000
0010
0000
,
1000
0100
0010
0001
0010
0000
1100
0000
,
0020
0032
2003
3200
,
0000
1000
0000
0001
0000
1300
0001
1000
,
0010
1000
0001
0100
0001
0000
1000
0000
,
0001
0010
0100
1000
0100
0000
0011
0000
,
0020
0032
0203
0320
,
0130
0001
1000
0000
0001
0010
0001
0000
,
0001
1000
0100
1000
0100
0000
0010
0000
,
0001
0100
0010
1000
0010
0000
0101
0000
,
0020
2030
3002
0203
,
0000
0001
0000
1000
0000
0301
1000
0001
,
0010
0001
1000
0100
1000
0000
0001
0000
,
1000
0010
0100
0001
0100
0000
1010
0000
,
0001
0000
1000
0000
0001
0100
0010
0000
,
0100
0010
1000
0001
0100
0000
0110
0000
,
0010
0000
1000
0000
0001
1000
0100
0000
,
0010
0100
0010
0001
1000
0000
1001
0000
,
1000
0000
0001
0000
1000
0100
0010
0000
,
0100
0010
0001
1000
0100
0000
0110
0000
,
0020
0001
0032
1000
,
2003
0100
3200
0310
,
0220
0000
0000
0000
,
0000
0000
0000
0000
,
0330
0000
0000
0000
;

//---------------dance-single - ----------------
#NOTES:
     dance-single:
     :
     Easy:
     2:
     0.239,0.295,0.152,0.320,0.000: // measure 1
0000
0000
0000
0000
,  // measure 2
0000
0000
0000
0000
,  // measure 3
0000
0000
0000
0000
,  // measure 4
0000
0000
0000
0000
,  // measure 5
2000
3020
0230
0302
,  // measure 6
0000
1000
1003
0001
,  // measure 7
2000
3002
0023
0230
,  // measure 8
1300
0001
1000
0110
,  // measure 9
1000
0000
1000
0000
,  // measure 10
0001
0100
0001
1001
,  // measure 11
0001
0000
0010
0000
,  // measure 12
0100
1000
0001
0101
,  // measure 13
0001
0000
0001
0000
,  // measure 14
1000
0100
1000
1001
,  // measure 15
1000
0000
0010
0000
,  // measure 16
0100
0001
1000
1100
,  // measure 17
0002
0010
0000
0013
,  // measure 18
0010
0100
2000
0002
,  // measure 19
3003
0000
0001
0100
,  // measure 20
0001
1000
0010
0200
,  // measure 21
0310
1001
0000
1001
,  // measure 22
1000
0010
0200
0310
,  // measure 23
1000
0000
0001
0000
,  // measure 24
0001
0000
1000
0000
,  // measure 25
0020
2030
3200
0320
,  // measure 26
0230
0300
1000
1001
,  // measure 27
1000
0001
0100
0001
,  // measure 28
0100
0010
1000
0010
,  // measure 29
2000
3002
0203
0000
,  // measure 30
0000
0010
0310
0000
,  // measure 31
0010
1000
0001
0100
,  // measure 32
0010
1000
0100
0011
,  // measure 33
0020
0032
0203
0320
,  // measure 34
0230
0300
0001
1001
,  // measure 35
0001
1000
0100
1000
,  // measure 36
0100
0010
0001
0010
,  // measure 37
0002
2003
3200
0000
,  // measure 38
0000
0010
0310
0000
,  // measure 39
0010
0001
1000
0100
,  // measure 40
0010
0001
0100
1010
,  // measure 41
0020
1000
0000
1030
,  // measure 42
0000
0101
0000
0101
,  // measure 43
0020
0001
0000
0031
,  // measure 44
0000
1100
0000
1100
,  // measure 45
0020
0001
0000
0031
,  // measure 46
0000
1100
0000
1100
,  // measure 47
0020
0001
0032
1000
,  // measure 48
2003
0100
3200
0310
,  // measure 49
0220
0000
0000
0000
,  // measure 50
0000
0000
0000
0000
,  // measure 51
0330
0000
0000
0000
;
