#TITLE:Poison;
#SUBTITLE:;
#ARTIST:Bell Biv Devoe;
#TITLETRANSLIT:;
#SUBTITLETRANSLIT:;
#ARTISTTRANSLIT:;
#CREDIT:LFJ;
#BANNER:Poison-bn.png;
#BACKGROUND:Poison-bg.png;
#LYRICSPATH:;
#CDTITLE:;
#MUSIC:Poison (ITG Edit).OGG;
#OFFSET:-0.309;
#SAMPLESTART:72.310;
#SAMPLELENGTH:15.000;
#SELECTABLE:YES;
#BPMS:0.000=111.980;
#STOPS:36.000=1.620
,129.000=1.620
;
#BGCHANGES:;

//---------------dance-single - ----------------
#NOTES:
     dance-single:
     :
     Hard:
     7:
     0.421,0.364,0.217,0.160,0.066:
0010
1000
0100
0001
0010
0100
1001
0000
,
0010
0001
0100
1000
0010
0100
1001
0000
,
0010
0100
0001
1000
0100
0010
0110
0000
,
0010
0100
1000
0001
0100
0010
0110
0000
,
1000
0000
1000
0000
0010
0000
0000
1000
0000
0000
1000
0000
0100
0000
0010
0000
,
0001
0000
0001
0000
0100
0000
0000
1000
0000
0000
0100
0000
0001
0000
0010
0000
,
0001
0000
0001
0000
0010
0000
0000
0001
0000
0000
0001
0000
0100
0000
0010
0000
,
1000
0000
1000
0000
0100
0000
0000
0001
0000
0000
0100
0000
1000
0000
0010
0000
,
1000
0010
0001
0100
1000
0001
0110
0000
,
1001
0000
1000
0100
0020
0000
0031
1000
,
0200
0000
1300
0100
0001
0001
0100
1000
,
0100
0010
0020
0000
0031
1000
0001
0100
,
0100
0001
1000
0000
0110
0000
0001
0000
,
1001
0000
0001
0100
0020
0000
1030
0001
,
0200
0000
0301
0100
1000
1000
0100
0001
,
0100
0010
0020
0000
1030
0001
1000
0100
,
0100
1000
0001
0000
0110
0000
1000
0000
,
1001
0000
1000
0100
2000
0000
3001
0010
,
0200
0000
0310
0001
0100
0010
1000
0000
,
1000
0001
0101
0000
0010
0001
0100
1000
,
0100
0001
0100
0000
0110
0000
1000
0000
,
1010
0000
0001
0100
0002
0000
1003
0010
,
0200
0000
0310
1000
0100
0010
0001
0000
,
0001
1000
1100
0000
0010
1000
0100
0001
,
0100
1000
0100
0000
1100
0000
0001
0000
,
0011
0000
2000
0000
0100
0000
3001
0100
,
0001
0000
1000
1000
0001
0000
0001
0100
,
0010
0100
0002
0000
0100
0000
1003
0100
,
1000
0000
0001
0001
1000
0000
1000
0100
,
0010
0100
0020
0000
0001
0000
0031
0100
,
1000
0000
0100
0100
0001
0000
0001
0010
,
0100
0000
1000
0000
1100
0000
0000
0000
0010
0000
0000
0001
0000
0000
1000
0000
,
0000
0100
0000
0000
1001
0000
0000
0000
1000
0000
1000
0000
0010
0000
0000
1000
,
0000
0000
1000
0000
0100
0000
0010
0000
0001
0000
0001
0000
0100
0000
0000
1000
,
0000
0000
0100
0000
0001
0000
0010
0000
0001
0000
0001
0000
0010
0000
0000
0001
,
0000
0000
0001
0000
0100
0000
0010
0000
1000
0000
1000
0000
0100
0000
0000
0001
,
0000
0000
0100
0000
1000
0000
0010
0000
0201
0000
0000
0000
0310
0000
0000
1000
,
0000
0000
0010
0000
0100
0000
0010
0000
1000
0000
1000
0000
0010
0000
0000
0100
,
0000
0000
0001
0000
0010
0000
0100
0000
1200
0000
0000
0000
0310
0000
0000
0001
,
0000
0000
0010
0000
0100
0000
0010
0000
0001
0000
0001
0000
0010
0000
0000
0100
,
0000
1000
0010
0100
0010
1000
0100
0001
,
0010
0100
1001
0000
0010
0001
0100
1000
,
0010
0100
1001
0000
0220
0000
0000
0000
,
0000
0000
0000
0000
,
0000
0000
0000
0000
,
0000
0000
0330
0000
;

//---------------dance-single - ----------------
#NOTES:
     dance-single:
     :
     Medium:
     5:
     0.337,0.300,0.207,0.104,0.009:
0010
0000
1000
0001
1000
0000
1001
0000
,
0010
0000
0001
1000
0001
0000
1001
0000
,
0010
0000
0100
0001
1000
0000
0110
0000
,
0010
0000
0100
1000
0001
0000
0110
0000
,
1000
1000
0010
0000
1000
0000
0001
0000
,
0001
0001
0100
0000
1000
0000
0100
0000
,
0001
0001
0010
0000
0001
0000
1000
0000
,
1000
1000
0100
0000
0001
0000
0100
0000
,
1000
0000
0010
1000
0001
0000
0110
0000
,
1001
0000
1000
0100
0020
0000
0000
0000
,
0030
0000
0001
0000
1000
0001
1000
0000
,
1000
0100
0010
0000
0001
1000
0001
0100
,
0010
1000
0110
0001
,
1001
0000
0001
0100
0020
0000
0000
0000
,
0030
0000
1000
0000
0001
1000
0001
0000
,
0001
0100
0010
0000
1000
0001
1000
0100
,
0010
0001
0110
1000
,
1001
0000
1000
0100
2000
0000
0000
0000
,
3000
0000
0010
0001
0100
0010
1000
0000
,
0001
0000
0101
0000
0010
0001
0100
0010
,
0100
0100
0110
1000
,
1010
0000
0001
0100
0002
0000
0000
0000
,
0003
0000
0010
1000
0100
0010
0001
0000
,
1000
0000
1100
0000
0010
1000
0100
0010
,
0100
0100
0110
0001
,
0011
2000
0100
0001
,
0100
0000
3001
1000
0001
0000
0001
0100
,
0010
0100
0002
0000
0100
0000
1000
0000
,
0100
0000
1003
0001
1000
0000
1000
0100
,
0010
0100
0020
0000
0001
0000
0100
0000
,
0001
0000
0130
0010
0100
0000
1000
0100
,
0010
0000
0001
0000
0010
0000
0000
0000
0010
0000
0000
0001
0000
0000
1000
0000
,
0000
0100
0000
0000
1001
0000
0000
0000
1000
0000
1000
0000
0010
0000
0000
0000
,
1000
0000
0100
0010
0001
0001
0100
0000
,
0001
0000
0001
0010
0001
0001
0010
0000
,
0100
0000
1000
0010
1000
1000
0100
0000
,
1000
0001
0201
0310
,
1000
0010
0100
0010
1000
0000
0001
0000
,
0001
1000
0100
0000
1200
0000
0310
0000
,
0001
0010
0100
0010
0001
0000
1000
0000
,
1000
0001
0100
0000
0010
0000
1000
0001
,
1000
0000
1001
0000
0010
0000
0001
1000
,
0001
1001
0220
0000
,
0000
0000
0000
0000
,
0000
0000
0000
0000
,
0000
0000
0330
0000
;

//---------------dance-single - ----------------
#NOTES:
     dance-single:
     :
     Easy:
     3:
     0.240,0.236,0.207,0.245,0.000: // measure 1
0010
1000
0001
1001
,  // measure 2
0010
0001
1000
1001
,  // measure 3
0010
0100
0001
0110
,  // measure 4
0010
0100
1000
0110
,  // measure 5
2000
0000
0000
3000
,  // measure 6
0002
0000
0000
0003
,  // measure 7
0001
0010
0001
1000
,  // measure 8
1000
0010
1000
0001
,  // measure 9
0010
0001
1000
0110
,  // measure 10
1001
1000
0020
0000
,  // measure 11
0030
1000
0000
0001
,  // measure 12
0000
0220
0000
0000
,  // measure 13
0330
1000
0110
0001
,  // measure 14
1001
0001
0020
0000
,  // measure 15
0030
0001
0000
1000
,  // measure 16
0000
0220
0000
0000
,  // measure 17
0330
0001
0110
1000
,  // measure 18
1001
0001
2000
0000
,  // measure 19
3000
0010
0000
0100
,  // measure 20
0000
0202
0000
0000
,  // measure 21
0303
0100
0110
1000
,  // measure 22
1010
1000
0002
0000
,  // measure 23
0003
0010
0000
0100
,  // measure 24
0000
2200
0000
0000
,  // measure 25
3300
0100
0110
0001
,  // measure 26
0011
2000
0100
0001
,  // measure 27
0100
0001
0001
0002
,  // measure 28
3003
0002
0100
1000
,  // measure 29
0100
1000
1000
2000
,  // measure 30
3003
0020
0001
0100
,  // measure 31
0001
0100
0100
0200
,  // measure 32
0330
0010
0001
1000
,  // measure 33
0100
0000
1001
0000
1000
1000
0020
0000
,  // measure 34
0000
0000
0030
0000
0100
0100
0002
0000
,  // measure 35
0000
0003
0010
0100
,  // measure 36
1000
1000
0010
0100
,  // measure 37
0001
0000
0001
0000
0001
0001
0020
0000
,  // measure 38
0000
0000
0030
0000
0100
0100
2000
0000
,  // measure 39
0000
3000
0010
0100
,  // measure 40
0001
0001
0010
0100
,  // measure 41
1000
1000
0010
1000
,  // measure 42
0001
1001
0010
0001
,  // measure 43
1000
1001
0220
0000
,  // measure 44
0000
0000
0000
0000
,  // measure 45
0000
0000
0000
0000
,  // measure 46
0000
0000
0330
0000
;
