#TITLE:Fantasy Girl;
#SUBTITLE:;
#ARTIST:Baby Bash feat. Marty James;
#TITLETRANSLIT:;
#SUBTITLETRANSLIT:;
#ARTISTTRANSLIT:;
#CREDIT:LFJ;
#BANNER:Fantasy Girl-bn.png;
#BACKGROUND:Fantasy Girl-bg.png;
#LYRICSPATH:;
#CDTITLE:;
#MUSIC:Fantasy Girl (ITG Edit).OGG;
#OFFSET:-2.210;
#SAMPLESTART:17.750;
#SAMPLELENGTH:15.000;
#SELECTABLE:YES;
#BPMS:0.000=120.000;
#STOPS:;
#BGCHANGES:;

//---------------dance-single - ----------------
#NOTES:
     dance-single:
     :
     Hard:
     8:
     0.496,0.501,0.457,0.165,0.199:
0000
0000
0000
0000
,
0000
0000
0000
0000
,
0000
0000
0000
0000
,
0000
0000
0000
0000
,
1000
0010
1000
0010
0000
0100
0001
1000
0001
0000
0100
0000
0001
0000
0000
0000
,
0001
0010
0001
0010
0000
0100
1000
0001
1000
0000
0000
0000
1000
0000
0001
0000
,
0100
0000
0001
1000
0100
0000
1000
0010
,
0100
0100
0001
1000
0001
0001
0100
0010
,
1000
0100
0010
0100
1000
0100
0010
0001
,
0100
0010
0100
0001
0100
0010
1000
0000
,
0110
0000
0000
1001
0000
0000
0110
0000
2002
0000
0000
0000
3003
0000
0000
0000
,
0110
0000
0000
1001
0000
0000
0110
0000
1001
0000
0000
0000
0001
0000
0010
0000
,
0001
0100
0010
0100
0001
0100
0010
1000
,
0100
0010
0100
1000
0100
0010
0001
0000
,
0110
0000
0000
1001
0000
0000
0110
0000
2002
0000
0000
0000
3003
0000
0000
0000
,
0110
0000
0000
1001
0000
0000
0110
0000
2002
0000
0000
0000
3003
0000
0000
0000
,
0010
0000
0100
0000
0010
0000
1000
0000
0001
0000
0000
0100
0000
0000
0110
0000
,
1000
0000
0100
0000
0010
0000
0100
0000
1000
0000
0000
0001
0000
0000
0101
0000
,
1000
0000
0010
0000
0100
0000
0001
0000
1000
0000
0000
0010
0000
0000
0110
0000
,
2000
0001
0001
0001
3001
0000
0101
0000
,
0010
0000
0100
0000
0010
0000
0001
0000
1000
0000
0000
0100
0000
0000
0110
0000
,
0001
0000
0100
0000
0010
0000
0100
0000
0001
0000
0000
1000
0000
0000
0101
0000
,
0001
0000
0010
0000
0100
0000
1000
0000
0001
0000
0000
0010
0000
0000
0110
0000
,
0002
1000
1000
1000
1003
0000
1100
0000
,
1000
0000
0101
0000
1000
0001
0100
0000
,
0010
1000
0010
0100
0001
0000
1001
0000
,
1000
0001
1000
0001
0100
0100
0100
0000
,
0001
1000
0001
1000
0200
0000
0300
0000
,
1000
0010
1000
0010
0000
0100
0001
1000
0001
0000
0100
0000
0001
0000
0000
0000
,
0001
0010
0001
0010
0000
0100
1000
0001
1000
0000
0000
0000
1000
0000
0001
0000
,
0100
0000
0001
1000
0100
0000
1000
0010
,
0100
0100
0001
1000
0001
0001
0100
0010
,
1000
0100
0010
0100
1000
0100
0010
0001
,
0100
0010
0100
0001
0100
0010
1000
0000
,
0110
0000
0000
1001
0000
0000
0110
0000
2002
0000
0000
0000
3003
0000
0000
0000
,
0110
0000
0000
1001
0000
0000
0110
0000
1001
0000
0000
0000
0001
0000
0010
0000
,
0001
0100
0010
0100
0001
0100
0010
1000
,
0100
0010
0100
1000
0100
0010
0001
0000
,
0110
0000
0000
1001
0000
0000
0110
0000
2002
0000
0000
0000
3003
0000
0000
0000
,
0110
0000
0000
1001
0000
0000
0110
0000
2002
0000
0000
0000
3003
0000
0000
0000
,
0001
0000
0000
1000
0000
0000
0001
0000
0100
0000
0010
0000
0100
0000
0000
0000
,
0001
0000
0000
0010
0000
0100
1000
0001
1000
0000
0000
0000
1100
0000
0000
0000
,
0010
0000
0000
0100
0000
0000
0001
0000
1000
0000
0100
0000
1000
0000
0000
0000
,
0010
0010
0010
1000
0001
0000
0110
0000
,
1000
0000
0000
0001
0000
0000
1000
0000
0100
0000
0010
0000
0100
0000
0000
0000
,
1000
0000
0000
0010
0000
0100
0001
1000
0001
0000
0000
0000
0101
0000
0000
0000
,
0010
0000
0000
0100
0000
0000
1000
0000
0001
0000
0100
0000
0001
0000
0000
0000
,
0010
0000
0010
0000
0010
0000
0001
0000
1000
0000
0100
0000
1100
0000
0000
2002
,
0000
0000
0000
0000
,
3003
0000
0000
0000
;

//---------------dance-single - ----------------
#NOTES:
     dance-single:
     :
     Medium:
     5:
     0.374,0.381,0.292,0.311,0.000:
0000
0000
0000
0000
,
0000
0000
0000
0000
,
0000
0000
0000
0000
,
0000
0000
0000
0000
,
1000
0000
0001
0000
0001
0100
0001
0000
,
0001
0000
1000
0000
1001
0000
1000
0001
,
0100
0000
0001
1000
0100
0000
1000
0010
,
0100
0000
0001
1000
0001
0000
0100
0010
,
1000
0000
1000
0100
0010
0000
0011
0000
,
0001
0000
0001
0100
0010
0000
1010
0000
,
0020
0130
2002
3003
,
0020
0000
0130
0000
2001
0000
3100
0010
,
0001
0000
0001
0100
0010
0000
1010
0000
,
1000
0000
1000
0100
0010
0000
0011
0000
,
0020
0130
2002
3003
,
0020
0130
2002
3003
,
0010
0100
0010
0000
1000
0000
0110
0000
,
1000
0100
0010
0000
0001
0000
0101
0000
,
0100
0001
1000
0000
0010
0000
0110
0000
,
2000
0001
0001
3001
,
0010
0100
0010
0000
0001
0000
0110
0000
,
0001
0100
0010
0000
1000
0000
1100
0000
,
0100
1000
0001
0000
0010
0000
0110
0000
,
0002
1000
1000
1003
,
1000
0000
0101
0000
1000
0001
0100
0000
,
0010
1000
0010
0100
0001
0000
1001
0000
,
1000
0001
1000
0000
0001
0000
0100
0000
,
0001
1000
0001
0000
1000
0000
0100
0000
,
1000
0000
0001
0000
0001
0100
0001
0000
,
0001
0000
1000
0000
1001
0000
1000
0001
,
0100
0000
0001
1000
0100
0000
1000
0010
,
0100
0000
0001
1000
0001
0000
0100
0010
,
1000
0000
1000
0100
0010
0000
0011
0000
,
0001
0000
0001
0100
0010
0000
1010
0000
,
0020
0130
2002
3003
,
0020
0000
0130
0000
2001
0000
3100
0010
,
0001
0000
0001
0100
0010
0000
1010
0000
,
1000
0000
1000
0100
0010
0000
0011
0000
,
0020
0130
2002
3003
,
0020
0130
2002
3003
,
0002
0000
0000
2003
0000
0000
3100
0000
,
0010
0100
1000
0001
0100
0000
0101
0000
,
0020
0000
0000
0031
1000
0100
1000
0000
,
0010
1000
0001
0110
,
2000
0000
0000
3002
0000
0000
0103
0000
,
0010
0100
0001
1000
0100
0000
1100
0000
,
0020
0000
0000
1030
0001
0100
0001
0000
,
0010
0001
1000
0220
,
0000
0000
0000
0000
,
0330
0000
0000
0000
;

//---------------dance-single - ----------------
#NOTES:
     dance-single:
     :
     Easy:
     4:
     0.304,0.405,0.448,0.321,0.000: // measure 1
0000
0000
0000
0000
,  // measure 2
0000
0000
0000
0000
,  // measure 3
0000
0000
0000
0000
,  // measure 4
0000
0000
0000
0000
,  // measure 5
1000
0000
0001
0101
,  // measure 6
0001
0000
1000
1001
,  // measure 7
0100
0001
0200
0300
,  // measure 8
1001
0100
1001
0010
,  // measure 9
1000
0000
0000
0100
0000
0000
0010
0000
,  // measure 10
0001
0000
0000
0100
0000
0000
0010
0000
,  // measure 11
0110
1001
0220
0330
,  // measure 12
0110
1001
0220
0330
,  // measure 13
0001
0000
0000
0100
0000
0000
0010
0000
,  // measure 14
1000
0000
0000
0100
0000
0000
0010
0000
,  // measure 15
0110
1001
0220
0330
,  // measure 16
0110
1001
0220
0330
,  // measure 17
0010
0010
1000
0110
,  // measure 18
1000
0010
0001
0101
,  // measure 19
0100
1000
0010
0110
,  // measure 20
2000
0001
0001
3001
,  // measure 21
0010
0010
0001
0110
,  // measure 22
0001
0010
1000
1100
,  // measure 23
0100
0001
0010
0110
,  // measure 24
0002
1000
1000
1003
,  // measure 25
1000
0101
0000
0001
,  // measure 26
1000
1010
0000
1001
,  // measure 27
0002
0003
2000
3000
,  // measure 28
0020
0030
2002
3003
,  // measure 29
1000
0000
0001
0101
,  // measure 30
0001
0000
1000
1001
,  // measure 31
0100
0001
0200
0300
,  // measure 32
1001
0100
1001
0010
,  // measure 33
1000
0000
0000
0100
0000
0000
0010
0000
,  // measure 34
0001
0000
0000
0100
0000
0000
0010
0000
,  // measure 35
0110
1001
0220
0330
,  // measure 36
0110
1001
0220
0330
,  // measure 37
0001
0000
0000
0100
0000
0000
0010
0000
,  // measure 38
1000
0000
0000
0100
0000
0000
0010
0000
,  // measure 39
0110
1001
0220
0330
,  // measure 40
0110
1001
0220
0330
,  // measure 41
0002
0000
0000
2003
0000
0000
3100
0000
,  // measure 42
0010
0001
0100
0101
,  // measure 43
2000
0000
0000
3000
,  // measure 44
0010
1000
0001
0110
,  // measure 45
2000
0000
0000
3002
0000
0000
0103
0000
,  // measure 46
0010
1000
0100
1100
,  // measure 47
0002
0000
0000
0003
,  // measure 48
0010
0001
1000
0220
,  // measure 49
0000
0000
0000
0000
,  // measure 50
0330
0000
0000
0000
;
