#TITLE:Control;
#SUBTITLE:;
#ARTIST:Janet Jackson;
#TITLETRANSLIT:;
#SUBTITLETRANSLIT:;
#ARTISTTRANSLIT:;
#CREDIT:LFJ;
#BANNER:Control-bn.png;
#BACKGROUND:Control-bg.png;
#LYRICSPATH:;
#CDTITLE:;
#MUSIC:Control (ITG Edit).OGG;
#OFFSET:-0.280;
#SAMPLESTART:31.470;
#SAMPLELENGTH:15.000;
#SELECTABLE:YES;
#BPMS:0.000=120.350;
#STOPS:;
#BGCHANGES:;

//---------------dance-single - ----------------
#NOTES:
     dance-single:
     :
     Hard:
     8:
     0.485,0.510,0.276,0.243,0.155:
0000
0000
0000
0000
,
0000
0000
0000
0000
,
0000
0000
0000
0000
,
0000
0000
0000
0000
,
1000
0100
1000
0000
1000
0100
0001
0000
,
0001
0100
1000
0001
0100
0000
0110
0000
,
0001
0100
0001
0000
0001
0100
1000
0000
,
1000
0100
0001
1000
0100
1000
1000
1000
,
0101
0000
0200
0010
0300
0010
1000
0001
,
0100
0000
0200
0010
0000
0001
0301
0000
,
1000
0000
0200
0010
0300
0010
0001
1000
,
0100
0000
0000
0000
0200
0000
0010
0000
0301
1000
0001
0000
1000
0000
0010
0000
,
0101
0000
0200
0010
0300
0010
1000
0100
,
1000
0000
0200
0010
0000
1000
1300
0000
,
0100
0000
0200
0010
0300
0010
0001
0100
,
0001
0000
0200
0010
0300
0110
1001
0000
,
0001
0000
0100
0000
1000
0000
0100
0000
0001
0010
0000
0001
0000
0000
0000
0000
,
1000
0000
0010
0000
0100
0000
0001
0100
0000
0000
1010
0000
0101
0000
0000
0000
,
0010
0000
0001
0000
0100
0000
0010
0000
0100
0001
0000
0001
0000
0000
0000
0000
,
2010
0000
3010
0201
0000
0301
1000
0000
,
1000
0000
0100
0000
0001
0000
0100
0000
1000
0010
0000
1000
0000
0000
0000
0000
,
0001
0000
0010
0000
0100
0000
1000
0100
0000
0000
0011
0000
1100
0000
0000
0000
,
0010
0000
1000
0000
0100
0000
0010
0000
0100
1000
0000
1000
0000
0000
0000
0000
,
0021
0000
0000
0000
0130
0000
1100
0000
0010
0001
0000
1000
0100
1000
0000
0000
,
0020
0000
1000
0000
0001
0000
1030
0001
,
0200
0000
1000
0000
0001
0000
1300
0100
,
0001
0100
0010
0100
0000
0100
0010
0000
,
1000
0001
0100
0010
0000
0010
1001
0000
,
0020
0000
0001
0000
1000
0000
0031
1000
,
0200
0000
0001
0000
1000
0000
0301
0100
,
1000
0100
0010
0100
0000
0100
0010
0000
,
0001
1000
0100
0010
0000
0010
1001
0000
,
0001
1100
0010
1100
,
0010
0001
0200
0010
0300
0200
0010
0300
,
1000
0100
0001
0001
0100
1000
1100
0000
,
1000
0000
0100
0000
0010
0000
0000
0000
0001
1000
0000
0000
0001
1000
0000
0000
,
1000
0101
0010
0101
,
0010
1000
0200
0010
0300
0200
0010
0300
,
0010
0000
0001
1000
0100
0000
0100
0020
0000
0000
0000
0000
0031
0000
1000
0000
,
0001
1000
0000
0000
0000
0010
0100
0000
0000
0001
1000
0000
0000
0001
0001
0000
,
0000
0100
0010
0000
0000
0000
1000
0000
0000
0000
0110
0000
0000
0000
0001
0100
,
0010
0100
0010
0100
0010
1000
0100
0010
0100
0010
0100
0010
0001
0000
0000
0000
,
1000
0000
0100
0110
0000
1001
0000
0200
,
0010
0000
0000
0000
1000
0000
0000
0000
0301
1000
0001
0000
0100
0000
0000
0000
,
0001
0000
0010
0011
0000
1100
0000
0000
,
1000
0000
0000
0000
0001
0000
0100
0000
0010
0100
0010
0000
1000
0000
0000
0000
,
0001
0000
0100
0000
1000
0000
0100
0000
0001
0010
0000
0001
0000
0000
0000
0000
,
0001
0000
1000
0001
0000
0000
1000
0000
0100
0000
0110
0000
1001
0000
0000
0000
,
1000
0000
0100
0000
0001
0000
0100
0000
1000
0010
0000
1000
0000
0000
0000
0000
,
1000
0001
1000
0001
0100
0110
1001
0000
,
0010
1000
0001
0001
0010
0001
1000
1000
,
0020
0000
2030
0000
3010
0010
0101
0000
,
1000
0010
0001
0001
0010
1000
0001
0001
,
2000
0000
3200
0000
0310
0010
1100
0000
,
0010
0001
1000
1000
0010
1000
0001
0001
,
0020
0000
0032
0000
0013
0010
1100
0000
,
0001
0010
1000
1000
0010
0001
1000
1000
,
0002
0000
0203
0000
0310
0010
0101
0000
,
1000
0000
0000
0000
;

//---------------dance-single - ----------------
#NOTES:
     dance-single:
     :
     Medium:
     5:
     0.395,0.364,0.259,0.251,0.000:
0000
0000
0000
0000
,
0000
0000
0000
0000
,
0000
0000
0000
0000
,
0000
0000
0000
0000
,
1000
0100
1000
0001
,
0001
1000
0100
0110
,
0001
0100
0001
1000
,
1000
0001
0110
1000
,
1001
0000
0000
0010
0000
0010
0000
0001
,
0100
0000
0100
0010
1000
0001
1000
0000
,
1001
0000
0000
0010
0000
0010
0000
1000
,
0100
0000
0100
0010
0001
1000
0001
0000
,
0101
0000
0000
0010
0000
0010
0000
1000
,
0100
0000
0100
1000
0001
1000
0010
0000
,
1100
0000
0000
0010
0000
0010
0000
0001
,
0100
0000
0100
0001
1000
0001
0010
0000
,
0001
0100
0001
1000
0002
0000
0003
0000
,
1000
0010
0100
0001
0100
0000
0101
0000
,
0010
0001
0100
0010
0200
0000
0300
0000
,
2010
3010
0201
0301
,
1000
0100
1000
0001
2000
0000
3000
0000
,
0001
0010
0100
1000
0100
0000
1100
0000
,
0010
1000
0100
0010
0200
0000
0300
0000
,
0012
0013
1200
1300
,
0020
0000
1000
0000
0001
0000
1030
0001
,
0200
1000
0001
1300
,
0001
0100
0010
0200
0000
0300
0000
0000
,
1000
0001
0100
0010
0100
0000
1001
0000
,
0020
0000
0001
0000
1000
0000
0031
1000
,
0200
0001
1000
0301
,
1000
0100
0010
0200
0000
0300
0000
0000
,
0001
1000
0100
0010
0100
0000
1001
0000
,
0001
1100
0010
1100
,
0010
0001
0100
0010
0000
0100
0010
0000
,
1000
0100
1000
0001
1000
0000
1100
0000
,
1000
0100
0010
0000
0001
1000
0001
0000
,
1000
0101
0010
0101
,
0010
1000
0100
0010
0000
0100
0010
0000
,
0010
0001
1000
0100
0020
0000
0031
1000
,
2002
0000
0000
0000
3003
0000
0000
2002
,
0000
3003
0000
0110
0000
1001
0000
1000
,
0001
0100
0010
1000
0100
0010
0001
0000
,
1000
0000
0100
0010
0000
1001
0000
0200
,
0010
0000
1000
0000
0301
1000
0001
0000
,
0001
0000
0010
0100
0000
1100
0000
0000
,
1000
0000
1000
0001
0100
0010
1000
0000
,
0001
0100
0001
1000
0002
0000
0003
0000
,
1000
0010
0100
0001
0100
0000
0101
0000
,
1000
0100
1000
0001
2000
0000
3000
0000
,
0001
0010
0100
1000
0001
0100
1001
0000
,
0010
0000
1000
0000
0010
1000
0001
1000
,
0020
2030
3001
0101
,
1000
0000
0001
0000
0010
0001
1000
0001
,
2000
3200
0310
1100
,
0010
0000
0001
0000
0010
0001
1000
0001
,
0020
0032
1003
1100
,
0001
0000
1000
0000
0010
1000
0001
1000
,
0002
0203
0310
0101
,
1000
0000
0000
0000
;

//---------------dance-single - ----------------
#NOTES:
     dance-single:
     :
     Easy:
     3:
     0.295,0.340,0.276,0.402,0.000: // measure 1
0000
0000
0000
0000
,  // measure 2
0000
0000
0000
0000
,  // measure 3
0000
0000
0000
0000
,  // measure 4
0000
0000
0000
0000
,  // measure 5
1000
1000
0000
0001
,  // measure 6
0000
0001
1000
1100
,  // measure 7
0001
0001
0000
1000
,  // measure 8
0000
1000
0001
0101
,  // measure 9
2000
0002
0000
3003
,  // measure 10
0100
0100
1000
1001
,  // measure 11
0002
2000
0000
3003
,  // measure 12
0100
0100
0001
0101
,  // measure 13
0002
0200
0000
0303
,  // measure 14
0010
0010
1000
1001
,  // measure 15
2000
0200
0000
3300
,  // measure 16
0010
0010
0001
0001
,  // measure 17
2002
3003
0002
0003
,  // measure 18
1000
0010
0100
0001
,  // measure 19
0202
0303
0200
0300
,  // measure 20
0010
1010
0100
0101
,  // measure 21
2002
3003
2000
3000
,  // measure 22
0001
0010
0100
1000
,  // measure 23
2200
3300
0200
0300
,  // measure 24
0010
0011
0100
1100
,  // measure 25
0020
1000
1000
1030
,  // measure 26
0200
0001
0001
0301
,  // measure 27
1000
0001
0101
0000
,  // measure 28
0001
1000
1100
1001
,  // measure 29
0020
0001
0001
0031
,  // measure 30
0200
1000
1000
1300
,  // measure 31
0001
1000
1100
0000
,  // measure 32
1000
0001
0101
1001
,  // measure 33
0001
1000
0010
1010
,  // measure 34
0002
0203
0000
0310
,  // measure 35
1000
0001
1000
1100
,  // measure 36
1000
0000
0001
0000
,  // measure 37
1000
0001
0010
0011
,  // measure 38
2000
3200
0000
0310
,  // measure 39
0001
1000
0001
0101
,  // measure 40
2002
0000
0000
0000
0000
3003
0000
0220
,  // measure 41
0000
0000
0330
1000
,  // measure 42
0000
0001
0000
1000
,  // measure 43
1000
0001
0000
0001
,  // measure 44
2000
3200
0320
0031
,  // measure 45
0001
1000
0000
1000
,  // measure 46
0002
0203
0320
1030
,  // measure 47
2002
3003
0002
0003
,  // measure 48
1000
0010
0100
0001
,  // measure 49
0202
0303
0200
0300
,  // measure 50
0010
1010
0100
0101
,  // measure 51
0020
0000
0000
0030
,  // measure 52
0010
1000
0001
0101
,  // measure 53
0002
0000
0000
0003
,  // measure 54
1000
0100
0010
1100
,  // measure 55
0020
0000
0000
0030
,  // measure 56
0010
0001
1000
1100
,  // measure 57
2000
0000
0000
3000
,  // measure 58
0001
0100
0010
0101
,  // measure 59
1000
0000
0000
0000
;
