#TITLE:BURNITUP!;
#SUBTITLE:;
#ARTIST:Janet Jackson;
#TITLETRANSLIT:;
#SUBTITLETRANSLIT:;
#ARTISTTRANSLIT:;
#CREDIT:LFJ;
#BANNER:BURNITUP-bn.png;
#BACKGROUND:BURNITUP-bg.png;
#LYRICSPATH:;
#CDTITLE:;
#MUSIC:BURNITUP! (ITG Edit).OGG;
#OFFSET:-8.430;
#SAMPLESTART:54.510;
#SAMPLELENGTH:15.000;
#SELECTABLE:YES;
#BPMS:0.000=123.000,175.000=61.500;
#STOPS:;
#BGCHANGES:;

//---------------dance-single - ----------------
#NOTES:
     dance-single:
     :
     Hard:
     7:
     0.466,0.555,0.175,0.194,0.141:
1000
0000
0000
1000
0000
0000
1000
0000
0000
0000
2000
0000
0010
0000
0000
0000
,
3001
0000
0000
0001
0000
0000
0001
0000
0000
0000
0002
0000
0010
0000
0000
0000
,
1003
0000
0000
1000
0000
0000
1000
0000
0010
0000
2000
0000
0100
0000
0000
0000
,
3001
0000
0000
0001
0000
0000
0001
0000
0010
0000
0002
0000
0100
0000
0000
0000
,
1003
0000
1001
0000
0010
1000
0100
0000
,
0010
0001
0010
0000
0001
0000
0001
0000
0100
0000
0100
0000
0010
0000
0000
0000
,
1000
0000
1001
0000
0010
0001
0100
0000
,
0010
0010
1000
1000
0100
0100
0010
0000
,
0001
0100
1000
0000
0001
0100
1000
0000
,
0010
1000
0100
1000
0001
0001
0100
0000
,
2002
0000
3000
1000
1000
1000
1003
0000
,
0010
0001
0010
0000
0100
0000
1000
0000
0001
0000
1000
0000
0100
0000
0000
0000
,
2000
0000
0000
3001
1000
0001
0100
0000
,
0020
0000
0000
0130
0010
0100
0001
0000
,
0010
0001
0010
0001
0100
0010
0100
0000
,
0010
0101
0010
1100
,
0002
0000
0000
1003
0001
1000
0100
0000
,
0020
0000
0000
0130
0010
0100
1000
0000
,
0010
1000
0010
1000
0100
0010
0100
0000
,
0010
1100
0010
0101
,
0010
0000
1000
0000
0001
0100
0001
0000
0010
0000
0001
0000
1000
0100
1000
0000
,
0001
1000
0100
0010
0001
1000
0001
0000
,
1000
0000
0010
0000
0100
0001
0200
0000
0000
0000
0301
1000
0001
0000
0100
0000
,
0020
0000
0000
0000
0130
0000
0001
1000
0000
0000
0010
0000
0110
0000
0000
0000
,
0010
1000
0001
1000
0100
0100
1000
0000
,
0001
0000
0000
0001
0000
0000
0001
0000
0010
0000
0001
0000
0100
0000
0000
0000
,
0001
1000
0001
0000
0010
0000
1100
0000
,
0001
0010
0001
0100
0010
0000
1000
0001
,
0010
0001
1000
0001
0100
0100
0001
0000
,
1000
0000
0000
1000
0000
0000
1000
0000
0010
0000
1000
0000
0100
0000
0000
0000
,
1000
0001
1000
0000
0010
0000
0101
0000
,
1000
0010
1000
0100
0010
0000
0001
1000
,
0010
1000
0100
1000
0010
0010
0100
0001
,
0010
0010
0001
1000
0100
0000
0110
0000
,
0010
0001
0100
0001
0010
0010
0001
1000
,
0100
0000
1000
0001
2000
0000
3010
0101
,
0000
0000
0010
0001
0100
0000
0001
0000
0010
0000
0010
0000
0100
0000
1000
0000
,
0010
0010
1000
0001
0100
0000
0110
0000
,
0010
1000
0100
1000
0010
0010
1000
0001
,
0100
0000
0001
1000
0002
0000
0013
1100
,
1000
0000
0001
1000
0000
0000
0010
0000
0100
0000
0001
0000
0200
0000
0000
0000
,
0310
0000
0000
0010
0000
0000
1000
0000
0001
0000
0100
0000
0101
0000
0000
0000
,
0001
0000
1000
0001
0000
0000
0010
0000
0100
0000
1000
0000
0200
0000
0000
0000
,
0310
0000
0000
0010
0000
0000
0001
0000
1000
0000
0100
0000
1100
0000
0000
0000
,
0000
0010
0001
0100
0220
0000
0000
0000
0330
0010
1000
0100
0220
0000
0000
0000
,
0330
0000
0000
0000
0001
0000
0000
0000
1000
0000
0000
0000
0001
0000
0000
0000
0100
0000
0000
0000
0010
0000
0000
0000
1000
0000
0000
0000
0100
0000
0000
0000
0010
0000
0000
0000
0010
0001
0000
0000
0000
0000
0000
0100
0000
0000
0000
0000
0000
0000
0000
0000
0000
0000
0000
0000
0000
0000
0000
0000
0000
0000
0000
0000
;

//---------------dance-single - ----------------
#NOTES:
     dance-single:
     :
     Medium:
     6:
     0.384,0.333,0.214,0.272,0.000:
1000
0000
1000
0000
1000
0010
1000
0000
,
0001
0000
0001
0000
0001
0010
0001
0000
,
1000
0000
1000
0000
0010
2000
0100
0000
,
3001
0000
0001
0000
0010
0002
0100
0000
,
1003
0000
1001
0000
0010
1000
0100
0000
,
0020
0032
0203
0320
,
1030
0000
1001
0000
0010
0001
0100
0000
,
0020
2030
3200
0320
,
0031
1000
0001
0000
1000
0001
1000
0000
,
0010
1000
0100
0000
1000
0001
0100
0000
,
2002
3000
1000
1003
,
0010
0100
0010
0100
0001
0000
1100
0000
,
2000
0000
0000
3000
1000
0001
0100
0000
,
0020
0000
0000
0030
0010
0100
0001
0000
,
0010
0001
1000
1000
,
0010
0101
0010
1100
,
0002
0000
0000
0003
0001
1000
0100
0000
,
0020
0000
0000
0030
0010
0100
1000
0000
,
0010
1000
0001
0001
,
0010
1100
0010
0101
,
0010
1000
0001
0000
0010
0001
1000
0000
,
0001
1000
0100
0010
0001
1000
0001
0000
,
1000
0010
0100
0000
0001
1000
0001
0000
,
2000
3020
0130
0110
,
0010
1000
0001
0000
1000
0100
1000
0000
,
0001
0000
0001
0000
0010
0001
0100
0000
,
0001
1000
0001
0000
0010
0000
1100
0000
,
0001
0010
0001
0100
0010
0000
1001
0000
,
0010
0001
1000
0000
0001
0100
0001
0000
,
1000
0000
1000
0000
0010
1000
0100
0000
,
1000
0001
1000
0000
0010
0000
0101
0000
,
1000
0010
1000
0100
0010
0000
1001
0000
,
0010
1000
0100
1000
0010
0000
0100
0000
,
0001
0010
0100
1000
0100
0000
0110
0000
,
0010
0001
0100
0001
0010
0000
0001
0000
,
1000
0000
1000
0001
1000
0000
0101
0000
,
0010
0001
0100
0001
0010
0000
0100
0000
,
1000
0010
0100
0001
0100
0000
0110
0000
,
0010
1000
0100
1000
0010
0000
1000
0000
,
0001
0000
0001
1000
0001
0000
1100
0000
,
1000
0001
1000
0000
0020
0000
0130
0000
,
0001
0000
1000
0001
0100
0000
0101
0000
,
0001
1000
0001
0000
0020
0000
0130
0000
,
1000
0000
0001
1000
0100
0000
2200
0000
,
3300
0220
0330
0022
,
0033
0000
0000
0000
0000
0000
0000
0000
0000
0000
0000
0000
0000
0000
0000
0000
2002
0000
0000
0000
0000
0000
0000
0000
0000
0000
0000
0000
0000
0000
0000
0000
0000
0000
0000
0000
0000
0000
0000
0000
0000
0000
0000
3003
0000
0000
0000
0000
0000
0000
0000
0000
0000
0000
0000
0000
0000
0000
0000
0000
0000
0000
0000
0000
;

//---------------dance-single - ----------------
#NOTES:
     dance-single:
     :
     Easy:
     4:
     0.315,0.333,0.233,0.573,0.000: // measure 1
1000
0000
1000
1000
,  // measure 2
0001
0000
0001
0001
,  // measure 3
1000
0000
0010
0100
,  // measure 4
0001
0000
0010
0100
,  // measure 5
1000
2002
3003
0100
,  // measure 6
0020
0032
0203
0320
,  // measure 7
1030
2002
3003
0100
,  // measure 8
0020
2030
3200
0320
,  // measure 9
0031
0001
1000
1000
,  // measure 10
0020
0030
0200
0300
,  // measure 11
2002
0000
0000
3003
,  // measure 12
0010
0010
0001
1100
,  // measure 13
2000
0000
3001
0100
,  // measure 14
0020
0000
0130
0001
,  // measure 15
0010
0001
1000
0001
,  // measure 16
2002
0000
0000
3003
,  // measure 17
0002
0000
1003
0100
,  // measure 18
0020
0000
0130
1000
,  // measure 19
0010
1000
0001
1000
,  // measure 20
2002
3003
2002
3003
,  // measure 21
0010
0001
0020
0030
,  // measure 22
0001
0100
0002
0003
,  // measure 23
1000
0100
0001
0010
,  // measure 24
1000
0100
2000
3000
,  // measure 25
0010
0001
1000
1000
,  // measure 26
0001
0001
0020
0030
,  // measure 27
0022
0033
2200
3300
,  // measure 28
0001
0001
0010
1001
,  // measure 29
0010
1000
0001
0001
,  // measure 30
1000
1000
0020
0030
,  // measure 31
2020
3030
0202
0303
,  // measure 32
1000
1000
0010
1001
,  // measure 33
0010
1000
0001
0001
,  // measure 34
1000
1000
0020
0030
,  // measure 35
2020
3030
0202
0303
,  // measure 36
1000
1000
0010
1001
,  // measure 37
0010
0001
1000
1000
,  // measure 38
0001
0001
0020
0030
,  // measure 39
0022
0033
2200
3300
,  // measure 40
0001
0001
0010
1001
,  // measure 41
1000
1000
0020
0130
,  // measure 42
0001
1000
0001
0101
,  // measure 43
0001
0001
0020
0130
,  // measure 44
1000
0001
1000
2200
,  // measure 45
3300
0220
0330
0022
,  // measure 46
0033
0000
0000
0000
0000
0000
0000
0000
0000
0000
0000
0000
0000
0000
0000
0000
2002
0000
0000
0000
0000
0000
0000
0000
0000
0000
0000
0000
0000
0000
0000
0000
0000
0000
0000
0000
0000
0000
0000
0000
0000
0000
0000
3003
0000
0000
0000
0000
0000
0000
0000
0000
0000
0000
0000
0000
0000
0000
0000
0000
0000
0000
0000
0000
;
