#TITLE:The Koan of Drums;
#SUBTITLE:Tales of Phantasia OC Remix;
#ARTIST:djpretzel;
#TITLETRANSLIT:;
#SUBTITLETRANSLIT:;
#ARTISTTRANSLIT:;
#GENRE:Game;
#CREDIT:Steps, Kyzentun - Sync, x0_000;
#BANNER:;
#BACKGROUND:the_koan_of_drums-bg.png;
#LYRICSPATH:;
#CDTITLE:cdtitle.png;
#MUSIC:Tales_of_Phantasia_The_Koan_of_Drums_OC_ReMix.ogg;
#OFFSET:-0.051;
#SAMPLESTART:155.009;
#SAMPLELENGTH:15.000;
#SELECTABLE:YES;
#BPMS:0.000=140.000
,112.000=560.000
,120.000=140.000
,274.000=70.000
,276.000=140.000
,444.000=70.000
,455.000=560.000
,459.000=140.000
;
#STOPS:
;
#BGCHANGES:;
#KEYSOUNDS:;
#ATTACKS:;

//---------------dance-single - Kyzentun----------------
#NOTES:
     dance-single:
     Kyzentun:
     Hard:
     11:
     0.879,1.000,0.596,0.908,0.958,1162.000,149.000,227.000,275.000,0.000,0.000,0.879,1.000,0.596,0.908,0.958,1162.000,149.000,227.000,275.000,0.000,0.000:
M000
0000
0000
0M00
0000
0000
00M0
0000
0000
000M
0000
0000
M000
0000
0000
0M00
0000
0000
00M0
0000
0000
000M
0000
0000
0000
0000
0000
0000
0000
0000
0000
0000
0M00
0000
0000
0000
M000
0000
0000
0000
0M00
0000
0000
0000
M000
0000
0000
0000
,
0M00
0000
0000
00M0
0000
0000
0M00
0000
0000
00M0
0000
0000
0M00
0000
0000
0000
M000
0000
0000
0000
0M00
0000
0000
0000
M000
0000
0000
0000
0000
0000
0000
0000
0000
0000
0000
0000
0000
0000
0000
0000
0000
0000
0000
0000
0000
0000
0000
0000
,
0000
0000
0000
0000
,
0000
0000
0000
0000
0000
0000
0000
0000
0200
0000
0301
0000
0001
0000
0100
0001
,
0200
0301
0001
0100
0001
1000
0100
0100
,
0220
0330
0010
0001
0022
0033
0020
0031
,
2002
3003
1001
0000
1001
0000
0010
0000
0001
0000
0100
0000
0010
0000
0110
0000
,
0110
0000
0010
0000
0100
0000
0010
0000
1000
0010
1000
0000
0002
1003
0001
0000
,
2002
3003
0010
0000
0100
0000
0010
0000
1000
0000
0010
0000
0100
0000
0100
0000
,
0200
0000
0301
0000
1000
0000
0001
0000
0020
0000
0031
0000
2000
3000
1000
0000
,
2000
3100
0010
0100
0001
0100
0010
0010
,
0110
0000
1001
0000
1010
0000
2200
3300
,
2000
3010
0100
1000
0100
0010
0100
0100
,
0200
0310
1000
0000
0010
0000
1000
0000
0200
0000
1300
0000
0002
0003
0001
0000
,
0002
0013
0100
0000
0010
0000
0100
0000
1000
0000
0100
0000
0001
0000
0100
0000
,
0010
0100
0010
0100
1000
0001
1000
0001
0020
0130
0010
0100
0010
0100
0010
0100
,
0020
0030
0010
0000
0000
0000
0010
0000
0002
0000
0010
0000
0000
0000
0010
0003
,
0002
0000
0010
0000
0000
0000
0010
0003
0002
0000
0010
0003
0002
0000
0010
0000
,
0020
0030
0010
0000
0010
0000
0010
0003
0002
0003
0001
0000
0002
0003
0001
0000
,
2000
3000
1000
0000
1000
0000
1000
0000
0001
1000
0001
1000
0001
1000
0001
1000
,
0010
0010
0010
0010
0100
0100
0100
0100
,
0002
0003
0001
0000
0001
0000
0001
0000
0020
0030
0010
0000
0020
0130
0010
0000
,
0200
1300
0100
1000
0002
0103
0001
0100
,
0020
0000
1030
0000
0010
0000
1000
0000
0001
0100
0001
0100
0001
0100
0001
0100
,
0001
1000
0001
1000
0200
0310
0100
0010
,
0002
0013
0001
0010
0200
1300
0200
1300
,
0002
0103
0010
0100
0001
0010
1000
0010
,
0001
0000
1000
0000
0010
0000
0001
0000
0010
0000
0100
0000
0001
1000
0001
1000
,
00M2
0M00
00M0
0M00
00M0
0M00
00M0
0M00
00M0
0M00
00M0
0M00
00M0
0M00
00M0
0M00
,
00M0
0M00
00M0
0M00
00M0
0M00
00M0
0M00
00M0
0M00
00M0
0M00
00M0
0M00
00M0
0M00
,
0003
0000
0000
0000
2002
0000
0000
3000
2003
3100
1000
0100
1000
0001
1000
0001
,
0100
0001
0100
0001
0100
0010
0100
0010
2000
3010
1000
0010
1000
0100
1000
0100
,
0010
0100
0010
0100
0020
0031
0020
0031
0200
0301
0100
0001
0100
0010
0100
0010
,
1000
0010
1000
0010
1000
0100
1000
0100
0010
0100
0010
0100
0010
0001
0010
0001
,
0100
0000
0000
0001
0000
0000
0100
0000
0000
0001
0000
0000
0200
0000
0000
0310
0000
0000
0200
0000
0000
0310
0000
0000
2000
0000
0000
3010
0000
0000
1000
0000
0000
0010
0000
0000
1000
0000
0000
0100
0000
0000
0020
0000
0032
0000
0023
0000
,
0032
0013
0001
1000
0001
1000
0010
1000
0010
0100
0010
0100
0001
0100
0001
1000
,
0001
1000
0100
1000
0200
0310
0100
0010
0002
0013
0001
0100
0001
0100
0010
0100
,
0010
1000
0010
1000
0001
1000
0001
0100
0002
0103
0010
0100
0010
1000
0010
1000
,
0001
1000
0001
0010
0002
0013
0200
0310
0200
1300
0100
1000
0002
0203
0320
2030
,
3002
0103
0001
0100
0010
1000
0010
1000
0100
0010
0100
0010
0001
1000
0001
1000
,
0100
0010
0100
0010
0002
0103
0002
0003
2020
3030
1000
0010
1000
0010
1000
0000
,
2020
3030
0010
1000
0001
0100
0010
0100
0001
0100
0001
1000
0001
0010
0100
0010
,
0001
0010
0100
1000
0100
0010
0100
0000
0220
0330
0010
0001
1000
0001
2000
3010
,
0200
0310
0100
0010
2000
3000
1001
0000
2002
3003
0001
0010
0001
0010
0100
0010
,
0100
1000
0100
1000
0001
0000
1001
0000
2002
3003
1000
0010
0100
0010
2000
3010
,
0200
0301
0100
0001
0200
0300
1001
0000
2002
3003
0010
1000
0010
0100
0010
1000
,
0001
1000
0010
1000
0002
0003
1001
0000
2002
3003
1000
0100
0010
0001
2000
3100
,
0020
0031
1000
0100
0020
0030
1001
0000
2002
3003
0001
0010
0100
0010
0001
1000
,
0010
1000
0001
0100
0001
0000
1001
0000
2002
3003
1000
0100
1000
0001
2000
3010
,
2000
3001
0010
0001
0020
0030
2001
3000
2002
3003
0001
0010
0001
1000
0010
1000
,
0001
0100
0001
1000
0010
0000
1001
0000
0001
1000
0001
1000
0001
1000
0001
1000
,
0001
1000
0001
1000
0001
1000
0001
0000
1001
0000
0000
0000
0001
0000
00M0
00M0
,
10M0
00M0
0000
0000
0100
0000
0000
0000
0020
0000
0000
0000
0000
0000
0032
2003
,
3002
0003
0000
1000
0000
0000
1M00
0000
0010
0000
0000
0000
0000
0000
0110
0000
,
0110
0000
0000
0000
0000
0000
0000
0000
0100
0000
0000
0010
0000
0000
1000
0000
,
1000
0000
0000
0010
0000
0000
0100
0000
010M
0000
0000
0000
0000
0000
1010
0000
,
1010
0000
0000
0000
0000
0000
0000
0000
0010
0000
0000
1000
0000
0000
0010
1000
,
0001
0000
0000
1000
0000
0000
0M01
0M00
0001
0000
0010
0000
0010
0000
1100
0000
,
1100
0000
0000
1000
1000
0000
0000
0000
,
0100
0000
0000
0010
0000
0000
0001
0000
0001
0000
0000
0000
0000
0000
0000
0000
,
0000
0000
0000
0000
0010
0000
0M01
0M00
1M00
0000
0000
0000
0000
0000
0010
1000
,
0001
0000
0000
0100
0000
0000
0001
0000
1000
0000
0000
0000
0000
0000
1001
0000
,
1001
0000
0000
0000
0000
0000
0000
0000
0001
0000
0000
0010
0000
0000
0100
0000
,
1000
0000
0000
0100
0000
0000
0010
0000
M001
0000
0000
0000
0000
0000
1001
0000
,
1001
0000
0000
0000
0000
0000
0000
0000
1000
0000
0000
0000
0000
0000
0100
0010
,
0001
0000
0000
0010
0000
0000
0100
0000
01M0
00M0
10M0
00M0
10M0
00M0
10M1
00M0
,
10M1
00M0
00M0
00M0
00M0
00M0
00M1
00M0
01M0
0000
0000
0000
0000
0000
0000
0000
,
0010
0000
0000
0100
0000
0000
0001
0000
0000
0000
0000
0000
0000
0000
0000
0000
,
0000
0000
0000
1001
1001
2000
3200
0320
,
M032
0M00
M000
0M00
M000
0M00
M000
0M00
M003
0000
0000
0000
0010
0100
0000
0000
,
0100
1000
0000
0000
1000
0001
0000
0000
0001
0100
0000
0000
0100
0001
0000
0000
,
0001
0010
0000
0000
0010
0100
0000
0000
0100
1000
0000
0000
1000
0100
0000
0000
,
0100
0001
0000
0000
0001
0100
0000
0000
0100
0010
0000
0000
0010
1000
0000
0000
,
1000
0010
0000
0000
0010
0001
0000
0000
0001
1000
0000
0000
1000
0010
0000
0000
,
0010
0001
0000
0000
0001
0010
0000
0000
0010
0100
0000
0000
0100
1000
0000
0000
,
1000
0100
0000
0000
0100
0001
0000
0000
0001
0010
0000
0000
0010
0100
0000
0000
,
0100
1000
0000
0000
1000
0001
0000
0000
0001
0100
0000
0000
0100
0001
0000
0000
,
0001
1000
0000
0000
1001
0000
0M00
0M00
0M02
0010
0003
0000
0100
1000
0000
0000
,
0001
0100
0000
0000
1001
0000
0000
0000
0100
0010
0000
0000
1000
0010
0000
0000
,
0100
0001
0000
0000
1001
0000
0000
0000
0001
0010
0000
0000
0100
1000
0000
0000
,
001M
010M
000M
000M
101M
000M
000M
000M
200M
001M
300M
001M
010M
001M
010M
000M
,
022M
0000
0330
0000
1001
0000
0000
0000
0001
0010
0000
0000
0100
0010
0000
0000
,
0200
1000
0300
0000
0001
0100
0000
0000
1001
0000
1000
0001
0100
0010
0100
0000
,
0220
0330
0000
0000
0001
0010
0000
0000
0100
1000
0000
0000
0001
0100
0000
0000
,
0010
1000
0000
0000
1001
0000
0000
0000
0110
0000
0000
1100
0000
0000
0011
0000
,
22MM
0000
3300
0000
0010
0100
0000
0000
0011
0000
0000
0000
0001
1000
0000
0000
,
0010
0100
0000
0000
2020
0000
3030
0000
1000
0100
0000
0000
0001
0100
0000
0000
,
M010
M100
M000
M000
M110
M000
M000
M000
M001
M010
M000
M000
M001
M100
M000
M000
,
M010
M100
M000
M000
M101
M000
M000
M000
M200
0010
0300
0000
0100
0000
0110
0000
,
2002
0000
3003
0000
0011
0000
0000
0000
0220
0000
0330
0000
0010
0100
0000
0000
,
2000
0001
3000
0000
1100
0000
0000
0000
200M
010M
3000
0000
0010
0001
0000
0000
,
2000
0001
3000
0000
0011
0000
0000
0000
0100
0010
0000
0000
0001
0010
0000
0000
,
0001
1000
0000
0000
0010
1000
0000
0000
1100
0000
0000
1100
0000
0000
0110
0000
,
M011
M000
0000
0000
0110
0000
0000
0000
M011
M000
0000
1100
0000
0000
0011
0000
,
M110
M000
0000
0000
1100
0000
0000
0000
10M1
00M0
0000
0101
0000
0000
0110
0000
,
101M
000M
0000
0000
0110
0000
0000
0000
101M
000M
0000
0101
0000
0000
1001
0000
,
0M11
0M00
0000
0000
0110
0000
0000
0000
110M
000M
0000
1001
0000
0000
0110
0000
,
10M1
00M0
1000
0001
1000
0000
1010
0000
011M
000M
0010
0100
0010
0000
0110
0000
,
M110
M000
0100
0001
1000
0000
1100
0000
010M
001M
0000
0010
0100
0010
0100
0000
,
M011
M000
0001
0010
0001
0010
0100
0010
010M
000M
1100
0000
1000
0010
1000
0000
,
101M
000M
0010
0100
0010
0000
0110
0000
101M
000M
0000
0101
0000
0000
0100
0010
,
M100
M000
0101
0000
1001
0000
0001
1000
00M1
10M0
0100
0010
0100
0000
0110
0000
,
M011
M000
0010
0001
0010
0000
0011
0000
11M0
00M0
0100
1000
0001
1000
0001
0000
,
M101
M000
0100
0010
0100
0010
0100
0000
011M
000M
0010
1000
0010
0000
1010
0000
,
1M01
0M00
1000
0100
0010
0001
0100
0001
M020
M030
0110
0000
1100
0000
1001
0000
,
0101
0000
0000
0000
0000
0000
0000
0001
0000
0000
0100
0000
0000
0001
0000
0000
,
1000
0000
0000
0100
0000
0000
0010
0000
0010
0000
0000
0100
0000
0000
1000
0000
,
2000
0000
0000
0000
,
0000
0000
0000
0000
0000
0000
3002
0203
,
0302
0000
0000
2003
3200
0000
0000
0000
,
0000
0000
0000
0320
,
0032
0000
0000
0000
0000
M000
0000
00M0
0000
0M00
0000
00M0
2003
0M00
0000
000M
0000
0M00
0000
000M
0000
32M0
0000
000M
,
0320
0000
000M
0000
0000
0000
M000
0000
0000
0000
000M
0000
0000
0000
0000
0000
0000
0000
0000
0000
0000
0000
0000
0000
0000
0000
0000
0000
0000
0000
0000
0000
0000
0000
0000
0000
0030
0000
0000
0000
0000
0000
0020
0000
0000
0230
0000
0000
,
0320
0000
0000
0032
0023
0000
0000
0000
0000
0000
0000
0000
M000
M000
M000
M000
,
M000
M000
M000
M000
M000
M000
M000
M000
M000
M000
M000
M000
0030
0000
0000
0000
,
0220
0330
0100
1000
0100
0000
0200
0310
0200
0300
0100
1000
0200
0300
0110
0000
,
0220
0330
0010
0001
0010
0000
0010
0100
0010
0000
0010
0001
0010
0000
0011
0000
,
0022
0033
0001
0010
0001
0000
0002
1003
0002
0003
0001
0100
0002
0003
0101
0000
,
0202
0303
0100
0001
0100
0000
0100
0010
0100
0000
0100
1000
0100
0000
0110
0000
,
0220
0330
0010
0100
0010
0000
0020
1030
0020
0030
0010
0100
0020
0030
1010
0000
,
2020
3030
1000
0010
1000
0000
1000
0001
1000
0000
1000
0100
1000
0000
1100
0000
,
2200
3300
0100
0010
0200
0300
0100
0001
0200
0300
0100
0010
0200
0300
0220
0330
,
0220
0330
0010
1000
0010
0000
0010
0100
0010
0000
0010
0001
0010
0000
0011
0000
,
M011
0000
0000
0M00
0000
0000
M000
0000
0000
0M00
0000
0000
M001
0000
0000
0M00
0010
0000
M000
0000
0001
0M00
0000
0000
M010
0000
0000
0M01
0000
0000
M010
0000
0000
0M01
0000
0000
0010
0000
0000
0000
0001
0000
0000
0000
0010
0000
0000
0000
,
0000
0000
0000
0000
0001
0000
0M00
1M00
0M00
0M00
0010
0000
0000
0000
0000
0000
,
0200
0000
0000
0000
0000
0000
0320
0230
0320
0030
1000
0010
1000
0000
00M2
0103
,
0002
0003
1000
0100
1000
0000
1100
0000
1100
0000
0100
0010
0100
0000
0010
0001
,
0020
0030
0001
2000
3001
0000
2000
3100
2000
3000
0100
0020
0130
0000
0020
0031
,
M020
0030
0001
0100
0001
0000
0101
0000
0101
0000
0100
0001
0100
0000
0010
1000
,
0020
0030
1000
0020
1030
0000
0002
0023
0032
0003
0100
0002
0103
0000
0020
013M
,
002M
0030
2000
3100
2000
3000
2100
3000
2100
3000
0100
0010
0100
0000
0020
1030
,
0020
0030
0100
0010
0100
0000
0010
0001
0020
0030
0001
2000
3001
0000
0200
1300
,
0200
0300
0010
0001
0010
0000
0100
0001
0100
0000
0001
1000
0002
0003
0M20
1M30
,
0M20
0030
0100
0010
0100
0000
2000
3002
2003
3000
0010
0200
0310
0000
0200
1300
,
0200
0300
0001
0100
0001
0000
1001
0000
1001
0000
1000
0001
0100
0000
0001
1000
,
0020
0030
1000
0002
0013
0000
0200
0310
0002
0003
0010
0200
1300
0000
0200
1300
,
002M
0030
0100
0001
0010
0000
0011
0000
0011
0000
0001
0010
0001
0000
0010
0100
,
0010
0000
0000
0001
0000
0000
1000
0010
0100
0000
0000
0010
0000
0000
0100
0000
,
010M
000M
001M
000M
001M
000M
101M
000M
101M
000M
000M
000M
000M
000M
100M
000M
,
001M
0000
0000
0000
0000
0000
0000
0000
1000
0000
0000
0100
0000
0000
0010
0000
,
0001
0000
0000
0000
0000
0M00
0000
1001
,
1M01
00M0
0M00
00M0
M000
0M00
00M0
0M00
M000
000M
0M00
00M0
M000
000M
00M0
0M00
,
00M0
0000
0000
0000
;

//---------------dance-double - Kyzentun----------------
#NOTES:
     dance-double:
     Kyzentun:
     Hard:
     11:
     0.890,1.000,0.596,0.940,0.958,1172.000,149.000,235.000,287.000,11.000,0.000,0.890,1.000,0.596,0.940,0.958,1172.000,149.000,235.000,287.000,11.000,0.000:
0M000000
00000000
00000000
000000M0
00000000
00000000
00M00000
00000000
00000000
00000M00
00000000
00000000
0M000000
00000000
00000000
000000M0
00000000
00000000
M0000000
00000000
00000000
0000000M
00000000
00000000
00000000
00000000
00000000
00000000
00000000
00000000
00000000
00000000
0M000000
00000000
00000000
00000000
M0000000
00000000
00000000
00000000
0M000000
00000000
00000000
00000000
M0000000
00000000
00000000
00000000
,
0M000000
00000000
00000000
00M00000
00000000
00000000
0M000000
00000000
00000000
00M00000
00000000
00000000
0M000000
00000000
00000000
00000000
M0000000
00000000
00000000
00000000
0M000000
00000000
00000000
00000000
M0000000
00000000
00000000
00000000
00000000
00000000
00000000
00000000
00000000
00000000
00000000
00000000
00000000
00000000
00000000
00000000
00000000
00000000
00000000
00000000
00000000
00000000
00000000
00000000
,
00000000
00000000
00000000
00000000
,
00000000
00000000
00000000
00000000
00000000
00000000
00000000
00000000
00000020
00000000
00010030
00000000
00010000
00000000
00000010
00001000
,
00000020
00010030
00010000
00000100
00010000
01000000
10000000
10000000
,
22000000
33000000
01000000
00100000
00220000
00330000
00001000
00010000
,
00020200
00030300
00010100
00000000
00010100
00000000
00001000
00000000
00000100
00000000
00000010
00000000
00000001
00000000
00000011
00000000
,
00000011
00000000
00000010
00000000
00000100
00000000
00001000
00000000
00000010
00001000
00000010
00000000
00020000
00031000
00010000
00000000
,
00022000
00033000
00001000
00000000
01000000
00000000
00100000
00000000
10000000
00000000
00100000
00000000
01000000
00000000
01000000
00000000
,
02000000
00000000
03010000
00000000
00100000
00000000
00001000
00000000
00000020
00000000
00000130
00000000
00002000
00003000
00001000
00000000
,
00002000
00003001
00000100
00000010
00000001
00000010
00000100
00000100
,
00000110
00000000
00001001
00000000
00100100
00000000
02000020
03000030
,
00000020
01000030
00001000
00100000
01000000
10000000
01000000
01000000
,
02000000
03100000
00010000
00000000
01000000
00000000
00010000
00000000
00000200
00000000
00000301
00000000
00002000
00003000
00001000
00000000
,
00002000
00003100
00000010
00000000
00010000
00000000
00100000
00000000
01000000
00000000
00100000
00000000
00010000
00000000
01000000
00000000
,
00100000
01000000
00100000
01000000
00010000
10000000
00010000
10000000
00002000
01003000
00001000
01000000
00001000
01000000
00001000
01000000
,
00002000
00003000
00001000
00000000
00000000
00000000
00001000
00000000
00020000
00000000
00001000
00000000
00000000
00000000
00001000
00030000
,
00020000
00000000
00001000
00000000
00000000
00000000
00001000
00030000
00020000
00000000
00001000
00030000
00020000
00000000
00001000
00000000
,
00002000
00003000
00001000
00000000
00001000
00000000
00001000
00030000
00020000
00030000
00010000
00000000
00020000
00030000
00010000
00000000
,
00000200
00000300
00000100
00000000
00000100
00000000
00000100
00000000
00000010
00000001
00000010
00000001
00000010
00000001
00000010
00000001
,
00001000
00001000
00001000
00001000
00000100
00000100
00000100
00000100
,
02000000
03000000
01000000
00000000
01000000
00000000
01000000
00000000
00020000
00030000
00010000
00000000
00020000
01030000
00010000
00000000
,
20000000
31000000
10000000
01000000
00200000
00301000
00100000
00001000
,
00000020
00000000
00000130
00000000
00000010
00000000
00000100
00000000
00001000
00000001
00001000
00000001
00001000
00000001
00001000
00000001
,
00001000
00000010
00010000
00000010
02000000
03100000
01000000
00100000
,
00020000
00130000
00010000
00100000
02000000
03001000
02000000
03001000
,
00020000
01030000
00100000
01000000
00010000
00000010
00000100
00010000
,
01000000
00000000
00100000
00000000
10000000
00000000
01000000
00000000
00010000
00000000
00000100
00000000
00000010
00000001
00000010
00000002
,
M00M0020
0M000000
00M00000
M00M0000
0M000000
00M00000
M00M0000
0M000000
00M00000
M00M0000
0M000000
00M00000
M00M0000
0M000000
00M00000
M00M0000
,
0M000000
00M00000
M00M0000
0M000000
00M00000
M00M0000
0M000000
00M00000
M00M0000
0M000000
00M00000
M00M0000
0M000000
00M00000
M00M0000
0M000000
,
00M00033
00000000
00000000
00000000
00000022
00000000
00000000
00000003
00000032
00001003
00000001
00001000
00000001
00000100
00000001
00000100
,
00000010
00000100
00000010
00000100
00000010
00010000
00000010
00010000
00002000
00013000
00001000
00010000
00001000
01000000
00001000
01000000
,
00100000
01000000
00100000
01000000
00200000
10300000
00200000
10300000
02000000
13000000
01000000
10000000
01000000
00100000
01000000
00100000
,
00001000
00100000
00001000
00100000
00001000
00010000
00001000
00010000
00000100
00010000
00000100
00010000
00000100
00001000
00000100
00001000
,
00000001
00000000
00000000
00001000
00000000
00000000
00000001
00000000
00000000
00001000
00000000
00000000
00000002
00000000
00000000
00000013
00000000
00000000
00000002
00000000
00000000
00000013
00000000
00000000
00000200
00000000
00000000
00000310
00000000
00000000
00000100
00000000
00000000
00000010
00000000
00000000
00000100
00000000
00000000
00001000
00000000
00000000
00000002
00000000
00000023
00000000
00000032
00000000
,
00000023
00000000
00000030
00000001
00000000
00000000
00000010
00000000
00000000
00000100
00000000
00000000
00000010
00000000
00000000
00000100
00000000
00000000
00010000
00000000
00000000
00000100
00000000
00000000
00010000
00000000
00000000
00001000
00000000
00000000
00010000
00000000
00000000
00001000
00000000
00000000
01000000
00000000
00000000
00001000
00000000
00000000
01000000
00000000
00000000
00010000
00000000
00000000
,
01000000
00010000
10000000
00010000
20000000
30100000
10000000
00100000
02000000
03100000
01000000
00010000
01000000
00010000
00100000
00010000
,
00100000
00001000
00100000
00001000
00010000
00001000
00010000
00000010
00020000
00030010
00000100
00000010
00000100
00001000
00000100
00001000
,
00000100
00001000
00000100
00000010
00000200
00000310
00002000
00003010
00002000
00003001
00001000
00000001
00000200
00000320
00002030
00003002
,
00020003
00030100
00010000
00000100
00100000
00001000
00100000
00001000
01000000
00010000
01000000
00010000
10000000
00100000
10000000
00100000
,
01000000
00001000
01000000
00001000
00020000
00030100
00020000
00030000
00020200
00030300
00000100
00000010
00000100
00000010
00000100
00000000
,
00000220
00000330
00000010
00000100
00001000
00000001
00000100
00000001
00001000
00000001
00001000
00000010
00001000
00000100
01000000
00000100
,
00010000
00000100
01000000
00001000
01000000
00100000
01000000
00000000
02200000
03300000
00100000
10000000
00010000
10000000
00020000
01030000
,
00200000
01300000
00100000
01000000
00020000
00030000
10010000
00000000
20020000
30030000
10000000
00100000
10000000
00100000
01000000
00100000
,
01000000
00001000
01000000
00001000
00010000
00000000
00011000
00000000
00022000
00033000
00001000
00010000
00000100
00010000
00002000
00013000
,
00000200
00001300
00000100
00001000
00000200
00000300
00000110
00000000
00000220
00000330
00000010
00000001
00000010
00000100
00000010
00000001
,
00001000
00000001
00000100
00000001
00002000
00003000
00001010
00000000
00002020
00003030
00000010
00000100
00000001
00010000
00000200
00100300
,
00002000
00103000
00010000
10000000
00020000
00030000
10010000
00000000
20020000
30030000
10000000
00100000
01000000
00100000
10000000
00010000
,
01000000
00010000
10000000
00100000
10000000
00000000
10010000
00000000
20020000
30030000
10000000
01000000
00100000
00001000
00020000
00030100
,
00000020
00000031
00010000
00001000
00020000
00030000
00022000
00033000
00022000
00033000
00001000
00010000
00001000
00010000
00000100
00100000
,
00000100
00100000
00001000
00010000
00000010
00000000
01000010
00000000
00000010
01000000
00000010
01000000
00000010
01000000
00000010
01000000
,
00000010
01000000
00000010
01000000
00000010
01000000
00000010
00000000
01000010
00000000
00000000
00000000
01000000
00000000
00M00000
00M00000
,
00M01000
00M00000
00000000
00000000
01000000
00000000
00000000
00000000
00200000
00000000
00000000
00000000
00000000
00000000
00320000
00032000
,
00023000
00030000
00000000
01000000
00000000
00000000
100M0000
00000000
00100000
00000000
00000000
00000000
00000000
00000000
01100000
00000000
,
01100000
00000000
00000000
00000000
00000000
00000000
00000000
00000000
01000000
00000000
00000000
00001000
00000000
00000000
00000010
00000000
,
00000010
00000000
00000000
00000100
00000000
00000000
00001000
00000000
000M1000
00000000
00000000
00000000
00000000
00000000
00001001
00000000
,
00001001
00000000
00000000
00000000
00000000
00000000
00000000
00000000
00000001
00000000
00000000
00010000
00000000
00000000
00000100
00010000
,
01000000
00000000
00000000
10000000
00000000
00000000
0M010000
0M000000
00010000
00000000
00100000
00000000
00100000
00000000
11000000
00000000
,
11000000
00000000
00000000
10000000
10000000
00000000
00000000
00000000
,
01000000
00000000
00000000
00100000
00000000
00000000
00010000
00000000
00010000
00000000
00000000
00000000
00000000
00000000
00000000
00000000
,
00000000
00000000
00000000
00000000
00100000
00000000
0M010000
0M000000
0M000010
00000000
00000000
00000000
00000000
00000000
00000001
00000010
,
00000100
00000000
00000000
00010000
00000000
00000000
00000100
00000000
01000000
00000000
00000000
00000000
00000000
00000000
01000100
00000000
,
01000100
00000000
00000000
00000000
00000000
00000000
00000000
00000000
01000000
00000000
00000000
00001000
00000000
00000000
01000000
00000000
,
10000000
00000000
00000000
01000000
00000000
00000000
00100000
00000000
0M010000
00000000
00000000
00000000
00000000
00000000
00011000
00000000
,
00011000
00000000
00000000
00000000
00000000
00000000
00000000
00000000
00001000
00000000
00000000
00000000
00000000
00000000
00010000
00000100
,
00000010
00000000
00000000
00000100
00000000
00000000
00010000
00000000
00M10000
00M00000
00M00010
00M00000
00M00010
00M00000
00M10010
00M00000
,
00M10010
00M00000
00M00000
00M00000
00M00000
00M00000
00M10000
00M00000
00M00010
00000000
00000000
00000000
00000000
00000000
00000000
00000000
,
00001000
00000000
00000000
00000001
00000000
00000000
00000100
00000000
00000000
00000000
00000000
00000000
00000000
00000000
00000000
00000000
,
00000000
00000000
00000000
00000101
00000101
00000002
00000200
00000020
,
M0002000
000M0000
00M00000
0M000000
M0000000
00M00000
0M000000
000M0000
M0003333
00000000
00000000
00000000
00000001
00000100
00000000
00000000
,
00000100
00000010
00000000
00000000
00000010
00010000
00000000
00000000
00010000
00000100
00000000
00000000
00000100
00010000
00000000
00000000
,
00010000
00100000
00000000
00000000
00100000
01000000
00000000
00000000
01000000
00010000
00000000
00000000
00010000
10000000
00000000
00000000
,
10000000
00010000
00000000
00000000
00010000
00100000
00000000
00000000
00100000
01000000
00000000
00000000
01000000
00010000
00000000
00000000
,
00010000
00000100
00000000
00000000
00000100
00010000
00000000
00000000
00010000
00001000
00000000
00000000
00001000
00000100
00000000
00000000
,
00000100
00000001
00000000
00000000
00000001
00010000
00000000
00000000
00010000
00000100
00000000
00000000
00000100
00000010
00000000
00000000
,
00000010
00001000
00000000
00000000
00001000
00010000
00000000
00000000
00010000
00100000
00000000
00000000
00100000
10000000
00000000
00000000
,
10000000
00010000
00000000
00000000
00010000
01000000
00000000
00000000
01000000
00001000
00000000
00000000
00001000
00100000
00000000
00000000
,
00100000
00001000
00000000
00000000
01000010
00000000
00000M00
00000M00
00000M20
00010000
00000030
00000000
00000100
00010000
00000000
00000000
,
00001000
01000000
00000000
00000000
00100100
00000000
00000000
00000000
00000100
00010000
00000000
00000000
00010000
01000000
00000000
00000000
,
01000000
00100000
00000000
00000000
00100100
00000000
00000000
00000000
00100000
00001000
00000000
00000000
10000000
00001000
00000000
00000000
,
M0010000
M0001000
M0000000
M0000000
M1000010
M0000000
M0000000
M0000000
M2000000
M0000010
M3000000
M0000010
M0010000
M0001000
M0010000
M0000000
,
M0022000
00000000
00033000
00000000
00100100
00000000
00000000
00000000
00000100
00010000
00000000
00000000
00010000
00001000
00000000
00000000
,
00002000
01000000
00003000
00000000
01000000
00001000
00000000
00000000
01000010
00000000
01000000
00000010
00010000
00001000
00010000
00000000
,
00020200
00030300
00000000
00000000
00000100
00010000
00000000
00000000
00001000
00100000
00000000
00000000
00000010
00010000
00000000
00000000
,
00001000
01000000
00000000
00000000
00100010
00000000
00000000
00000000
00100100
00000000
00000000
01000010
00000000
00000000
00011000
00000000
,
M200020M
00000000
03000300
00000000
00000100
00010000
00000000
00000000
00101000
00000000
00000000
00000000
00001000
01000000
00000000
00000000
,
00001000
00010000
00000000
00000000
02000020
00000000
03000030
00000000
00000010
00010000
00000000
00000000
00100000
00010000
00000000
00000000
,
0000100M
0001000M
0000000M
0000000M
0010010M
0000000M
0000000M
0000000M
0000010M
0000100M
0000000M
0000000M
0000100M
0000001M
0000000M
0000000M
,
0000001M
0001000M
0000000M
0000000M
0100001M
0000000M
0000000M
0000000M
0200000M
00001000
03000000
00000000
00010000
00000000
00011000
00000000
,
00200020
00000000
00300030
00000000
00101000
00000000
00000000
00000000
02200000
00000000
03300000
00000000
00100000
00010000
00000000
00000000
,
02000000
00001000
03000000
00000000
10000100
00000000
00000000
00000000
200M0000
000M1000
30000000
00000000
00100000
00001000
00000000
00000000
,
00020000
00000010
00030000
00000000
01000001
00000000
00000000
00000000
01000000
00000010
00000000
00000000
00000010
00100000
00000000
00000000
,
00100000
00001000
00000000
00000000
00001000
01000000
00000000
00000000
01001000
00000000
00000000
00100100
00000000
00000000
00011000
00000000
,
M2002000
M0000000
00000000
00000000
10100000
00000000
00000000
03003000
M1001000
M0000000
00000000
01000100
00000000
00000000
00011000
00000000
,
0002020M
0000000M
00000000
00000000
00000011
00000000
00000000
00030300
0001010M
0000000M
00000000
00101000
00000000
00000000
00011000
00000000
,
02M00200
00M00000
00000000
00000000
00100010
00000000
00000000
03000300
01M00100
00M00000
00000000
00011000
00000000
00000000
00001010
00000000
,
0M000220
0M000000
00000000
00000000
01100000
00000000
00000000
00000330
0M000110
0M000000
00000000
00001010
00000000
00000000
00010100
00000000
,
M0011000
M0000000
00001000
00010000
00001000
00000000
00101000
00000000
0010100M
0000000M
00100000
00010000
00100000
00000000
01100000
00000000
,
M1100000
M0000000
01000000
10000000
01000000
00000000
11000000
00000000
0100000M
0010000M
00000000
00100000
00010000
00100000
00010000
00000000
,
M0110000
M0000000
00100000
00001000
00100000
00001000
00010000
00001000
0001000M
0000000M
00010100
00000000
00000100
00001000
00000100
00000000
,
M0000110
M0000000
00000010
00000001
00000010
00000000
00000011
00000000
0000101M
0000000M
00000000
00010010
00000000
00000000
00000010
00010000
,
M0000010
M0000000
00010010
00000000
00100010
00000000
00100000
00000010
0010000M
0000001M
00010000
00001000
00010000
00000000
00011000
00000000
,
M1010000
M0000000
00010000
10000000
00100000
00000000
10100000
00000000
0101000M
0000000M
01000000
00010000
00100000
00010000
00100000
00000000
,
M0110000
M0000000
00010000
00100000
00010000
00100000
00010000
00000000
0010100M
0000000M
00100000
00001000
00010000
00000000
00010100
00000000
,
M0001001
M0000000
00000001
00000100
00001000
00000100
00000010
00010000
0000020M
0000030M
00100100
00000000
00010100
00000000
01001000
00000000
,
01000010
00000000
00000000
00000000
00000000
00000000
00000000
01000000
00000000
00000000
00001000
00000000
00000000
00010000
00000000
00000000
,
01000000
00000000
00000000
00100000
00000000
00000000
00010000
00000000
00010000
00000000
00000000
02000000
00000000
00000000
00100000
00000000
,
00200000
00000000
00000000
00000000
,
00000000
00000000
00000000
00000000
00000000
00000000
00020000
20030000
,
30002000
00000000
00000000
20000000
30020000
00003000
03300000
00000000
,
00000000
00000000
00000000
00200000
,
00300000
00000000
00100000
01000000
00100000
10000000
00001000
00100000
00000010
00100000
00001000
10000000
,
10000000
00000000
00000000
00000000
00001000
00000000
00000000
00000000
10000000
00000000
00000000
00000000
00000000
00000000
00000000
00000000
00000000
00000000
00000000
00000000
00000000
00000000
00000000
00000000
00000000
00000000
00000000
00000000
00000000
00000000
00000000
00000000
00000000
00000000
00000000
00000000
00030000
00000000
00000000
00000000
00000000
00000000
00200000
00000000
00000000
02300000
00000000
00000000
,
03200000
00000000
00000000
02300000
03200000
00000000
00000000
00000000
00000000
00000000
00000000
00000000
M0000000
M0000000
M0000000
M0000000
,
M0000000
M0000000
M0000000
M0000000
M0000000
M0000000
M0000000
M0000000
M0000000
M0000000
M0000000
M0000000
00300000
00000000
00000000
00000000
,
02200000
03300000
01000000
10000000
01000000
00000000
02000000
03100000
02000000
03000000
01000000
00010000
02000000
03000000
01010000
00000000
,
02002000
03003000
00001000
01000000
00001000
00000000
00001000
10000000
00001000
00000000
00001000
00100000
00001000
00000000
00101000
00000000
,
00022000
00033000
00010000
00001000
00010000
00000000
00020000
00030010
00020000
00030000
00010000
00000001
00020000
00030000
00010001
00000000
,
00020200
00030300
00000100
00010000
00000100
00000000
00000100
00001000
00000100
00000000
00000100
00000010
00000100
00000000
00000110
00000000
,
00000022
00000033
00000001
00000010
00000001
00000000
00000020
00000130
00000020
00000030
00000100
00001000
00000200
00000300
00001100
00000000
,
00020200
00030300
00010000
00001000
00010000
00000000
00001000
00100000
00001000
00000000
00100000
01000000
00100000
00000000
01100000
00000000
,
00220000
00330000
00010000
00100000
00020000
00030000
00100000
01000000
00200000
00300000
01000000
10000000
02000000
03000000
22000000
33000000
,
02200000
03300000
00100000
10000000
00100000
00000000
00100000
01000000
00100000
00000000
00100000
00010000
00100000
00000000
00110000
00000000
,
0011000M
00000000
00000000
000000M0
00000000
00000000
0000000M
00000000
00000000
000000M0
00000000
00000000
0001000M
00000000
00000000
000000M0
00100000
00000000
0000000M
00000000
00010000
000000M0
00000000
00000000
0010000M
00000000
00000000
000100M0
00000000
00000000
0010000M
00000000
00000000
000100M0
00000000
00000000
00100000
00000000
00000000
00000000
00010000
00000000
00000000
00000000
00100000
00000000
00000000
00000000
,
00010000
00000000
00000000
00000000
00100000
00000000
0M000000
0M001000
0M000000
0M000000
00000010
00000000
00000000
00000000
00000000
00000000
,
00000002
00000000
00000000
00000000
00000000
00000000
00002003
00003002
00002003
00003000
00000001
00000100
00000001
00000000
00M00200
00001300
,
00000200
00000300
00001000
00010000
00001000
00000000
00011000
00000000
00011000
00000000
00010000
01000000
00010000
00000000
01000000
10000000
,
02000000
03000000
10000000
00200000
10300000
00000000
00200000
00310000
00200000
00300000
00010000
00002000
00013000
00000000
00002000
00003010
,
M0002000
00003000
00000010
00000001
00000010
00000000
00000011
00000000
00000011
00000000
00000001
00000010
00000001
00000000
00000010
00001000
,
00000020
00000030
00001000
00020000
00031000
00000000
00020000
00032000
00023000
00030000
00001000
00000200
00001300
00000000
00000200
M0000301
,
M0000200
00000300
00000002
00001003
00000002
00000003
00002002
00003003
00002002
00003003
00001000
00000100
00001000
00000000
00000200
00010300
,
00000200
00000300
00010000
01000000
00010000
00000000
01000000
00100000
02000000
03000000
00100000
00020000
00130000
00000000
00020000
01030000
,
00020000
00030000
01000000
10000000
01000000
00000000
10000000
00010000
10000000
00000000
00010000
00100000
00020000
00030000
0020000M
0130000M
,
0020000M
00300000
01000000
00010000
01000000
00000000
00020000
00230000
00320000
00030000
00100000
00002000
00103000
00000000
00002000
00003010
,
00002000
00003000
00000010
00000100
00000010
00000000
00000110
00000000
00000110
00000000
00000100
00001000
00000001
00000000
00010000
00000100
,
02000000
03000000
00001000
02000000
03100000
00000000
02000000
03100000
20000000
30000000
00100000
20000000
30010000
00000000
20000000
31000000
,
0002000M
00030000
01000000
00010000
00001000
00000000
00011000
00000000
00011000
00000000
00010000
00000100
00010000
00000000
00000100
00000010
,
00000100
00000000
00000000
00000010
00000000
00000000
00000100
00001000
00000001
00000000
00000000
00000100
00000000
00000000
00000010
00000000
,
000M0010
000M0000
000M1000
000M0000
000M1000
000M0000
000M1010
000M0000
000M1010
000M0000
000M0000
000M0000
000M0000
000M0000
000M0010
000M0000
,
001M0000
00000000
00000000
00000000
00000000
00000000
00000000
00000000
00001000
00000000
00000000
01000000
00000000
00000000
00000100
00000000
,
00100000
00000000
00000000
00000000
00000000
0M000000
00000000
01000010
,
M0100100
0000000M
000M0000
0000M000
00MM0000
M0000M00
0M00M000
M000000M
00MM0000
00000MM0
MM000000
0000M00M
00MM0000
00000MM0
0M00M000
M000000M
,
0000MM00
00000000
00000000
00000000
;

//---------------dance-double - Kyzentun----------------
#NOTES:
     dance-double:
     Kyzentun:
     Medium:
     10:
     0.736,0.881,0.484,0.924,0.530,935.000,121.000,231.000,298.000,29.000,0.000,0.736,0.881,0.484,0.924,0.530,935.000,121.000,231.000,298.000,29.000,0.000:
0M000000
00000000
00000000
000000M0
00000000
00000000
00M00000
00000000
00000000
00000M00
00000000
00000000
0M000000
00000000
00000000
000000M0
00000000
00000000
M0000000
00000000
00000000
0000000M
00000000
00000000
00000000
00000000
00000000
00000000
00000000
00000000
00000000
00000000
0M000000
00000000
00000000
00000000
M0000000
00000000
00000000
00000000
0M000000
00000000
00000000
00000000
M0000000
00000000
00000000
00000000
,
0M000000
00000000
00000000
00M00000
00000000
00000000
0M000000
00000000
00000000
00M00000
00000000
00000000
0M000000
00000000
00000000
00000000
M0000000
00000000
00000000
00000000
0M000000
00000000
00000000
00000000
M0000000
00000000
00000000
00000000
00000000
00000000
00000000
00000000
00000000
00000000
00000000
00000000
00000000
00000000
00000000
00000000
00000000
00000000
00000000
00000000
00000000
00000000
00000000
00000000
,
00000000
00000000
00000000
00000000
,
00000000
00000000
00000000
00000000
00000000
00000000
00000000
00000000
00000020
00000000
00010030
00000000
00010000
00000000
00000010
00001000
,
00000020
00010030
00010000
00000100
00010000
01000000
10000000
10000000
,
20000000
30000000
00100000
00100000
00200000
00300000
01000000
00001000
,
00002000
00013000
00010000
00001000
00000100
00000010
00001000
00000001
,
00000001
00000000
00000010
00000000
00000100
00000000
00001000
00000000
00000010
00001000
00000010
00000000
00020000
00031000
00010000
00000000
,
00022000
00033000
00001000
00000000
01000000
00000000
00100000
00000000
10000000
00000000
00100000
00000000
01000000
00000000
01000000
00000000
,
02000000
00000000
03010000
00000000
00100000
00000000
00001000
00000000
00000020
00000000
00000130
00000000
00002000
00003000
00001000
00000000
,
00002000
00003001
00000100
00000010
00000001
00000010
00000100
00000100
,
00000101
00000000
00010010
00000000
01001000
00000000
20002000
30003000
,
00002000
01003000
00001000
00100000
01000000
10000000
01000000
01000000
,
02000000
03100000
00000000
00000000
01000000
00000000
00010000
00000000
00000200
00000000
00000310
00000000
00000002
00000003
00000001
00000000
,
00000002
00000103
00000000
00000000
00000010
00000000
00001000
00000000
00010000
00000000
01000000
00000000
00100000
00000000
10000000
00000000
,
00100000
01000000
00100000
00000000
01000000
00010000
01000000
00000000
00002000
00103000
00001000
00100000
00001000
00100000
00001000
00100000
,
00002000
00003000
00001000
00000000
00000000
00000000
00001000
00000000
00020000
00000000
00001000
00000000
00000000
00000000
00001000
00000000
,
00000000
00001000
00000000
00001000
00000000
00001000
00000000
00001000
,
00002000
00003000
00001000
00000000
00001000
00000000
00001000
00030000
00020000
00030000
00010000
00000000
00020000
00030000
00010000
00000000
,
00000200
00000300
00000100
00000000
00000100
00000000
00000100
00000000
00000010
00000000
00000010
00000000
00000010
00000000
00000010
00000000
,
00001000
00001000
00001000
00001000
00010000
00010000
00010000
00010000
,
02000000
03000000
01000000
00000000
01000000
00000000
01000000
00000000
00200000
00300000
00100000
00000000
00200000
00300000
00100000
00000000
,
00010000
01000000
00010000
01000000
00200000
00310000
00100000
00010000
,
00002000
00003100
00001000
00000100
00000001
00001000
00000001
00001000
,
00000100
00000010
00000100
00000010
00020000
00130000
00010000
00100000
,
20000000
30010000
10000000
00010000
02000000
13000000
02000000
13000000
,
00020000
01030000
00100000
01000000
00010000
00000010
00000100
00010000
,
01000000
00000000
10000000
00000000
00100000
00000000
00010000
00000000
00000100
00000000
00000010
00000000
00000001
00000010
00000001
00000020
,
M00M0002
0M000000
00M00000
M00M0000
0M000000
00M00000
M00M0000
0M000000
00M00000
M00M0000
0M000000
00M00000
M00M0000
0M000000
00M00000
M00M0000
,
0M000000
00M00000
M00M0000
0M000000
00M00000
M00M0000
0M000000
00M00000
M00M0000
0M000000
00M00000
M00M0000
0M000000
00M00000
M00M0000
0M000000
,
00M00033
00000000
00000000
00000000
00000022
00000000
00000000
00000030
00000023
00000030
00000001
00000000
00001000
00000000
00000010
00000000
,
00000100
00000000
00001000
00000000
00010000
00000000
00001000
00000000
00000020
00000030
00000100
00000000
00001000
00000000
00000010
00000000
,
00001000
00000000
00010000
00000000
02000000
03000000
20000000
30000000
00020000
00030000
00100000
00000000
01000000
00000000
00010000
00000000
,
00001000
00000010
00000001
00010000
00001000
00000010
00010000
00001000
,
00000010
00000000
00000000
00000000
00000000
00000000
00000001
00000000
00000000
00000000
00000000
00000000
00000200
00000000
00000000
00000300
00000000
00000000
00002000
00000000
00000000
00003000
00000000
00000000
00020000
00000000
00000000
00030000
00000000
00000000
00100000
00000000
00000000
00000000
00000000
00000000
10000000
00000000
00000000
00000000
00000000
00000000
00020000
00000000
02030000
00000000
03020000
00000000
,
02030000
03000000
00000000
00100000
00000000
00000000
00010000
00000000
00000000
00001000
00000000
00000000
00000010
00000000
00000000
00000001
00000000
00000000
00010000
00000000
00000000
00000010
00000000
00000000
,
00010000
00000000
00100000
00000000
00020000
00030000
00001000
00000000
00020000
00030000
01000000
00000000
10000000
00000000
00001000
00000000
,
01000000
00000000
00001000
00000000
00000100
00000000
00001000
00000000
00020000
00030000
00001000
00000000
00000010
00000000
00000001
00000000
,
00000010
00000000
00000100
00000000
00020000
00030000
00200000
00300000
02000000
03000000
00001000
00000000
00020000
00030200
00020300
00030200
,
00020300
00030000
00000100
00000000
00000001
00000000
00000100
00000000
00010000
00000000
01000000
00000000
10000000
00000000
00010000
00000000
,
00000100
00000000
00010000
00000000
02000000
03000000
00002000
00003000
02002000
03003000
01000000
00000000
00000100
00000000
00020000
00030000
,
00020200
00030300
00000100
00000000
01000000
00000000
00010000
00000000
10000000
00000000
00100000
00000000
00010000
00000000
00000100
00000000
,
00000010
00000000
00000100
00000000
00001000
00000000
00000001
00000000
00000202
00000303
00000100
00000000
00001000
00000000
00020000
00030000
,
00200000
00300000
10000000
00000000
02000000
03000000
11000000
00000000
22000000
33000000
10000000
00000000
00100000
00000000
00010000
00000000
,
00001000
00000000
00000010
00000000
00000001
00000000
00000101
00000000
00000202
00000303
00000100
00000000
00001000
00000000
00020000
00030000
,
00002000
00003000
00000010
00000000
00000200
00000300
00000110
00000000
00000220
00000330
00000010
00000000
00001000
00000000
00010000
00000000
,
01000000
00000000
10000000
00000000
00200000
00300000
10100000
00000000
20200000
30300000
10000000
00000000
00100000
00000000
00020000
00030000
,
00002000
00003000
00010000
00000000
02000000
03000000
01010000
00000000
02020000
03030000
00010000
00000000
00001000
00000000
00000100
00000000
,
00000001
00000000
00000100
00000000
00001000
00000000
00001100
00000000
00002200
00003300
00000100
00000000
00001000
00000000
00020000
00030000
,
00000020
00000030
00010000
00000000
00002000
00003000
00022000
00033000
00022000
00000000
00000000
00000000
00000000
00000000
00000000
00000000
,
00000000
00000000
00000000
00000000
00000000
00000000
00100010
00000000
00000010
00100000
00000010
00100000
00000010
00100000
00000010
00100000
,
00000010
00100000
00000010
00100000
00000010
00100000
00000010
00000000
00100010
00000000
00000000
00003000
00031000
00000000
00000M00
00000M00
,
00010M00
00000M00
00000000
00000000
00000010
00000000
00000000
00000000
00000200
00000000
00000000
00000000
00000000
00000000
00002300
00023000
,
00032000
00003000
00000000
00000010
00000000
00000000
0000M001
00000000
00000100
00000000
00000000
00000000
00000000
00000000
00000110
00000000
,
00000110
00000000
00000000
00000000
00000000
00000000
00000000
00000000
00000010
00000000
00000000
00010000
00000000
00000000
01000000
00000000
,
01000000
00000000
00000000
00100000
00000000
00000000
00010000
00000000
0001M000
00000000
00000000
00000000
00000000
00000000
10010000
00000000
,
10010000
00000000
00000000
00000000
00000000
00000000
00000000
00000000
10000000
00000000
00000000
00001000
00000000
00000000
00100000
00001000
,
00100000
00000000
00000000
00000100
00000000
00000000
000010M0
000000M0
00001000
00000000
00000100
00000000
00000100
00000000
00000011
00000000
,
00000011
00000000
00000000
00000001
00000001
00000000
00000000
00000000
,
00000010
00000000
00000000
00000100
00000000
00000000
00001000
00000000
00001000
00000000
00000000
00000000
00000000
00000000
00000000
00000000
,
00000000
00000000
00000000
00000000
00000100
00000000
000010M0
000000M0
010000M0
00000000
00000000
00000000
00000000
00000000
10000000
01000000
,
10000000
00000000
00000000
00001000
00000000
00000000
00100000
00000000
00001000
00000000
00000000
00000000
00000000
00000000
00101000
00000000
,
00101000
00000000
00000000
00000000
00000000
00000000
00000000
00000000
00000010
00000000
00000000
00010000
00000000
00000000
00000010
00000000
,
00000001
00000000
00000000
00000010
00000000
00000000
00000100
00000000
000010M0
00000000
00000000
00000000
00000000
00000000
00011000
00000000
,
00011000
00000000
00000000
00000000
00000000
00000000
00000000
00000000
00010000
00000000
00000000
00000000
00000000
00000000
00001000
00100000
,
00001000
00000000
00000000
00100000
00000000
00000000
00001000
00000000
00001M00
00000M00
01000M00
00000M00
01000M00
00000M00
01001M00
00000M00
,
01001M00
00000M00
00000M00
00000M00
00000M00
00000M00
00001M00
00000M00
01000M00
00000000
00000000
00000000
00000000
00000000
00000000
00000000
,
00010000
00000000
00000000
10000000
00000000
00000000
00100000
00000000
00000000
00000000
00000000
00000000
00000000
00000000
00000000
00000000
,
00000000
00000000
00000000
11000000
11000000
20000000
02000000
00200000
,
0002000M
0000M000
00000M00
000000M0
0000000M
00000M00
000000M0
0000M000
3333000M
00000000
00000000
00000000
10000000
00100000
00000000
00000000
,
00100000
01000000
00000000
00000000
01000000
00001000
00000000
00000000
00001000
00100000
00000000
00000000
00100000
00001000
00000000
00000000
,
00001000
00000100
00000000
00000000
00000100
00000010
00000000
00000000
00000010
00001000
00000000
00000000
00001000
00000001
00000000
00000000
,
00000001
00001000
00000000
00000000
00001000
00000100
00000000
00000000
00000100
00000010
00000000
00000000
00000010
00001000
00000000
00000000
,
00001000
00100000
00000000
00000000
00100000
00001000
00000000
00000000
00001000
00010000
00000000
00000000
00010000
00100000
00000000
00000000
,
00100000
10000000
00000000
00000000
10000000
00001000
00000000
00000000
00001000
00100000
00000000
00000000
00100000
01000000
00000000
00000000
,
01000000
00010000
00000000
00000000
00010000
00001000
00000000
00000000
00001000
00000100
00000000
00000000
00000100
00000001
00000000
00000000
,
00000001
00001000
00000000
00000000
00001000
00000010
00000000
00000000
00000010
00010000
00000000
00000000
00010000
00000100
00000000
00000000
,
00000100
00010000
00000000
00000000
00010010
00000000
00000M00
00000M00
00000M20
00010000
00000030
00000000
00010000
00001000
00000000
00000000
,
00001000
01000000
00000000
00000000
01100000
00000000
00000000
00000000
00100000
00010000
00000000
00000000
00010000
00001000
00000000
00000000
,
00001000
00100000
00000000
00000000
01100000
00000000
00000000
00000000
01000000
10000000
00000000
00000000
10000000
00001000
00000000
00000000
,
0000100M
0100000M
0000000M
0000000M
0110000M
0000000M
0000000M
0000000M
0020000M
1000000M
0030000M
1000000M
0010000M
0100000M
0010000M
0000000M
,
0220000M
00000000
03300000
00000000
00110000
00000000
00000000
00000000
00010000
00001000
00000000
00000000
00001000
00000100
00000000
00000000
,
00000200
00000001
00000300
00000000
00000001
00000100
00000000
00000000
00000110
00000000
00000100
00000010
00000100
00000010
00000100
00000000
,
00000220
00000330
00000000
00000000
00000010
00010000
00000000
00000000
00010000
01000000
00000000
00000000
01000000
10000000
00000000
00000000
,
10000000
01000000
00000000
00000000
00110000
00000000
00000000
00000000
00101000
00000000
00000000
00010100
00000000
00000000
00001010
00000000
,
M000202M
00000000
00003030
00000000
00000010
00000100
00000000
00000000
00000101
00000000
00000000
00000000
00000001
00000010
00000000
00000000
,
00000010
00001000
00000000
00000000
00022000
00000000
00033000
00000000
00001000
00000100
00000000
00000000
00000100
00000001
00000000
00000000
,
M0000001
M0000100
M0000000
M0000000
M0001100
M0000000
M0000000
M0000000
M0001000
M0010000
M0000000
M0000000
M0010000
M1000000
M0000000
M0000000
,
M1000000
M0100000
M0000000
M0000000
M0110000
M0000000
M0000000
M0000000
M0020000
01000000
00030000
00000000
01000000
00000000
01100000
00000000
,
02200000
00000000
03300000
00000000
00110000
00000000
00000000
00000000
00022000
00000000
00033000
00000000
00010000
01000000
00000000
00000000
,
02000000
10000000
03000000
00000000
10001000
00000000
00000000
00000000
000M2000
001M0000
00003000
00000000
00100000
00001000
00000000
00000000
,
00002000
00000010
00003000
00000000
00000011
00000000
00000000
00000000
00000001
00000100
00000000
00000000
00000100
00010000
00000000
00000000
,
00010000
00100000
00000000
00000000
00100000
01000000
00000000
00000000
01100000
00000000
00000000
00110000
00000000
00000000
00011000
00000000
,
0002020M
0000000M
00000000
00000000
00000011
00000000
00000000
00030300
0001010M
0000000M
00000000
01000100
00000000
00000000
00011000
00000000
,
M2002000
M0000000
00000000
00000000
10100000
00000000
00000000
03003000
M1001000
M0000000
00000000
00010100
00000000
00000000
00011000
00000000
,
020002M0
000000M0
00000000
00000000
00100010
00000000
00000000
03000300
010001M0
000000M0
00000000
00011000
00000000
00000000
00110000
00000000
,
022000M0
000000M0
00000000
00000000
00000110
00000000
00000000
03300000
011000M0
000000M0
00000000
00110000
00000000
00000000
00101000
00000000
,
M0011000
M0000000
00010000
00000000
00100000
00000000
10000000
00000000
0100000M
0000000M
00000010
00000000
00000001
00000000
00000010
00000000
,
M0000100
M0000000
01000000
00000000
00100000
00000000
10000000
00000000
0010000M
0100000M
00000000
01000000
00000100
00000000
00000010
00000000
,
M0000001
M0000000
00000100
00000000
00100000
00000000
10000000
00000000
0010000M
0000000M
01000000
00000000
10000000
00000000
01000000
00000000
,
M0100000
M0000000
00000100
00000000
00000001
00000000
00000100
00000000
0000001M
0000000M
01000000
00000000
10000000
00000000
01000000
00000000
,
M0100000
M0000000
10000000
00000000
01000000
00000000
00100000
00000000
0000001M
0000000M
00000100
00000000
00000001
00000000
00000100
00000000
,
M0000010
M0000000
00100000
00000000
01000000
00000000
10000000
00000000
0010000M
0000000M
01000000
00000000
00000100
00000000
00000001
00000000
,
M0000100
M0000000
01000000
00000000
10000000
00000000
01000000
00000000
0010000M
0000000M
10000000
00000000
01000000
00000000
00100000
00000000
,
M0000100
M0000000
00000010
00000000
00000001
00000000
00000100
00000000
0000002M
0000003M
00001010
00000000
00011000
00000000
01001000
00000000
,
01100000
00000000
00000000
00000000
00000000
00000000
00000000
01000000
00000000
00000000
00001000
00000000
00000000
00010000
00000000
00000000
,
01000000
00000000
00000000
00100000
00000000
00000000
00010000
00000000
00010000
00000000
00000000
02000000
00000000
00000000
00100000
00000000
,
00200000
00000000
00000000
00000000
,
00000000
00000000
00000000
00000000
00000000
00000000
00020000
20030000
,
30002000
00000000
00000000
20003000
30020000
00000000
03300000
00000000
,
00000000
00000000
00030000
00200000
,
00300000
00000000
00100000
01000000
00100000
10000000
00001000
00100000
00000010
00100000
00001000
10000000
,
10000000
00000000
00000000
00000000
00001000
00000000
00000000
00000000
10000000
00000000
00000000
00000000
00000000
00000000
00000000
00000000
00000000
00000000
00000000
00000000
00000000
00000000
00000000
00000000
00000000
00000000
00000000
00000000
00000000
00000000
00000000
00000000
00000000
00000000
00000000
00000000
00000000
00000000
00000000
00000000
00000000
00000000
00200000
00000000
00000000
02300000
00000000
00000000
,
03200000
00000000
00000000
02300000
03200000
00000000
00000000
00000000
00000000
00000000
00000000
00000000
M0000000
M0000000
M0000000
M0000000
,
M0000000
M0000000
M0000000
M0000000
M0000000
M0000000
M0000000
M0000000
M0000000
M0000000
M0000000
M0000000
00300000
00000000
00000000
00000000
,
02200000
03300000
01000000
00000000
00010000
00000000
20000000
30000000
02000000
03000000
00100000
00000000
00020000
00030000
00110000
00000000
,
00220000
00330000
00100000
00000000
01000000
00000000
00010000
00000000
00001000
00000000
00000100
00000000
00000001
00000000
00000101
00000000
,
00000202
00000303
00000100
00000000
00000010
00000000
00020000
00030000
00000200
00000300
01000000
00000000
00020000
00030000
01010000
00000000
,
02020000
03030000
01000000
00000000
00100000
00000000
00010000
00000000
00000010
00000000
00000001
00000000
00000010
00000000
00000110
00000000
,
00000220
00000330
00000100
00000000
00000001
00000000
00002000
00003000
00020000
00030000
10000000
00000000
02000000
03000000
11000000
00000000
,
22000000
33000000
10000000
00000000
01000000
00000000
00010000
00000000
00000010
00000000
00000001
00000000
00000010
00000000
00000011
00000000
,
00000022
00000033
00000001
00000000
00000020
00000030
00001000
00000000
02000000
03000000
10000000
00000000
00200000
00300000
20200000
30300000
,
20200000
30300000
10000000
00000000
00010000
00000000
00001000
00000000
00000001
00000000
00000100
00000000
00001000
00000000
10010000
00000000
,
1001000M
00000000
00000000
000000M0
00000000
00000000
0000000M
00000000
00000000
000000M0
00000000
00000000
00M0000M
00000000
00000000
000000M0
0M000000
00000000
0000000M
00000000
00M00000
000000M0
00000000
00000000
0M00000M
00000000
00000000
00M000M0
00000000
00000000
0M00000M
00000000
00000000
00M000M0
00000000
00000000
0M000000
00000000
00000000
00000000
00M00000
00000000
00000000
00000000
0M000000
00000000
00000000
00000000
,
00M00000
00000000
00000000
00000000
10000000
00000000
0M000000
0M100000
0M000000
0M000000
00010000
00000000
00000000
00000000
00000000
00000000
,
00002000
00000000
00000000
00000000
00000000
00000000
00023000
02030000
03020000
00030000
01000000
00000000
10000000
00000000
00M20000
00030000
,
00020000
00030000
01000000
00000000
00100000
00000000
01100000
00000000
01100000
00000000
01000000
00000000
00100000
00000000
00010000
00000000
,
00002000
00003000
00000100
00000002
00000103
00000000
00000020
00000030
00000020
00000030
00010000
00002000
00013000
00000000
00000200
00000300
,
M0000200
00000300
00000010
00000000
00000001
00000000
00000011
00000000
00000011
00000000
00000010
00000000
00001000
00000000
00010000
00000000
,
00200000
00300000
01000000
00200000
01300000
00000000
00020000
20030000
30020000
00030000
00100000
02000000
03100000
00000000
00002000
M0003000
,
M0002000
00003000
00000020
00000030
00000020
00000030
00000220
00000330
00000220
00000330
00000100
00000000
00001000
00000000
00000020
00000030
,
00000020
00000030
00001000
00000000
00010000
00000000
01000000
00000000
20000000
30000000
01000000
00200000
01300000
00000000
00020000
00030000
,
00020000
00030000
10000000
00000000
01000000
00000000
00001000
00000000
00000100
00000000
01000000
00000000
00200000
00300000
0020000M
0030000M
,
0020000M
00300000
00010000
00000000
00001000
00000000
00000020
00000230
00000320
00000030
00000001
00002000
00003001
00000000
00000200
00000300
,
00000200
00000300
00000010
00000000
00001000
00000000
00001010
00000000
00001010
00000000
00000010
00000000
00010000
00000000
01000000
00000000
,
20000000
30000000
00100000
02000000
03100000
00000000
00020000
00030000
00020000
00030000
00001000
00020000
00031000
00000000
00000200
00000300
,
0000020M
00000300
00000001
00000000
00001000
00000000
00001001
00000000
00001001
00000000
00000001
00000000
00000010
00000000
00001000
00000000
,
01000000
00000000
00000000
10000000
00000000
00000000
01000000
00010000
01000000
00000000
00000000
00000100
00000000
00000000
00000010
00000000
,
000M0010
000M0000
000M0001
000M0000
000M0001
000M0000
000M0101
000M0000
000M0101
000M0000
000M0000
000M0000
000M0000
000M0000
000M0010
000M0000
,
000M0010
00000000
00000000
00000000
00000000
00000000
00000000
00000000
01000000
00000000
00000000
00001000
00000000
00000000
00000100
00000000
,
00000100
00000000
00000000
00000000
00000000
0M000000
00000000
00000220
,
M0011000
0000000M
0M000330
0000M000
00MM0000
M000000M
0M00M000
M000000M
00MM0000
00000MM0
MM000000
0000M00M
00MM0000
00000MM0
0M00M000
M000000M
,
0000MM00
00000000
00000000
00000000
;

//---------------dance-double - Kyentun----------------
#NOTES:
     dance-double:
     Kyzentun:
     Easy:
     9:
     0.665,0.796,0.372,0.868,0.480,854.000,93.000,217.000,319.000,15.000,2.000,0.665,0.796,0.372,0.868,0.480,854.000,93.000,217.000,319.000,15.000,2.000: // measure 0
0M000000
00000000
00000000
000000M0
00000000
00000000
00M00000
00000000
00000000
00000M00
00000000
00000000
0M000000
00000000
00000000
000000M0
00000000
00000000
M0000000
00000000
00000000
0000000M
00000000
00000000
00000000
00000000
00000000
00000000
00000000
00000000
00000000
00000000
0M000000
00000000
00000000
00000000
M0000000
00000000
00000000
00000000
0M000000
00000000
00000000
00000000
M0000000
00000000
00000000
00000000
,  // measure 1
0M000000
00000000
00000000
00M00000
00000000
00000000
0M000000
00000000
00000000
00M00000
00000000
00000000
0M000000
00000000
00000000
00000000
M0000000
00000000
00000000
00000000
0M000000
00000000
00000000
00000000
M0000000
00000000
00000000
00000000
00000000
00000000
00000000
00000000
00000000
00000000
00000000
00000000
00000000
00000000
00000000
00000000
00000000
00000000
00000000
00000000
00000000
00000000
00000000
00000000
,  // measure 2
00000000
00000000
00000000
00000000
,  // measure 3
00000000
00000000
00000000
00000000
02000000
03010000
10000000
00100000
,  // measure 4
00020000
00031000
00010000
01000000
00010000
01000000
10000000
10000000
,  // measure 5
20000000
30000000
00100000
00100000
00200000
00300000
01000000
01000000
,  // measure 6
00002000
00003000
00001000
00000000
00010000
00000000
00010000
00000000
00000100
00000000
00000010
00000000
00000001
00000000
00001000
00000000
,  // measure 7
00000010
00000010
00001000
00001000
00001100
00000000
00022000
00033000
,  // measure 8
00002000
00003000
01000000
00000000
00100000
00000000
10000000
10000000
,  // measure 9
20000000
00000000
30000000
00000000
01000000
00000000
00000000
00000000
00020000
00000000
00030000
00000000
00002000
00003000
00001000
00000000
,  // measure 10
00002000
00003000
00000100
00000000
00000001
00000000
00001000
00000000
,  // measure 11
00020200
00000000
00000011
00000000
00001010
00000000
00200020
00330330
,  // measure 12
00000200
00000300
00000010
00000000
00001000
00000000
00010000
00010000
,  // measure 13
00020000
00000000
00030000
00000000
00100000
00000000
00000000
00000000
20000000
00000000
30000000
00000000
02000000
03000000
01000000
00000000
,  // measure 14
02000000
03000000
00010000
00000000
00001000
00000000
00000100
00000100
,  // measure 15
00000100
00000000
00000001
00000000
00002000
00003000
00000100
00000100
,  // measure 16
00000200
00010300
00000000
00010000
00002000
00010000
00000000
00010000
,  // measure 17
00000000
00010000
00000000
00010000
00000000
00010000
00000000
00010000
,  // measure 18
00020000
00030000
00010000
00000000
00010000
00000000
00013000
00000000
00002000
00003000
00001000
00000000
00002000
00003000
00001000
00000000
,  // measure 19
02000000
03000000
01000000
00000000
01000000
00000000
01000000
00000000
00100000
00000000
00100000
00000000
00100000
00000000
00100000
00000000
,  // measure 20
10000000
10000000
10000000
10000000
00010000
00010000
00010000
00010000
,  // measure 21
02000000
03000000
01000000
00000000
01000000
00000000
01000000
00000000
00200000
00300000
00100000
00000000
00200000
00300000
00100000
00000000
,  // measure 22
00010000
00000000
00010000
00000000
00001000
00000000
00001000
00000000
00000200
00000300
00000100
00000000
00000001
00000000
00000001
00000000
,  // measure 23
00002000
00003000
00001000
00000000
00000100
00000000
00000100
00000000
00000010
00000000
00000010
00000000
00001000
00000000
00001000
00000000
,  // measure 24
00010000
00000000
00010000
00000000
00100000
00000000
00100000
00000000
02000000
03000000
01000000
00000000
00010000
00000000
00010000
00000000
,  // measure 25
20000000
30000000
10000000
00000000
01000000
00000000
01000000
00000000
00200000
00300000
00100000
00000000
00002000
00003000
00001000
00000000
,  // measure 26
00000020
00000030
00000001
00000000
00000100
00000000
00000010
00000000
00001000
00000000
00010000
00000000
01000000
00000000
00100000
00000000
,  // measure 27
10000000
01000000
00100000
00010000
00001000
00000100
00000010
00000002
,  // measure 28
M00M02M0
0M00M000
00M00000
M00M00M0
0M00M000
00M00000
M00M00M0
0M00M000
00M00000
M00M00M0
0M00M000
00M00000
M00M00M0
0M00M000
00M00000
M00M00M0
,  // measure 29
0M00M000
00M00000
M00M00M0
0M00M000
00M00000
M00M00M0
0M00M000
00M00000
M00M00M0
0M00M000
00M00000
M00M00M0
0M00M000
00M00000
M00M00M0
0M00M000
,  // measure 30
00M00303
00000000
00002020
00003030
00000020
00000130
00001000
00010000
,  // measure 31
00001000
00000010
00000001
00000010
00002000
00013000
00001000
00010000
,  // measure 32
01000000
10000000
02000000
03020000
00032000
00013000
00100000
10000000
,  // measure 33
00010000
10000000
01000000
00010000
01000000
10000000
00100000
00010000
,  // measure 34
00100000
10000000
00020000
00230000
02300000
03010000
00001000
02000000
,  // measure 35
03002000
00003010
00000100
00001000
00000010
00000001
00000010
00000100
,  // measure 36
00001000
00010000
00002000
00003010
00000002
00000013
00000100
00010000
,  // measure 37
00001000
01000000
00100000
00010000
00200000
10300000
01000000
00010000
,  // measure 38
00001000
00000100
00000002
00002003
00003200
00001300
00000020
00002030
,  // measure 39
02003000
03100000
01000000
00100000
00010000
01000000
00010000
01000000
,  // measure 40
00100000
00000000
10000000
00000000
00200000
00300000
00200000
00300000
00200000
00000000
01300000
00000000
00001000
00000000
00020000
00030000
,  // measure 41
00020000
00030100
00000010
00000100
00001000
00000010
00001000
00000010
,  // measure 42
00000100
00000000
00000001
00000000
00000100
00000000
00000000
00000000
00002020
00000030
00003010
00000000
00001000
00000000
00000020
00000030
,  // measure 43
00000020
00000130
00000020
00001030
00000002
00000103
00001000
00010000
,  // measure 44
00100000
10000000
00010000
01000000
02000000
13000000
01000000
00020000
,  // measure 45
20030000
31000000
00020000
00031000
00002000
00013000
00000010
00000100
,  // measure 46
00000010
00000100
00000002
00001003
00002000
00003100
00100000
00020000
,  // measure 47
02030000
03001000
00200000
00310000
00020000
10030000
01000000
00010000
,  // measure 48
00001000
00000100
00000001
00000100
00000200
00001300
00010000
02000000
,  // measure 49
23000000
00000000
30100000
00000000
00020000
00000000
00032000
00003000
00002000
00000000
00003010
00000000
00000001
00000000
00000100
00000000
,  // measure 50
00001000
00000000
00000100
00000000
00000010
00000000
00001010
00000000
00000040
00004000
00000000
00000000
00000000
00000000
00000000
00000000
,  // measure 51
00000000
00000000
00000000
00000000
00000000
00003000
00000030
00000000
00001010
00000000
00000000
00000000
00001000
00000000
00000M00
00000M00
,  // measure 52
00000M01
00000M00
00000000
00000000
00000100
00000000
00000000
00000000
00002000
00000000
00000000
00000000
00000000
00000000
00023000
00032000
,  // measure 53
00023000
00030000
00000000
00100000
00000000
00000000
1000M000
00000000
10000000
00000000
00000000
00000000
00000000
00000000
10010000
00000000
,  // measure 54
10010000
00000000
00000000
00000000
00000000
00000000
00000000
00000000
00010000
00000000
00000000
01000000
00000000
00000000
00100000
00000000
,  // measure 55
00100000
00000000
00000000
00010000
00000000
00000000
00001000
00000000
0000100M
00000000
00000000
00000000
00000000
00000000
00011000
00000000
,  // measure 56
00011000
00000000
00000000
00000000
00000000
00000000
00000000
00000000
00010000
00000000
00000000
00000100
00000000
00000000
00001000
00000100
,  // measure 57
00001000
00000000
00000000
00000100
00000000
00000000
0M000010
0M000000
00000010
00000000
00000001
00000000
00000001
00000000
00001001
00000000
,  // measure 58
00001001
00000000
00000000
00001000
00001000
00000000
00000000
00000000
,  // measure 59
00000010
00000000
00000000
00001000
00000000
00000000
00100000
00000000
00100000
00000000
00000000
00000000
00000000
00000000
00000000
00000000
,  // measure 60
00000000
00000000
00000000
00000000
01000000
00000000
001000M0
000000M0
100000M0
00000000
00000000
00000000
00000000
00000000
00010000
01000000
,  // measure 61
00010000
00000000
00000000
01000000
00000000
00000000
00001000
00000000
00001000
00000000
00000000
00000000
00000000
00000000
00101000
00000000
,  // measure 62
00101000
00000000
00000000
00000000
00000000
00000000
00000000
00000000
00100000
00000000
00000000
00010000
00000000
00000000
00001000
00000000
,  // measure 63
00001000
00000000
00000000
00000100
00000000
00000000
00000010
00000000
M0000010
00000000
00000000
00000000
00000000
00000000
00000011
00000000
,  // measure 64
00000011
00000000
00000000
00000000
00000000
00000000
00000000
00000000
00000001
00000000
00000000
00000000
00000000
00000000
00000100
00000010
,  // measure 65
00000100
00000000
00000000
00001000
00000000
00000000
00010000
00000000
00010M00
00000M00
01000M00
00000M00
01000M00
00000M00
01100M00
00000M00
,  // measure 66
01100M00
00000M00
00000M00
00000M00
00000M00
00000M00
00100M00
00000M00
00100M00
00000000
00000000
00000000
00000000
00000000
00000000
00000000
,  // measure 67
00010000
00000000
00000000
10000000
00000000
00000000
00100000
00000000
00000000
00000000
00000000
00000000
00000000
00000000
00000000
00000000
,  // measure 68
00000000
00000000
00000000
10100000
10100000
20000000
00020000
00200000
,  // measure 69
0200000M
0000M000
00000M00
000000M0
0000000M
00000M00
000000M0
0000M000
3333000M
00000000
00000000
00000000
10000000
00010000
00000000
00000000
,  // measure 70
00010000
01000000
00000000
00000000
01000000
00100000
00000000
00000000
00100000
00010000
00000000
00000000
00010000
00001000
00000000
00000000
,  // measure 71
00001000
00000100
00000000
00000000
00000100
00000010
00000000
00000000
00000010
00001000
00000000
00000000
00001000
00000001
00000000
00000000
,  // measure 72
00000001
00001000
00000000
00000000
00001000
00000100
00000000
00000000
00000100
00000010
00000000
00000000
00000010
00001000
00000000
00000000
,  // measure 73
00001000
00010000
00000000
00000000
00010000
00001000
00000000
00000000
00001000
00010000
00000000
00000000
00010000
00100000
00000000
00000000
,  // measure 74
00100000
10000000
00000000
00000000
10000000
01000000
00000000
00000000
01000000
00100000
00000000
00000000
00100000
01000000
00000000
00000000
,  // measure 75
01000000
00010000
00000000
00000000
00010000
00001000
00000000
00000000
00001000
00000100
00000000
00000000
00000100
00000001
00000000
00000000
,  // measure 76
00000001
00001000
00000000
00000000
00001000
00000010
00000000
00000000
00000010
00010000
00000000
00000000
00010000
00000100
00000000
00000000
,  // measure 77
00000100
00010000
00000000
00000000
00011000
00000000
00000M00
00000M00
00002M00
00010000
00003000
00000000
00010000
00001000
00000000
00000000
,  // measure 78
00001000
01000000
00000000
00000000
01100000
00000000
00000000
00000000
00100000
10000000
00000000
00000000
10000000
01000000
00000000
00000000
,  // measure 79
01000000
00100000
00000000
00000000
01100000
00000000
00000000
00000000
01000000
10000000
00000000
00000000
10000000
00010000
00000000
00000000
,  // measure 80
0001000M
0100000M
0000000M
0000000M
0110000M
0000000M
0000000M
0000000M
0020000M
0001000M
0030000M
0000000M
0001000M
0000001M
0000000M
0000000M
,  // measure 81
0000002M
00001000
00000030
00000000
00001100
00000000
00000000
00000000
00000100
00000010
00000000
00000000
00000010
00000100
00000000
00000000
,  // measure 82
00000200
00000001
00000300
00000000
00000001
00000100
00000000
00000000
00000110
00000000
00000000
00000000
00000010
00000100
00000000
00000000
,  // measure 83
00002200
00000000
00003300
00000000
00001000
00000001
00000000
00000000
00000001
00000100
00000000
00000000
00000100
00001000
00000000
00000000
,  // measure 84
00001000
00010000
00000000
00000000
00011000
00000000
00000000
00000000
00101000
00000000
00000000
00010100
00000000
00000000
01010000
00000000
,  // measure 85
M202000M
00000000
03030000
00000000
01000000
00100000
00000000
00000000
10100000
00000000
00000000
00000000
10000000
00100000
00000000
00000000
,  // measure 86
00100000
00010000
00000000
00000000
00022000
00000000
00033000
00000000
00001000
00000100
00000000
00000000
00000100
00000001
00000000
00000000
,  // measure 87
M0000001
M0000100
M0000000
M0000000
M0000110
M0000000
M0000000
M0000000
M0000010
M0001000
M0000000
M0000000
M0001000
M0010000
M0000000
M0000000
,  // measure 88
M0010000
M1000000
M0000000
M0000000
M1010000
M0000000
M0000000
M0000000
M0020000
00100000
00030000
00000000
00000000
00000000
01100000
00000000
,  // measure 89
02200000
00000000
03300000
00000000
00110000
00000000
00000000
00000000
22000000
00000000
33000000
00000000
10000000
00010000
00000000
00000000
,  // measure 90
00020000
00000100
00030000
00000000
00000101
00000000
00000000
00000000
000M0002
000M1000
00000003
00000000
00001000
01000000
00000000
00000000
,  // measure 91
02000000
10000000
03000000
00000000
10010000
00000000
00000000
00000000
00010000
00100000
00000000
00000000
00100000
01000000
00000000
00000000
,  // measure 92
01000000
00010000
00000000
00000000
00010000
00001000
00000000
00000000
00011000
00000000
00000000
00110000
00000000
00000000
00010100
00000000
,  // measure 93
000202M0
000000M0
00000000
00000000
00000010
00000000
00000000
00030300
000101M0
000000M0
00000000
01000100
00000000
00000000
01001000
00000000
,  // measure 94
02M02000
00M00000
00000000
00000000
00100000
00000000
00000000
03003000
01M01000
00M00000
00000000
00010100
00000000
00000000
01000100
00000000
,  // measure 95
020002M0
000000M0
00000000
00000000
00000010
00000000
00000000
03000300
010001M0
000000M0
00000000
00011000
00000000
00000000
00110000
00000000
,  // measure 96
0220M000
0000M000
00000000
00000000
00001000
00000000
00000000
03300000
0110M000
0000M000
00000000
00110000
00000000
00000000
00101000
00000000
,  // measure 97
M0011000
M0000000
00010000
00000000
00100000
00000000
10000000
00000000
0100000M
0000000M
00010000
00000000
00001000
00000000
00000010
00000000
,  // measure 98
M0000100
M0000000
00001000
00000000
00000001
00000000
00000010
00000000
0000100M
0000000M
00010000
00000000
00100000
00000000
00010000
00000000
,  // measure 99
M0001000
M0000000
00000100
00000000
00001000
00000000
00010000
00000000
0100000M
0000000M
00100000
00000000
00001000
00000000
00100000
00000000
,  // measure 100
M1000000
M0000000
00010000
00000000
10000000
00000000
00100000
00000000
0001000M
0000000M
01000000
00000000
10000000
00000000
01000000
00000000
,  // measure 101
M0100000
M0000000
10000000
00000000
01000000
00000000
00001000
00000000
0001000M
0000000M
00000010
00000000
00000001
00000000
00000100
00000000
,  // measure 102
M0000010
M0000000
00000100
00000000
00001000
00000000
00010000
00000000
0000100M
0000000M
00000010
00000000
00000100
00000000
00000001
00000000
,  // measure 103
M0000100
M0000000
00010000
00000000
00000010
00000000
00001000
00000000
0000010M
0000000M
00010000
00000000
00000010
00000000
00000100
00000000
,  // measure 104
M0001000
M0000000
00100000
00000000
10000000
00000000
00100000
00000000
0200000M
0300000M
11000000
00000000
10010000
00000000
01010000
00000000
,  // measure 105
01100000
00000000
00000000
00000000
00000000
00000000
00000000
01000000
00000000
00000000
00001000
00000000
00000000
00010000
00000000
00000000
,  // measure 106
01000000
00000000
00000000
00100000
00000000
00000000
00010000
00000000
00010000
00000000
00000000
02000000
00000000
00000000
00100000
00000000
,  // measure 107
00200000
00000000
00000000
00000000
,  // measure 108
00000000
00000000
00000000
00000000
00000000
00000000
00020000
20030000
,  // measure 109
30002000
00000000
00000000
20003000
30020000
00000000
03300000
00000000
,  // measure 110
00000000
00000000
00030000
00200000
,  // measure 111
00300000
00000000
00100000
01000000
00100000
10000000
00001000
00100000
00000010
00100000
00001000
10000000
,  // measure 112
10000000
00000000
00000000
00000000
00001000
00000000
00000000
00000000
10000000
00000000
00000000
00000000
00000000
00000000
00000000
00000000
00000000
00000000
00000000
00000000
00000000
00000000
00000000
00000000
00000000
00000000
00000000
00000000
00000000
00000000
00000000
00000000
00000000
00000000
00000000
00000000
00000000
00000000
00000000
00000000
00000000
00000000
00200000
00000000
00000000
02300000
00000000
00000000
,  // measure 113
03200000
00000000
00000000
02300000
03200000
00000000
00000000
00000000
00000000
00000000
00000000
00000000
M0000000
M0000000
M0000000
M0000000
,  // measure 114
M0000000
M0000000
M0000000
M0000000
M0000000
M0000000
M0000000
M0000000
M0000000
M0000000
M0000000
M0000000
00300000
00000000
00000000
00000000
,  // measure 115
02200000
03300000
00100000
20000000
32000000
03100000
00020000
00130000
,  // measure 116
00220000
00330000
00010000
01000000
00100000
00010000
00001000
00000100
,  // measure 117
00000202
00000303
00000001
00000020
00002030
00013000
00002000
01003000
,  // measure 118
02020000
03030000
00010000
01000000
00100000
00010000
00001000
00000100
,  // measure 119
00000220
00000330
00000010
00002000
00023000
01030000
00200000
10300000
,  // measure 120
22000000
33000000
01000000
00010000
00001000
00000100
00000001
00001000
,  // measure 121
00002020
00000000
00003030
00000000
00000020
00000000
00001030
00000000
00020000
00000000
01030000
00000000
00200000
00000000
20300000
30000000
,  // measure 122
20020000
30030000
00010000
00000000
00100000
00000000
00010000
00000000
00001000
00000000
00010000
00000000
01000000
00000000
10010000
00000000
,  // measure 123
1001000M
00000000
00000000
000000M0
00000000
00000000
0000000M
00000000
00000000
000000M0
00000000
00000000
00M0000M
00000000
00000000
000000M0
0M000000
00000000
0000000M
00000000
00M00000
000000M0
00000000
00000000
0M00000M
00000000
00000000
00M000M0
00000000
00000000
0M00000M
00000000
00000000
00M000M0
00000000
00000000
0M000000
00000000
00000000
00000000
00M00000
00000000
00000000
00000000
0M000000
00000000
00000000
00000000
,  // measure 124
00M00000
00000000
00000000
00000000
00010000
00000000
0M000000
0M100000
0M000000
00000000
10000000
00000000
00000000
00000000
00000000
00000000
,  // measure 125
00200000
00000000
00000000
00000000
00000000
00000000
00320000
20030000
30020000
00030000
01000000
00000000
00001000
00000000
00M20000
00030000
,  // measure 126
00020000
00030000
00000100
00000000
00000010
00000000
00000110
00000000
00000110
00000000
00000000
00000000
00000100
00000000
00010000
00000000
,  // measure 127
00002000
00003000
00000000
00000200
00000300
00000000
00000020
00000030
00000020
00000030
00000000
00002000
00003000
00000000
00000200
00000300
,  // measure 128
M0000200
00000300
00000010
00000000
00000001
00000000
00000011
00000000
00000011
00000000
00000000
00000000
00000010
00000000
00001000
00000000
,  // measure 129
00020000
00030000
00000000
00200000
00300000
00000000
02000000
23000000
32000000
03000000
00000000
00200000
00300000
00000000
20000000
3000000M
,  // measure 130
2000000M
30000000
00020000
00030000
00020000
00030000
00220000
00330000
00220000
00330000
00000000
00000000
00100000
00000000
02000000
03000000
,  // measure 131
02000000
03000000
00010000
00000000
00001000
00000000
00000100
00000000
00000020
00000030
00000000
00020000
00030000
00000000
02000000
03000000
,  // measure 132
02000000
03000000
00100000
00000000
01000000
00000000
00100000
00000000
01000000
00000000
00100000
00000000
00020000
00030000
0002000M
0003000M
,  // measure 133
0002000M
00030000
01000000
00000000
10000000
00000000
02000000
03200000
02300000
03000000
00000000
00002000
00003000
00000000
00000200
00000300
,  // measure 134
00000200
00000300
00000010
00000000
00001000
00000000
00001010
00000000
00001010
00000000
00000000
00000000
00000010
00000000
00000100
00000000
,  // measure 135
00002000
00003000
00000000
00200000
00300000
00000000
20000000
30000000
20000000
30000000
00000000
00200000
00300000
00000000
00002000
00003000
,  // measure 136
0000200M
00003000
00010000
00000000
00000100
00000000
00010100
00000000
00010100
00000000
00000000
00000000
00010000
00000000
00001000
00000000
,  // measure 137
01000000
00000000
00000000
10000000
00000000
00000000
01000000
00010000
01000000
00000000
00000000
00000100
00000000
00000000
00000010
00000000
,  // measure 138
000M0010
000M0000
000M0001
000M0000
000M0001
000M0000
000M0101
000M0000
000M0101
000M0000
000M0000
000M0000
000M0000
000M0000
000M0010
000M0000
,  // measure 139
000M0010
00000000
00000000
00000000
00000000
00000000
00000000
00000000
01000000
00000000
00000000
00001000
00000000
00000000
00000100
00000000
,  // measure 140
00000100
00000000
00000000
00000000
00000000
0M000000
00000000
00000220
,  // measure 141
M0001000
0000000M
0M000330
0000M000
00MM0000
M000000M
0M00M000
M000000M
00MM0000
00000MM0
MM000000
0000M00M
00MM0000
00000MM0
0M00M000
M000000M
,  // measure 142
0000MM00
00000000
00000000
00000000
;

//---------------dance-double - Kyzentun----------------
#NOTES:
     dance-double:
     Kyzentun:
     Challenge:
     13:
     0.932,1.000,0.596,1.000,1.000,1218.000,149.000,263.000,308.000,130.000,0.000,0.932,1.000,0.596,1.000,1.000,1218.000,149.000,263.000,308.000,130.000,0.000:
0M000000
000000M0
00M00000
00000M00
0M000000
000000M0
M0000000
0000000M
00000000
00000000
M0000000
00000000
M0000000
00000000
M0000000
00000000
,
M0000000
0M000000
00M00000
0M000000
00M00000
0M000000
00M00000
00000000
00000000
00000000
00000000
00000000
00000000
00000000
00000000
00000000
,
00000000
00000000
00000000
00000000
,
00000000
00000000
00000000
00000000
00000000
00000000
00000000
00000000
00000020
00000000
00010030
00000000
00010000
00000000
00000010
00100000
,
00000020
00010030
00010000
00000010
00010000
01000000
10000000
10000000
,
22000000
33000000
01000000
00100000
00202000
00303000
00001000
00010000
,
00020200
00030300
00001100
00000000
00001001
00000000
00001000
00000000
00000100
00000000
00000010
00000000
00000001
00000000
00001001
00000000
,
00000011
00000000
00000010
00000000
00000100
00000000
00001000
00000000
00000010
00001000
00000010
00000000
00020000
00031000
00010000
00000000
,
00202000
00303000
00001000
00000000
01000000
00000000
00100000
00000000
10000000
00000000
00100000
00000000
01000000
00000000
01000000
00000000
,
02000000
00000000
03010000
00000000
00100000
00000000
00001000
00000000
00000020
00000000
00000130
00000000
00002000
00003000
00001000
00000000
,
00002000
00003001
00000100
00000010
01000000
00000010
00000100
00000100
,
00000110
00000000
00010001
00000000
00100100
00000000
20000020
30000030
,
00000020
01000030
00001000
00100000
01000000
10000000
01000000
01000000
,
02000000
03100000
00001000
00000000
01000000
00000000
00010000
00000000
00000200
00000000
00000301
00000000
00020000
00030000
00010000
00000000
,
00020000
00030100
00000010
00000000
00010000
00000000
00100000
00000000
01000000
00000000
00100000
00000000
00010000
00000000
01000000
00000000
,
00100000
01000000
00100000
01000000
00001000
10000000
00001000
10000000
00000200
01000300
00000100
01000000
00000100
01000000
00000100
01000000
,
00000200
00000300
00001000
00000000
00000000
00000000
00000010
00000000
00020000
00000000
01000000
00000000
00000000
00000000
00000100
00030000
,
00020000
00000000
00000010
00000000
00000000
00000000
00100000
00030000
00020000
00000000
00000010
00030000
00020000
00000000
00001000
00000000
,
00002000
00003000
00001000
00000000
00001000
00000000
00001000
00030000
00020000
00030000
00010000
00000000
00020000
00030000
00010000
00000000
,
00000200
00000300
00000100
00000000
00000100
00000000
00000100
00000000
00010000
00000001
00010000
00000001
00010000
00000001
00010000
00000001
,
00001000
00001000
00001000
00001000
00000100
00000100
00000100
00000100
,
00200000
00300000
00100000
00000000
00100000
00000000
00100000
00000000
00020000
00030000
00010000
00000000
00020000
01030000
00010000
00000000
,
20000000
31000000
10000000
01000000
00020000
00031000
00010000
00001000
,
00000020
00000000
00000130
00000000
00000010
00000000
00000100
00000000
01000000
00000100
01000000
00000100
01000000
00000100
01000000
00000100
,
01000000
00000010
00010000
00000010
02000000
03100000
01000000
10000000
,
00020000
10030000
01000000
00100000
02000000
03001000
02000000
03001000
,
00020000
01030000
00100000
01000000
00100000
00000010
00000100
00010000
,
01000000
00000000
00100000
00000000
10000000
00000000
01000000
00000000
00010000
00000000
00000010
00000000
00100000
00000010
00100000
00000020
,
M02M0000
0M00M00M
00000M00
M00M0000
0M00M00M
00000M00
M00M0000
0M00M00M
00000M00
M00M0000
0M00M00M
00000M00
M00M0000
0M00M00M
00000M00
M00M0000
,
0M00M00M
00000M00
M00M0000
0M00M00M
00000M00
M00M0000
0M00M00M
00000M00
M00M0000
0M00M00M
00000M00
M00M0000
0M00M00M
00000M00
M00M0000
0M00M00M
,
00300M30
00000000
00000000
00000000
02000200
00000000
00000000
00000300
03000200
01000300
00000100
01000000
00000100
00100000
00000100
00100000
,
00000010
00100000
00000010
00100000
00000010
10000000
00000010
10000000
00000200
10000300
00000100
10000000
00000100
01000000
00000100
01000000
,
00000001
01000000
00000001
01000000
00000002
00010003
00000002
00010003
00000200
00010300
00000100
00010000
00000100
00100000
00000100
00100000
,
00000010
00100000
00000010
00100000
00000010
00010000
00000010
00010000
00000001
00010000
00000001
00010000
00000001
01000000
00000001
01000000
,
00000100
00000000
00000000
01000000
00000000
00000000
00000100
00000000
00000000
01000000
00000000
00000000
00000200
00000000
00000000
10000300
00000000
00000000
00000200
00000000
00000000
10000300
00000000
00000000
00002000
00000000
00000000
10003000
00000000
00000000
00001000
00000000
00000000
10000000
00000000
00000000
00001000
00000000
00000000
00100000
00000000
00000000
00002000
00000000
00023000
00000000
00032000
00000000
,
00023000
00030010
00100000
00000100
00100000
00000100
01000000
00000100
01000000
00001000
01000000
00001000
10000000
00001000
10000000
00000010
,
10000000
00000010
00010000
00000010
00020000
00030001
00010000
00000001
02000000
03000001
01000000
00010000
01000000
00010000
00100000
00010000
,
00100000
00000010
00100000
00000010
00010000
00000010
00010000
00000001
00020000
00030001
00000100
00000001
00000100
00001000
00000100
00001000
,
00000100
00001000
00000100
00000010
00000200
00000310
00020000
00030010
00020000
00030001
00010000
00000001
02000000
03000200
00200300
00300020
,
02000030
03000010
01000000
00000010
10000000
00000100
10000000
00000100
01000000
00000001
01000000
00000001
10000000
00000010
10000000
00000010
,
01000000
00000100
01000000
00000100
00200000
00301000
00200000
00300000
00202000
00303000
00001000
01000000
00001000
01000000
00001000
00000000
,
02002000
03003000
01000000
00010000
01000000
00010000
01000000
00100000
01000000
00100000
01000000
10000000
01000000
10000000
01000000
00100000
,
01000000
00100000
01000000
00010000
01000000
00010000
01000000
00000000
02020000
03030000
00010000
01000000
00010000
01000000
00020000
00130000
,
00020000
00130000
00010000
00100000
00020000
00030000
00110000
00000000
00220000
00330000
00100000
01000000
00100000
01000000
00100000
00001000
,
00100000
00001000
00100000
00001000
00100000
00000000
00101000
00000000
00202000
00303000
00001000
00010000
00001000
00010000
00002000
00003010
,
00002000
00003010
00001000
00000010
00002000
00003000
00001010
00000000
00002020
00003030
00000010
00001000
00000010
00001000
00000010
00000100
,
00000010
00000100
00000010
00000100
00000020
00000030
00000110
00000000
00000220
00000330
00000100
00001000
00000100
00001000
00000200
01000300
,
00000200
01000300
00000100
01000000
00000200
00000300
01000100
00000000
02000200
03000300
01000000
00000100
01000000
00000100
01000000
00000100
,
01000000
00000100
01000000
00000100
01000000
00000000
00010100
00000000
00200200
00300300
00000100
00100000
00000100
00100000
00000200
00100300
,
00000200
00100300
00000100
00100000
00000100
00000000
00200200
00300300
00200002
00300003
00100000
00000001
00100000
00000001
00100000
00000001
,
00100000
00000001
00100000
00000001
00100000
00000000
10000001
00000000
00000001
10000000
00000001
10000000
00000001
10000000
00000001
10000000
,
00000001
10000000
00000001
10000000
00000001
10000000
00000001
00000000
10000001
00000000
00000000
00000000
01000000
00000000
00M00000
00M00000
,
00M01000
00M00000
00000000
00000000
01000000
00000000
00000000
00000000
00200000
00000000
00000000
00000000
00000000
00000000
00320000
00032000
,
00023000
00030000
00000000
01000000
00000000
00000000
100M0000
00000000
00100000
00000000
00000000
00000000
00000000
00000000
01001000
00000000
,
01001000
00000000
00000000
00000000
00000000
00000000
00000000
00000000
01000000
00000000
00000000
00001000
00000000
00000000
00000010
00000000
,
00000010
00000000
00000000
00000100
00000000
00000000
00010000
00000000
0001M000
00000000
00000000
00000000
00000000
00000000
00001001
00000000
,
00001001
00000000
00000000
00000000
00000000
00000000
00000000
00000000
00000001
00000000
00000000
00010000
00000000
00000000
00000100
00010000
,
01000000
00000000
00000000
10000000
00000000
00000000
0M010000
0M000000
00010000
00000000
00100000
00000000
00100000
00000000
11000000
00000000
,
11000000
00000000
00000000
10000000
10000000
00000000
00000000
00000000
,
01000000
00000000
00000000
00100000
00000000
00000000
00001000
00000000
00001000
00000000
00000000
00000000
00000000
00000000
00000000
00000000
,
00000000
00000000
00000000
00000000
00100000
00000000
0M010000
0M000000
0M000010
00000000
00000000
00000000
00000000
00000000
00000001
00000010
,
00001000
00000000
00000000
00010000
00000000
00000000
00000100
00000000
01000000
00000000
00000000
00000000
00000000
00000000
01000100
00000000
,
01000100
00000000
00000000
00000000
00000000
00000000
00000000
00000000
01000000
00000000
00000000
00001000
00000000
00000000
01000000
00000000
,
10000000
00000000
00000000
01000000
00000000
00000000
00100000
00000000
0M010000
00000000
00000000
00000000
00000000
00000000
00010010
00000000
,
00010010
00000000
00000000
00000000
00000000
00000000
00000000
00000000
00000010
00000000
00000000
00000000
00000000
00000000
00010000
00000100
,
00000010
00000000
00000000
00000100
00000000
00000000
00010000
00000000
00M10000
00M00000
00M00010
00M00000
00M00010
00M00000
00M10001
00M00000
,
00M10001
00M00000
00M00000
00M00000
00M00000
00M00000
00M10000
00M00000
00M00010
00000000
00000000
00000000
00000000
00000000
00000000
00000000
,
00001000
00000000
00000000
00000001
00000000
00000000
00000100
00000000
00000000
00000000
00000000
00000000
00000000
00000000
00000000
00000000
,
00000000
00000000
00000000
00000101
00001001
00000002
00002000
00000020
,
M0M20000
00000000
0M000M00
00000000
M0M00000
00000000
0M000M00
00000000
M0M33033
00000000
00000000
00000000
00000001
00000100
00000000
00000000
,
00000100
00000010
00000000
00000000
00000010
00010000
00000000
00000000
00010000
00000100
00000000
00000000
00000100
00010000
00000000
00000000
,
00010000
00100000
00000000
00000000
00100000
01000000
00000000
00000000
01000000
00010000
00000000
00000000
00010000
10000000
00000000
00000000
,
10000000
00010000
00000000
00000000
00010000
00100000
00000000
00000000
00100000
01000000
00000000
00000000
01000000
00010000
00000000
00000000
,
00010000
00000100
00000000
00000000
00000100
00010000
00000000
00000000
00010000
00001000
00000000
00000000
00001000
00000100
00000000
00000000
,
00000100
00000001
00000000
00000000
00000001
00010000
00000000
00000000
00010000
00000100
00000000
00000000
00000100
00000010
00000000
00000000
,
00000010
00001000
00000000
00000000
00001000
00010000
00000000
00000000
00010000
00100000
00000000
00000000
00100000
10000000
00000000
00000000
,
10000000
00010000
00000000
00000000
00010000
01000000
00000000
00000000
01000000
00001000
00000000
00000000
00001000
00100000
00000000
00000000
,
00200000
00002000
00000000
00000000
10000010
00000000
00000M00
00303M00
00002M00
00010000
00003000
00000000
00000100
00010000
00000000
00000000
,
00002000
02000000
00000000
00000000
00100001
00000000
00000000
03003000
00001000
01000000
00000000
00000000
01000000
00001000
00000000
00000000
,
00002000
02000000
00000000
00000000
10000100
00000000
00000000
03003000
01000000
00001000
00000000
00000000
00100000
00001000
00000000
00000000
,
M0020000
M0002000
M0000000
M0000000
M1000001
M0000000
M0000000
M0033000
M0020000
M0000010
M0030000
M0000010
M0010000
M0001000
M0010000
M0000000
,
M0020200
00000000
00000000
00000000
10000010
00000000
00000000
00030300
00000100
01000000
00000000
00000000
01000000
00001000
00000000
00000000
,
00002000
01000000
00003000
00000000
02000000
00000020
00000000
00000000
00101000
00000000
00100000
00001000
00010000
00001000
00010000
00000000
,
00020200
00030300
00000000
03000030
00000010
01000000
00000000
00000000
00001000
00100000
00000000
00000000
00000010
00010000
00000000
00000000
,
00001000
01000000
00000000
00000000
02000200
00000000
00000000
00000000
10000001
00000000
00000000
00100010
00000000
00000000
00011000
00000000
,
M002200M
00000000
00033000
03000300
00000200
00020000
00000000
00000000
00100010
00000000
00000000
00030300
00001000
01000000
00000000
00000000
,
00002000
00020000
00000000
00000000
02000020
00000000
03000030
00033000
00001000
00010000
00000000
00000000
00100000
00010000
00000000
00000000
,
0000200M
0002000M
0000000M
0000000M
0010010M
0000000M
0000000M
0003300M
0000100M
0001000M
0000000M
0000000M
0001000M
0000001M
0000000M
0000000M
,
0000002M
0002000M
0000000M
0000000M
0100100M
0000000M
0000000M
0003003M
0002000M
00001000
00030000
00000000
00010000
00000000
00011000
00000000
,
00200020
00000000
00000000
00000000
10010000
00000000
00000000
00000000
00002002
00000000
00003003
00300030
00100000
00010000
00000000
00000000
,
02000000
00002000
00000000
00000000
10000100
00000000
00000000
03003000
020M0000
000M0100
03000000
00000000
00100000
00001000
00000000
00000000
,
00020000
00000020
00000000
00000000
01000001
00000000
00000000
00030030
00010000
00000010
00000000
00000000
00000010
00100000
00000000
00000000
,
00100000
00001000
00000000
00000000
00001000
01000000
00000000
00000000
01001000
00000000
00000000
00100100
00000000
00000000
00011000
00000000
,
M2002000
M0000000
00000000
00000000
10100000
00000000
00000000
03003000
M1001000
M0000000
00000000
01000100
00000000
00000000
00011000
00000000
,
0002020M
0000000M
00000000
00000000
00000011
00000000
00000000
00030300
0001010M
0000000M
00000000
00101000
00000000
00000000
00011000
00000000
,
02M00200
00M00000
00000000
00000000
00100010
00000000
00000000
03000300
01M00100
00M00000
00000000
00011000
00000000
00000000
00001010
00000000
,
0M000220
0M000000
00000000
00000000
01100000
00000000
00000000
00000330
0M000110
0M000000
00000000
00001010
00000000
00000000
00020200
00000000
,
M0000000
M0000000
00001000
00100000
00001000
00000000
00101000
00000000
0010100M
0000000M
00100000
00000010
00100000
00000000
00100010
00000000
,
M0100010
M0000000
00000010
00001000
00000001
00000000
00000011
00000000
000000M1
000010M0
00000000
00001000
00000001
00001000
00000001
00000000
,
M0001001
M0000000
00001000
00000010
00001000
00000010
00100000
00000010
0010000M
0000000M
00100010
00000000
00000010
00001000
00000010
00000000
,
M0001010
M0000000
00001000
00000001
00001000
00000000
00001001
00000000
0000101M
0000000M
00030300
02002000
00000000
00000000
00000010
00010000
,
M0000010
M0000000
00010010
00000000
00010010
00000000
00010000
00000010
0001000M
0000001M
00100000
00000010
00100000
00000000
00110000
00000000
,
M0110000
M0000000
00010000
10000000
00010000
00000000
00110000
00000000
1001000M
0000000M
03003000
02000200
00000000
00000000
00100000
00000000
,
M0110000
M0000000
00010000
00100000
00010000
00100000
00010000
00000000
0011000M
0000000M
00100000
00001000
00010000
00000000
00011000
00000000
,
M0011000
M0000000
00000010
00010000
00001000
00010000
00001000
00100000
0000002M
0000003M
10000001
00000000
10000001
00000000
10000001
00000000
,
10000001
00000000
00000000
00000000
03000300
00000000
00000000
01000000
00000000
00000000
00001000
00000000
00000000
00010000
00000000
00000000
,
01000000
00000000
00000000
00100000
00000000
00000000
00010000
00000000
00010000
00000000
00000000
02000000
00000000
00000000
00100000
00000000
,
00200000
00000000
00000000
00000000
,
00000000
00000000
00000000
00000000
00000000
00000000
00020000
20030000
,
30002000
00000000
00000000
20000000
00020000
30000000
00000000
00000000
,
00003000
00300000
00000000
00200000
,
00300000
00000000
00100000
10000000
00100000
10000000
00001000
00100000
00000010
00100000
00001000
10000000
,
10000000
00000000
00000000
00000000
00001000
00000000
00000000
00000000
10000000
00000000
00000000
00000000
00000000
00000000
00000000
00000000
00000000
00000000
00000000
00000000
00000000
00000000
00000000
00000000
00000000
00000000
00000000
00000000
00000000
00000000
00000000
00000000
00000000
00000000
00000000
00000000
03030000
00000000
00000000
00000000
00000000
00000000
00200000
00000000
00000000
02300000
00000000
00000000
,
03200000
00000000
00000000
02300000
03200000
00000000
00000000
00000000
00000000
00000000
00000000
00000000
M0000000
M0000000
M0000000
M0000000
,
M0000000
M0000000
M0000000
M0000000
M0000000
M0000000
M0000000
M0000000
M0000000
M0000000
M0000000
M0000000
00300000
00000000
00000000
00000000
,
02200000
03300000
01000000
10000000
01000000
10000000
02000000
03100000
02000000
03100000
01000000
00010000
02000000
03000000
01010000
00000000
,
02002000
03003000
00001000
01000000
00001000
01000000
00001000
10000000
00001000
10000000
00001000
00100000
00001000
00000000
00101000
00000000
,
00022000
00033000
00010000
00001000
00010000
00001000
00020000
00030010
00020000
00030010
00010000
00000001
00020000
00030000
00010001
00000000
,
00020200
00030300
00000100
00010000
00000100
00010000
00000100
00001000
00000100
00001000
00000100
00000010
00000100
00000000
00000110
00000000
,
00000022
00000033
00000001
00000010
00000001
00000010
00000002
00010003
00000200
00010300
00000100
00010000
00000200
00000300
00010100
00000000
,
00020200
00030300
00010000
00001000
00010000
00001000
00010000
00001000
01000000
00100000
01000000
00100000
01000000
00000000
01100000
00000000
,
00220000
00330000
00100000
00010000
00200000
00310000
00100000
00010000
00200000
01300000
00010000
01000000
00020000
00030000
02020000
03030000
,
20020000
30030000
10000000
01000000
10000000
01000000
10000000
01000000
00100000
00010000
00100000
00010000
00100000
00000000
00110000
00000000
,
0011000M
000000M0
0000000M
000000M0
0001000M
000000M0
0001000M
000000M0
0001000M
001000M0
0001000M
001000M0
00010000
00100000
00010000
00000000
,
00000000
00000000
00000000
00000000
00100000
00000000
0M000000
0M001000
0M000000
0M000000
00000010
00000000
00000000
00000000
00000000
00000000
,
00000002
00000000
00000000
00000000
00000000
00000000
00000023
00000032
00002003
00003001
00001000
00000020
00001030
00000100
00M20000
00030100
,
00020000
00030100
01000000
00001000
01000000
00000000
01001000
00000000
01001000
00000000
00001000
01000000
00001000
01000000
00001000
01000000
,
00200000
01300000
00001000
00200000
00301000
10000000
00200000
10300000
00200000
10300000
00001000
00200000
00301000
01000000
00200000
01300000
,
M0200000
01300000
00001000
10000000
00001000
00000000
10001000
00000000
10001000
00000000
10000000
00001000
10000000
00001000
10000000
00001000
,
00020000
00031000
01000000
00020000
01030000
00000100
00020000
00030200
00000320
00000130
00001000
00000020
00001030
00000001
00000200
M0000301
,
M0000200
00000301
00020000
00030001
00020000
00030000
00020002
00030003
00020002
00030003
00000001
00010000
00000001
00010000
00002000
00013000
,
00002000
00013000
00000010
00010000
00000010
01000000
00000010
01000000
00002000
01003000
00000010
00020000
00030010
01000000
00002000
01003000
,
00002000
01003000
00000100
01000000
00000100
10000000
00000100
10000000
00000100
10000000
00000100
10000000
00002000
10003000
0000200M
0100300M
,
0000200M
01003000
00000100
01000000
00000100
01000000
00002000
00203000
00300020
00010030
00000001
00000020
00000031
00001000
00000020
00001030
,
00000020
00100030
00000001
00100000
00000001
00000000
00100001
00000000
10000001
00000000
10000000
00000001
10000000
00000001
10000000
00000001
,
02000000
03000001
10000000
00000200
10000300
00000001
00200000
00300001
00200000
00300001
10000000
00000020
10000030
00000001
02000000
03000001
,
0200M000
03000001
10000000
00000001
10000000
00000000
10000001
00000000
10000001
00000000
00000001
10000000
00000001
10000000
00000001
10000000
,
00000100
00000000
00000000
00100000
00000000
00000000
00000100
00001000
00000001
00000000
00000000
00000100
00000000
00000000
00000010
00000000
,
000M0010
000M0000
000M1000
000M0000
000M1000
000M0000
000M1010
000M0000
000M1010
000M0000
000M0000
000M0000
000M0000
000M0000
000M0010
000M0000
,
001M0000
00000000
00000000
00000000
00000000
00000000
00000000
00000000
00001000
00000000
00000000
01000000
00000000
00000000
00000100
00000000
,
00100000
00000000
00000000
00000000
00000000
0M000000
00000000
01000010
,
M0100100
0000000M
000M0000
0000M000
00MM0000
M0000M00
0M00M000
M000000M
00MM0000
00000MM0
MM000000
0000M00M
00MM0000
00000MM0
0M00M000
M000000M
,
0000MM00
00000000
00000000
00000000
;

//---------------dance-single - Kyzentun----------------
#NOTES:
     dance-single:
     Kyzentun:
     Medium:
     9:
     0.724,0.796,0.504,0.940,0.560,906.000,126.000,235.000,274.000,15.000,0.000,0.724,0.796,0.504,0.940,0.560,906.000,126.000,235.000,274.000,15.000,0.000:
M000
0000
0000
0M00
0000
0000
00M0
0000
0000
000M
0000
0000
M000
0000
0000
0M00
0000
0000
00M0
0000
0000
000M
0000
0000
0000
0000
0000
0000
0000
0000
0000
0000
0M00
0000
0000
0000
M000
0000
0000
0000
0M00
0000
0000
0000
M000
0000
0000
0000
,
0M00
0000
0000
00M0
0000
0000
0M00
0000
0000
00M0
0000
0000
0M00
0000
0000
0000
M000
0000
0000
0000
0M00
0000
0000
0000
M000
0000
0000
0000
0000
0000
0000
0000
0000
0000
0000
0000
0000
0000
0000
0000
0000
0000
0000
0000
0000
0000
0000
0000
,
0000
0000
0000
0000
,
0000
0000
0000
0000
0000
0000
0000
0000
0200
0000
0301
0000
0001
0000
0100
0001
,
0200
0301
0001
0100
0001
1000
0100
0100
,
0220
0330
0010
0001
0022
0033
0020
0031
,
2000
3000
1000
0000
0001
0000
0001
0000
0001
0000
0100
0000
0010
0000
0100
0000
,
0100
0000
0010
0000
0010
0000
0010
0000
1000
0010
1000
0000
0002
1003
0001
0000
,
2002
3003
0000
0000
0100
0000
0010
0000
1000
0000
0010
0000
0100
0000
0100
0000
,
0200
0000
0301
0000
1000
0000
0001
0000
0020
0000
0031
0000
2000
3000
1000
0000
,
2000
3100
0010
0100
0001
0100
0010
0010
,
0220
0000
1001
0000
1001
0000
1001
0330
,
0020
0031
0100
1000
0100
0010
0100
0100
,
0200
0310
0000
0000
0010
0000
1000
0000
0200
0000
1300
0000
0002
0003
0001
0000
,
0002
0013
0000
0000
0010
0000
0100
0000
1000
0000
0100
0000
0001
0000
0100
0000
,
0010
0100
0010
0000
0100
1000
0100
0000
2000
3001
1000
0001
1000
0001
1000
0001
,
0020
0030
0010
0000
0000
0000
0010
0000
0002
0000
0010
0000
0000
0000
0010
0000
,
0000
0010
0000
0010
0000
0010
0000
0010
,
0020
0030
0010
0000
0010
0000
0010
0003
0002
0003
0001
0000
0002
0003
0001
0000
,
2000
3000
1000
0000
1000
0000
1000
0000
0001
1000
0001
1000
0001
1000
0001
1000
,
0010
0010
0010
0010
0100
0100
0100
0100
,
0002
0003
0001
0000
0001
0000
0001
0000
0020
0030
0010
0000
0020
0130
0010
0000
,
0200
1300
0100
1000
0002
0103
0001
0100
,
0020
0000
1030
0000
0010
0000
1000
0000
0001
0100
0001
0100
0001
0100
0001
0100
,
0001
1000
0001
1000
0200
0310
0100
0010
,
0002
0013
0001
0010
0200
1300
0200
1300
,
0002
0103
0010
0100
0001
0010
1000
0010
,
0001
0000
1000
0000
0010
0000
0001
0000
0010
0000
0100
0000
0001
1000
0001
1000
,
00M2
0M00
00M0
0M00
00M0
0M00
00M0
0M00
00M0
0M00
00M0
0M00
00M0
0M00
00M0
0M00
,
00M0
0M00
00M0
0M00
00M0
0M00
00M0
0M00
00M0
0M00
00M0
0M00
00M0
0M00
00M0
0M00
,
0003
0000
0000
0000
2002
0000
0000
3000
2003
0000
3100
0000
1000
0000
0100
0000
,
0010
0100
0010
0100
0002
0103
0001
0100
,
1000
0100
2000
3200
2300
3100
0010
0100
,
0010
0001
0010
0001
0010
0100
0010
0100
,
0010
0000
0000
2000
0000
0000
3020
0000
0000
2030
0000
0000
3020
0000
0000
0031
0000
0000
0010
0000
0000
0002
0023
0032
,
0023
0031
1000
0010
0100
0010
0001
0010
,
1000
0100
0002
0103
0020
0031
0010
0100
,
0010
0001
1000
0010
0200
1300
0100
0010
,
0100
0000
0001
0000
0020
0000
0230
0300
2000
0000
3001
0000
2000
3020
2030
3020
,
2030
3000
0001
0000
0010
0000
1000
0000
0010
0000
0100
0000
0001
0000
0100
0000
,
1000
0000
0010
0000
0200
0300
0200
0300
0220
0000
0000
0000
0030
0000
0302
0003
,
0202
0303
0100
0010
0001
0010
0100
1000
,
0100
0000
1000
0000
0100
0000
0000
0000
0220
0330
0010
0000
1000
0000
0010
0000
,
0200
0000
0301
0000
2000
3000
1001
0000
2002
3003
0001
0000
0010
0000
1000
0000
,
0010
0000
0100
0000
1000
0000
1001
0000
2002
3003
0001
0000
0100
0000
2000
0000
,
3200
0000
0310
0000
2000
3000
1001
0000
2002
3003
0001
0000
0100
0000
0010
0000
,
0001
0000
0010
0000
2000
3000
1001
0000
2002
3003
0001
0000
0010
0000
0200
0000
,
2300
0000
3010
0000
2000
3000
1001
0000
2002
3003
0001
0000
0100
0000
1000
0000
,
0001
0000
0010
0000
1000
0000
1001
0000
2002
3003
0001
0000
0010
0000
2000
0000
,
3001
0000
0100
0000
2000
3000
2001
3000
2002
3003
0001
0000
0100
0000
0010
0000
,
0001
0000
0010
0000
0100
0000
1001
0000
0001
1000
0001
1000
0001
1000
0001
1000
,
0001
1000
0001
1000
0001
1000
0001
0000
1001
0000
0000
0000
1000
0000
0M00
0M00
,
0M01
0M00
0000
0000
0010
0000
0000
0000
0200
0000
0000
0000
0000
0000
2300
3002
,
2003
3000
0000
0001
0000
0000
00M2
0000
0200
0000
0000
0000
0000
0000
1010
0000
,
1010
0000
0000
0000
0303
0000
0000
0000
0010
0000
0000
0100
0000
0000
0001
0000
,
0001
0000
0000
0200
0000
0000
0010
0000
M020
0000
0000
0000
0000
0000
1001
0000
,
1001
0000
0000
0000
0330
0000
0000
0000
0100
0000
0000
0001
0000
0000
0100
0001
,
1000
0000
0000
0001
0000
0000
10M0
00M0
2000
0000
0100
0000
0200
0000
0011
0000
,
0011
0000
3300
0100
0100
0000
0000
0000
,
0010
0000
0000
0100
0000
0000
1000
0000
1000
0000
0000
0000
0000
0000
0000
0000
,
0000
0000
0000
0000
0100
0000
10M0
00M0
00M1
0000
0000
0000
0000
0000
0100
0001
,
1000
0000
0000
0010
0000
0000
2000
0000
0002
0000
0000
0000
0000
0000
0110
0000
,
0110
0000
0000
0000
3003
0000
0000
0000
1000
0000
0000
0100
0000
0000
0010
0000
,
0001
0000
0000
0010
0000
0000
0200
0000
200M
0000
0000
0000
0000
0000
0011
0000
,
0011
0000
0000
0000
3300
0000
0000
0000
0001
0000
0000
0000
0000
0000
0010
0100
,
1000
0000
0000
0100
0000
0000
0010
0000
0M20
0M00
0M01
0M00
0M02
0M00
1M00
0M00
,
1M00
0M00
0M00
0M00
0M33
0M00
1M00
0M00
0M10
0000
0000
0000
0000
0000
0000
0000
,
0100
0000
0000
0010
0000
0000
1000
0000
0000
0000
0000
0000
0000
0000
0000
0000
,
0000
0000
0000
1001
1001
2000
3200
0320
,
M032
0M00
M000
0M00
M000
0M00
M000
0M00
M003
0000
0000
0000
0010
0100
0000
0000
,
0100
1000
0000
0000
1000
0001
0000
0000
0001
0100
0000
0000
0100
0001
0000
0000
,
0001
0010
0000
0000
0010
0100
0000
0000
0100
1000
0000
0000
1000
0100
0000
0000
,
0100
0001
0000
0000
0001
0100
0000
0000
0100
0010
0000
0000
0010
1000
0000
0000
,
1000
0010
0000
0000
0010
0001
0000
0000
0001
1000
0000
0000
1000
0010
0000
0000
,
0010
0001
0000
0000
0001
0010
0000
0000
0010
0100
0000
0000
0100
1000
0000
0000
,
1000
0100
0000
0000
0100
0001
0000
0000
0001
0010
0000
0000
0010
0100
0000
0000
,
0100
1000
0000
0000
1000
0001
0000
0000
0001
0100
0000
0000
0100
0001
0000
0000
,
0001
1000
0000
0000
1001
0000
0M00
0M00
0M02
0010
0003
0000
0100
1000
0000
0000
,
0001
0100
0000
0000
1001
0000
0000
0000
0100
0010
0000
0000
1000
0010
0000
0000
,
0100
0001
0000
0000
1001
0000
0000
0000
0001
0010
0000
0000
0100
1000
0000
0000
,
001M
010M
000M
000M
101M
000M
000M
000M
200M
001M
300M
001M
010M
000M
000M
000M
,
022M
0000
0330
0000
1001
0000
0000
0000
0001
0010
0000
0000
0100
0010
0000
0000
,
0200
1000
0300
0000
0001
0100
0000
0000
1001
0000
1000
0010
1000
0010
1000
0000
,
2002
3003
0000
0000
0001
0010
0000
0000
0100
1000
0000
0000
0001
0100
0000
0000
,
0010
1000
0000
0000
1001
0000
0000
0000
0110
0000
0000
1100
0000
0000
0011
0000
,
22MM
0000
3300
0000
0010
0100
0000
0000
0011
0000
0000
0000
0001
1000
0000
0000
,
0010
0100
0000
0000
2020
0000
3030
0000
1000
0100
0000
0000
0001
0100
0000
0000
,
M010
M100
M000
M000
M110
M000
M000
M000
M001
M010
M000
M000
M001
M100
M000
M000
,
M010
M100
M000
M000
M101
M000
M000
M000
M200
0010
0300
0000
0100
0000
0110
0000
,
2002
0000
3003
0000
0011
0000
0000
0000
0220
0000
0330
0000
0010
0100
0000
0000
,
2000
0001
3000
0000
1100
0000
0000
0000
200M
010M
3000
0000
0010
0001
0000
0000
,
2000
0001
3000
0000
0011
0000
0000
0000
0100
0010
0000
0000
0001
0010
0000
0000
,
0001
1000
0000
0000
0010
1000
0000
0000
1100
0000
0000
1100
0000
0000
0110
0000
,
M011
M000
0000
0000
0110
0000
0000
0000
M011
M000
0000
1100
0000
0000
0011
0000
,
M110
M000
0000
0000
1100
0000
0000
0000
10M1
00M0
0000
0101
0000
0000
0110
0000
,
101M
000M
0000
0000
0110
0000
0000
0000
101M
000M
0000
0101
0000
0000
1001
0000
,
0M11
0M00
0000
0000
0110
0000
0000
0000
110M
000M
0000
1001
0000
0000
0110
0000
,
10M1
00M0
1000
0001
1000
0000
1010
0000
011M
000M
0000
0101
0000
0000
0110
0000
,
M110
M000
0100
0001
0100
0000
0010
0000
010M
001M
0000
0010
0100
0000
0001
0000
,
M011
M000
0010
0000
0001
0000
0100
0000
10M0
00M0
0001
0000
0010
0000
1000
0000
,
101M
000M
0010
0000
0001
0000
0010
0000
100M
000M
0000
0101
0000
0000
0100
0010
,
M100
M000
0001
0000
0010
0000
1000
0000
00M1
00M0
0100
0000
1000
0000
0001
0000
,
M011
M000
0000
0101
0000
0000
0011
0000
11M0
00M0
1000
0000
0001
0000
0100
0000
,
100M
000M
0100
0000
0010
0000
1000
0000
0M10
0M00
0001
0000
0010
0000
1000
0000
,
1M01
0M00
0001
0100
0001
0100
0001
0100
00M2
00M3
1001
0000
1001
0000
1001
0000
,
1001
0000
0000
0000
0000
0000
0000
0001
0000
0000
0100
0000
0000
0001
0000
0000
,
1000
0000
0000
0100
0000
0000
0010
0000
0010
0000
0000
0100
0000
0000
1000
0000
,
2000
0000
0000
0000
,
0000
0000
0000
0000
0000
0000
3002
0203
,
0302
0000
0000
2003
3200
0000
0000
0000
,
0000
0000
0000
0320
,
0032
0000
0000
0000
0000
M000
0000
00M0
0000
0M00
0000
00M0
2003
0M00
0000
00M0
0000
0M00
0000
000M
0000
32M0
0000
000M
,
0320
0000
000M
0000
0000
0000
M000
0000
0000
0000
000M
0000
0000
0000
0000
0000
0000
0000
0000
0000
0000
0000
0000
0000
0000
0000
0000
0000
0000
0000
0000
0000
0000
0000
0000
0000
0030
0000
0000
0000
0000
0000
0020
0000
0000
0230
0000
0000
,
0320
0000
0000
0032
0023
0000
0000
0000
0000
0000
0000
0000
M000
M000
M000
M000
,
M000
M000
M000
M000
M000
M000
M000
M000
M000
M000
M000
M000
0030
0000
0000
0000
,
0220
0330
0000
0000
0100
0000
2000
0000
3200
0000
0310
0000
0002
0000
0013
0000
,
0022
0033
0001
0010
0100
1000
0001
1000
,
2020
3030
0010
0200
0320
1030
0002
0103
,
0220
0330
0010
1000
0100
0010
0100
1000
,
2200
3300
0100
0020
0032
0013
0002
1003
,
2020
3030
0010
1000
0001
0100
0010
1000
,
2200
0000
3300
0000
0200
0000
0301
0000
0200
0000
1300
0000
0200
0000
0320
0030
,
0220
0330
0100
0010
1000
0010
0001
0010
,
M011
0M00
M000
0M00
M000
0M00
M000
0M00
M000
0M00
M000
0M00
0000
0000
0000
0000
,
0000
0000
0000
0000
0001
0000
0M00
1M00
0M00
0M00
0010
0000
0000
0000
0000
0000
,
0200
0000
0000
0000
0000
0000
0320
0230
0320
0030
0000
0020
0030
0000
200M
3000
,
2000
3000
0001
0000
0010
0000
0011
0000
0011
0000
0000
0000
0001
0000
0100
0000
,
0002
0003
0000
0002
0003
0000
0002
0003
0002
0003
0000
0002
0003
0000
0002
0003
,
0002
0003
1000
0000
0010
0000
1010
0000
1010
0000
0000
0000
0010
0000
0000
0000
,
0200
0300
0000
0200
0300
0000
0200
0320
0230
0300
0000
0200
0300
0000
0200
M300
,
M200
0300
0002
0003
0002
0003
0012
0003
0012
0003
0000
0000
0010
0000
0200
0300
,
0200
0300
1000
0000
0010
0000
0100
0000
0002
0003
0000
0002
0003
0000
0002
0003
,
0002
0003
0100
0000
0010
0000
0001
0000
0010
0000
1000
0000
0002
0003
00M2
00M3
,
00M2
0003
0010
0000
0100
0000
0020
2030
3020
0030
0000
0020
0030
0000
0020
0030
,
0020
0030
0001
0000
1000
0000
1001
0000
1001
0000
0000
0000
0001
0000
1000
0000
,
0200
0300
0000
0200
0300
0000
0200
0300
0200
0300
0000
0200
0300
0000
0200
0300
,
M200
0300
0010
0000
0001
0000
0011
0000
0011
0000
0000
0000
0010
0000
0001
0000
,
0100
0000
0000
0010
0000
0000
0010
0001
0010
0000
0000
0100
0000
0000
0010
0000
,
M010
M000
M100
M000
M100
M000
M101
M000
M101
M000
M000
M000
M000
M000
M001
M000
,
M100
0000
0000
0000
0000
0000
0000
0000
0001
0000
0000
0010
0000
0000
0100
0000
,
1000
0000
0000
0000
0000
0M00
0000
1001
,
1M01
00M0
0M00
00M0
M000
0M00
00M0
0M00
M000
000M
0M00
00M0
M000
000M
00M0
0M00
,
00M0
0000
0000
0000
;

//---------------dance-single - Kyzentun----------------
#NOTES:
     dance-single:
     Kyzentun:
     Easy:
     5:
     0.357,0.451,0.340,0.292,0.006,467.000,85.000,73.000,1.000,13.000,0.000,0.357,0.451,0.340,0.292,0.006,467.000,85.000,73.000,1.000,13.000,0.000:
0000
0000
0000
0000
,
0000
0000
0000
0000
,
0000
0000
0000
0000
,
0000
0000
0200
0010
,
0302
0100
0100
1000
,
2003
0010
3020
0230
,
0302
0100
0100
0010
,
0010
1000
1003
0001
,
2010
0001
0010
0001
,
3002
1000
2003
3200
,
0320
0100
0001
0130
,
2200
0000
0010
0000
0010
0000
0010
3000
,
2300
0001
0001
0100
,
3200
0010
0320
0032
,
0023
0001
0001
1000
,
1000
0001
0032
0010
,
0023
0000
0000
0000
0002
0000
0000
0030
,
2000
0000
0000
3000
0020
0000
0000
0030
,
2000
0000
0000
0000
0000
0000
0000
0003
3001
0000
0000
0000
0002
0000
0000
0000
,
1003
1000
0010
0010
,
0100
0100
0001
0001
,
1000
1000
0010
0020
,
0130
0100
1000
1000
,
0100
0100
0001
0001
,
1000
1000
0100
0100
,
0010
0010
0100
0200
,
2300
3010
0100
0001
,
0100
0010
0100
0002
,
2000
0000
0000
0000
,
0000
0000
0000
0000
,
3003
0000
2000
3010
,
1000
0010
0200
0310
,
0100
0020
0032
0013
,
0001
0010
0100
0010
,
0100
0000
0020
0000
1030
0000
0010
1000
,
0010
1000
0100
0010
,
0100
2000
3200
0310
,
0100
1000
0200
0310
,
0001
0000
0020
0000
0031
0000
0010
0001
,
0010
0001
0100
0010
,
0100
0010
0202
0303
,
0101
0100
0001
0100
,
0010
0100
0220
0330
,
2020
3030
1001
0010
,
1000
0100
0011
1000
,
0001
0100
1010
0001
,
1000
0010
0101
1000
,
0010
0100
1001
0010
,
0100
0001
1100
1000
,
0001
1000
1100
0100
,
0010
0000
0000
2002
0000
0000
0000
0000
,
0000
0000
0000
3003
1001
0000
0000
0000
,
0001
0010
0200
0000
,
2300
0000
0000
0000
0200
0000
0000
0010
,
0010
3300
0010
0000
,
0001
0000
0200
0000
0020
0000
0000
1000
,
1000
0330
0100
0000
,
0001
0000
0002
0200
,
0010
0303
0001
0000
,
1000
0000
0100
0000
,
0000
1000
0001
0000
,
0020
0000
0000
0000
0002
0000
0000
1000
,
1000
0033
0010
0000
,
0001
0000
0200
0000
002M
0000
0000
0001
,
0001
0330
0100
0000
,
0001
0000
2000
0002
,
0010
3003
1000
0000
,
0100
0000
0000
0010
0000
0000
0001
0000
0000
0000
0000
0000
0000
0000
0000
0000
,
0000
0000
0000
1001
1001
0000
0000
0000
,
0000
0000
0000
1000
,
0100
1000
0001
0100
,
0001
0010
0100
1000
,
0100
0001
0100
0010
,
1000
0010
0001
1000
,
0010
0001
0010
0100
,
1000
0100
0001
0010
,
0100
1000
0001
0100
,
0001
1001
0002
0103
,
0001
1001
0100
1000
,
0100
1001
0001
0100
,
0010
1010
2000
3100
,
0110
1001
0001
0100
,
0200
0301
1001
0010
,
1001
0001
0100
0001
,
0010
1001
0110
1100
,
1100
0010
0011
0001
,
0010
1010
1000
0001
,
0010
0110
0001
0001
,
0010
0101
0200
0301
,
1001
0011
0110
0010
,
0001
1100
2000
3010
,
1000
0011
0100
1000
,
1000
0100
1100
1100
,
0011
0110
0011
1100
,
0110
1100
1001
0101
,
1010
0110
1010
0101
,
0011
0110
1100
1001
,
1001
1000
0110
0101
,
0110
0010
0010
0010
,
1010
1000
1000
1000
,
1001
0001
0100
0101
,
0001
0010
1000
0010
,
0110
1100
1001
0001
,
1000
0010
0100
0010
,
1001
0000
0001
1000
0001
0000
1010
0000
,
0101
0000
0001
0000
,
1000
0000
0010
0000
,
2000
0000
0000
0000
,
0000
0000
0000
3000
,
0002
0000
0000
0003
0200
0000
0000
0000
,
0000
0000
0000
0320
,
2000
0000
0000
0000
,
0000
0000
0000
0000
0000
0000
3030
0010
,
0020
0030
0020
0000
0000
0000
0000
0000
,
0000
0000
0000
0030
,
0000
0100
0100
0001
,
0011
0001
0100
0001
,
1010
0010
0010
1000
,
0110
0010
0100
0100
,
0101
0100
0001
0001
,
1010
0010
1000
0010
,
1100
0100
0010
0100
,
0110
0100
1000
0001
,
0011
0000
0000
0000
,
0000
0000
0000
0000
0001
0000
0000
1000
0000
0000
0010
0000
0000
0000
0000
0000
,
0200
0000
0000
0300
0010
0000
0000
0000
,
1000
0010
0011
0001
,
0100
0010
0100
0001
,
1000
0010
1010
0010
,
0100
0001
0100
0010
,
0100
0001
0011
0010
,
0100
0010
0001
0010
,
0001
0010
0100
1000
,
0001
0100
0010
1000
,
0010
1000
1001
0001
,
1000
0100
0010
0001
,
0100
0001
0011
0010
,
0001
0100
0010
1000
,
0010
0100
0101
0000
,
0100
0000
0000
0000
0000
0000
0000
0000
0001
0000
0000
0010
0000
0000
0100
0000
,
1000
0000
0000
0000
0000
0000
0000
1001
,
1001
0000
0000
0000
;
