#TITLE:THE 7 JUMP;
#SUBTITLE:;
#ARTIST:KEN D;
#TITLETRANSLIT:;
#SUBTITLETRANSLIT:;
#ARTISTTRANSLIT:;
#GENRE:;
#CREDIT:;
#BANNER:THE 7 JUMP.png;
#BACKGROUND:THE 7 JUMP-bg.png;
#LYRICSPATH:;
#CDTITLE:cdtitle.png;
#MUSIC:THE 7 JUMP.ogg;
#OFFSET:-0.259;
#SAMPLESTART:59.430;
#SAMPLELENGTH:12.000;
#SELECTABLE:YES;
#DISPLAYBPM:138.000;
#BPMS:0.000=137.890;
#STOPS:;
#TIMESIGNATURES:0.000=4=4
;
#BGCHANGES:;
#KEYSOUNDS:;

//---------------dance-double - Blank----------------
#NOTES:
     dance-double:
     Blank:
     Challenge:
     9:
     0.426,0.625,0.057,0.517,0.063,200.000,5.000,45.000,10.000,46.000,0.000,0.426,0.625,0.057,0.517,0.063,200.000,5.000,45.000,10.000,46.000,0.000: // measure 1
00000000
00000000
00000000
00000000
,  // measure 2
00000000
00000000
00000000
00000000
,  // measure 3
00000000
00000001
00000000
00000100
00000000
00001000
00000000
00010000
,  // measure 4
00010000
01000000
00000000
00000000
00000000
00000000
10000000
00000000
00000000
00000000
00100000
00000000
00000000
00000000
00010000
00000000
,  // measure 5
00010000
00001000
00000000
00000000
00001000
00000010
00000000
00000000
00000010
00000001
00000000
00000000
00000001
00000000
00000010
00000000
,  // measure 6
00000010
00000100
00000000
00000000
00010000
00001000
00010000
00001000
00010000
00001000
00010000
00001000
00010000
00001000
00010000
00001000
,  // measure 7
00010000
00000000
00000000
00000000
00000000
00001000
00000100
00000001
,  // measure 8
00000100
00001000
00100000
01000000
,  // measure 9
10000000
00000000
00000000
00000000
00000000
00010000
01000000
00100000
,  // measure 10
00010000
00001000
00000100
00000010
,  // measure 11
00001000
00000000
00000000
00000000
00000000
00000000
00000001
00000010
,  // measure 12
00001000
00010000
01000000
10000000
,  // measure 13
00200000
00000000
00000000
01300000
02000000
00000000
00000000
00000000
,  // measure 14
03200000
00000000
00000000
01300000
01000000
00010000
00100000
00001000
,  // measure 15
00010010
00000000
00000010
00000000
00010000
00000000
00000100
00000100
,  // measure 16
00000000
00000000
00000000
00000000
00000000
00000010
00000001
00000100
,  // measure 17
00001000
00000000
00100000
00000000
01000000
00000000
10000000
10000000
,  // measure 18
000000M0
000000M0
00000000
000000M0
020200M0
03030000
202000M0
30300000
,  // measure 19
10000000
01000000
00100000
00010000
00000020
00000000
00000130
00001000
,  // measure 20
00000200
00000000
00000310
00010000
00200000
00000000
01300000
00000000
,  // measure 21
20000000
02000000
00200000
00020000
,  // measure 22
00000020
00000000
33330130
00000000
11110111
00000000
00000000
10000000
,  // measure 23
20000000
00000000
00000000
31000000
02000000
00000000
00000000
03010000
,  // measure 24
00010000
00000000
00001000
00000000
00001000
00000000
00010000
00100000
,  // measure 25
20000000
00000000
00000000
30100000
00020000
00000000
00000000
00031000
,  // measure 26
00000100
00000000
00000001
00000000
00000001
00000000
00000001
00000001
,  // measure 27
00000002
00000000
00000000
00000000
00000010
00000000
00000100
00000100
,  // measure 28
00000200
00000000
00001000
00000010
,  // measure 29
00000020
00000000
00000000
00000000
00010000
00000000
00001000
00001000
,  // measure 30
00002000
00000000
01000000
00100000
,  // measure 31
00200000
00000000
10000000
01000000
,  // measure 32
02000000
00000000
00010000
00010000
,  // measure 33
00010000
00000000
00010000
00000000
,  // measure 34
M0020000
M0000000
00000000
M0000000
M3333333
00000000
M0000000
00000000
,  // measure 35
00000001
00000100
00000010
00001000
00200000
00000000
01300000
00010000
,  // measure 36
02000000
00000000
03100000
00001000
00000020
00000000
00000130
00000000
,  // measure 37
00000002
00000200
00000020
00002000
,  // measure 38
00200000
00000000
01303333
00000000
11101111
00000000
00000000
00000001
,  // measure 39
00000002
00000000
00000000
00000013
00000020
00000000
00000000
00001030
,  // measure 40
00001000
00000000
00010000
00000000
00100000
00000000
01000000
00010000
,  // measure 41
00002000
00000000
00000000
00013000
02000000
00000000
00000000
03010000
,  // measure 42
00100000
00000000
01000000
00000000
10000000
00000000
10000000
10000000
,  // measure 43
20000000
00000000
00000000
00000000
00100000
00000000
01000000
01000000
,  // measure 44
02000000
00000000
00010000
00100000
,  // measure 45
00200000
00000000
00000000
00000000
00001000
00000000
00010000
00010000
,  // measure 46
00020000
00000000
00000100
00000010
,  // measure 47
00000020
00000000
00001000
00000100
,  // measure 48
00000200
00000000
00001000
00001000
,  // measure 49
00001000
00000000
00001000
00000000
,  // measure 50
00002000
00000000
33333330
00000000
;
