#TITLE:Sky High;
#SUBTITLE:;
#ARTIST:Death Devil;
#TITLETRANSLIT:;
#SUBTITLETRANSLIT:;
#ARTISTTRANSLIT:;
#GENRE:;
#CREDIT:;
#BANNER:;
#BACKGROUND:;
#LYRICSPATH:;
#CDTITLE:cdtitle.png;
#MUSIC:sky_high.ogg;
#OFFSET:-0.283;
#SAMPLESTART:43.907;
#SAMPLELENGTH:14.200;
#SELECTABLE:YES;
#BPMS:0.000=151.960
;
#STOPS:
;
#BGCHANGES:;
#KEYSOUNDS:;
#ATTACKS:;

//---------------dance-double - ----------------
#NOTES:
     dance-double:
     :
     Challenge:
     13:
     0.950,1.000,0.000,0.147,1.000,444.000,0.000,10.000,79.000,0.000,0.000,0.950,1.000,0.000,0.147,1.000,444.000,0.000,10.000,79.000,0.000,0.000: // measure 0
M0000000
M0000000
M0000000
M0000000
,  // measure 1
M0000000
00000000
M0000000
00000000
M0000000
00000000
M0000000
00000000
M0000000
00000000
M0000000
00000000
,  // measure 2
M0000000
M0000000
M0000000
M0000000
M0000000
M0000000
M0000000
M0000000
,  // measure 3
M0000000
M0000000
M0000000
M0000000
M0000000
M0000000
M0000000
M0000000
M0000000
M0000000
M0000000
M0000000
,  // measure 4
M0000000
M0000000
M0000000
M0000000
M0000000
M0000000
M0000000
M0000000
M0000000
M0000000
M0000000
M0000000
M0000000
M0000000
M0000000
M0000000
,  // measure 5
M0010000
00001000
00100000
01000000
00010000
01000000
10000000
00010000
,  // measure 6
01000000
00000000
00100000
10000000
00100000
10000000
00010000
01000000
00010000
01000000
00001000
00010000
00001000
00010000
00000100
00001000
,  // measure 7
00000100
00000010
00001000
00010000
00001000
00000100
00000001
00000010
,  // measure 8
00000100
00001000
00000100
00001000
00000001
00000100
00000001
00000100
00000000
00000010
00010000
00000010
00010000
00001000
00100000
00001000
,  // measure 9
00100000
00010000
00100000
10000000
00100000
00000000
00010000
00000000
10000000
00100000
10000000
00100000
01000000
00010000
01000000
00010000
,  // measure 10
00100000
00001000
01000000
00001000
00100000
00000000
00000100
00000000
00010000
00000100
00010000
00000100
00001000
00000001
00001000
00000001
,  // measure 11
00000100
00000010
00000001
00000010
00001000
00010000
00001000
00000010
,  // measure 12
00000100
00001000
00000100
00000001
00000100
00000000
00001000
00000000
00010000
00001000
00010000
00001000
00100000
00010000
00100000
00010000
,  // measure 13
20000000
00000000
00000000
00000000
30010000
01000000
00010000
01000000
00100000
10000000
00100000
10000000
01000000
00100000
01000000
00100000
,  // measure 14
00020000
00000000
00000000
00000000
00000000
00000000
00030020
00000000
00000000
00000000
00000000
00000000
00000230
00000000
00000000
00000000
00000000
00000000
00000300
00000000
00001000
00000100
00001000
00000100
00001000
00000000
00000000
00000000
00000000
00000000
00000000
00000000
,  // measure 15
00000001
00001000
00000001
00001000
00000100
00010000
00000100
00010000
00001000
01000000
00001000
01000000
00020000
00000000
00000000
00000000
,  // measure 16
10030000
00010000
10000000
00010000
00100000
00001000
00100000
00001000
00010000
00000010
00010000
00000010
00002000
00000000
00000000
00000000
,  // measure 17
00003001
00001000
00000001
00001000
00000010
00010000
00000010
00010000
00001000
00100000
00001000
00100000
00020000
00000000
00000000
00000000
,  // measure 18
10030000
00010000
10000000
00010000
01000000
00001000
01000000
00001000
00010000
00000100
00010000
00000100
00002000
00000000
00000000
00000000
,  // measure 19
00003001
00000100
00001000
00000100
00000010
00000000
00010000
00000000
00000100
00000000
00010000
00000000
00000000
00000000
00001000
00000000
,  // measure 20
0000000M
00000000
00000000
00000000
00000000
00000000
00000000
M0000000
,  // measure 21
00000000
00000000
00000000
000000M0
00000000
00000000
00000000
00000000
,  // measure 22
00000000
00000000
00000000
0M000000
00000000
00000000
00000M00
00M00000
,  // measure 23
00000M00
00000000
00000000
00M00000
00000M00
00000000
00000000
00000000
00000000
00000000
00000000
00000000
00000000
00000000
00000000
00000000
,  // measure 24
0M000000
00000000
000000M0
0M000000
00000000
000000M0
00000000
00000000
00000000
00000000
M0000000
00000000
0000000M
00000000
00000000
00000000
,  // measure 25
00001000
00010000
00001000
00010000
00001000
00010000
00001000
00010000
00001000
00010000
00001000
00010000
0M0010M0
0M0100M0
0M0010M0
0M0100M0
,  // measure 26
MM0010MM
00100000
00000100
00100000
M000010M
00100000
00000100
00100000
00000100
00100000
00000100
00100000
00000100
00100000
00000100
00100000
,  // measure 27
00000100
00010000
00001000
00010000
00001000
01000000
00010000
01000000
00010000
10000000
01000000
10000000
01000000
00100000
00010000
00100000
,  // measure 28
00010000
01000000
00100000
01000000
00010000
00100000
00001000
00010000
00000010
00000100
00001000
00000100
00000001
00001000
00000100
00000001
,  // measure 29
00000100
00000010
00000100
00000010
00000001
00001000
00000001
00001000
00000010
00010000
00000010
00010000
00001000
00100000
00001000
00100000
,  // measure 30
00010000
10000000
00100000
01000000
00010000
00100000
01000000
00100000
00010000
10000000
01000000
00010000
01000000
00100000
00010000
01000000
,  // measure 31
00100000
10000000
00100000
10000000
00010000
01000000
00010000
01000000
00001000
00010000
00001000
00010000
00000100
00001000
00000100
00001000
,  // measure 32
00000001
00000010
00000100
00001000
00000010
00000100
00000001
00000010
00000100
00000001
00000100
00001000
00000010
00000100
00000010
00000001
,  // measure 33
00000010
00000100
00000010
00000100
00000001
00001000
00000001
00001000
00000100
00010000
00000100
00010000
00001000
01000000
00001000
01000000
,  // measure 34
00010000
10000000
00100000
10000000
00010000
00100000
00010000
10000000
01000000
10000000
00010000
01000000
00010000
00100000
00001000
00100000
,  // measure 35
00001000
00010000
00001000
00010000
00001000
00010000
00001000
00010000
00001000
00010000
00001000
00010000
00000010
00010000
00000010
00010000
,  // measure 36
00000010
00100000
00000010
00100000
00000010
00100000
00000010
00100000
00000010
00010000
00001000
00100000
00000010
00010000
00001000
01000000
,  // measure 37
00000100
01000000
00000100
01000000
00000100
01000000
00000100
01000000
00000100
01000000
00000100
01000000
00000001
01000000
00000001
01000000
,  // measure 38
00000001
10000000
00000001
10000000
00000001
10000000
00000001
10000000
00000001
01000000
00000010
00100000
00000100
00010000
00001000
00100000
,  // measure 39
M0000100
00100000
00000100
00100000
0M000100
00100000
00000100
00100000
000M0100
00100000
00000100
00100000
00000010
01000000
00000010
01000000
,  // measure 40
00001000
00010000
00000100
00001000
00000010
00000100
00001000
00000100
00000010
00001000
00000001
00000010
00001000
00000010
00000100
00010000
,  // measure 41
00001000
00100000
10000000
00100000
00001000
00000010
00000001
00000100
,  // measure 42
00000020
00002030
00000000
00003000
;

//---------------dance-double - ----------------
#NOTES:
     dance-double:
     :
     Hard:
     11:
     0.758,0.908,0.000,0.191,0.938,349.000,0.000,13.000,79.000,0.000,0.000,0.758,0.908,0.000,0.191,0.938,349.000,0.000,13.000,79.000,0.000,0.000: // measure 0
M0000000
M0000000
M0000000
M0000000
,  // measure 1
M0000000
00000000
M0000000
00000000
M0000000
00000000
M0000000
00000000
M0000000
00000000
M0000000
00000000
,  // measure 2
M0000000
M0000000
M0000000
M0000000
M0000000
M0000000
M0000000
M0000000
,  // measure 3
M0000000
M0000000
M0000000
M0000000
M0000000
M0000000
M0000000
M0000000
M0000000
M0000000
M0000000
M0000000
,  // measure 4
M0000000
M0000000
M0000000
M0000000
M0000000
M0000000
M0000000
M0000000
M0000000
M0000000
M0000000
M0000000
M0000000
M0000000
M0000000
M0000000
,  // measure 5
M0001000
00010000
00000100
00000010
00000100
00001000
00000010
00000001
,  // measure 6
00000010
00000000
00001000
00000001
00001000
00000001
00001000
00000001
00001000
00000001
00001000
00000100
00010000
00000100
00010000
00000100
,  // measure 7
00010000
00001000
00100000
01000000
00010000
01000000
10000000
00010000
,  // measure 8
01000000
00010000
01000000
00010000
01000000
00010000
01000000
00010000
00000000
10000000
00100000
10000000
00100000
10000000
00100000
10000000
,  // measure 9
00010000
00100000
01000000
10000000
00100000
00000000
01000000
00000000
00010000
01000000
00010000
01000000
00010000
01000000
00010000
01000000
,  // measure 10
00001000
00010000
00000100
00001000
00000001
00000000
00000100
00000000
00000010
00001000
00000010
00001000
00000010
00001000
00000010
00001000
,  // measure 11
00000100
00000010
00000001
00000010
00001000
00010000
00001000
00000010
,  // measure 12
00000100
00010000
00001000
00100000
00010000
00000000
10000000
00000000
00100000
10000000
00100000
10000000
00100000
10000000
00100000
10000000
,  // measure 13
00200000
00000000
00000000
00000000
01300000
00000000
00010000
01000000
00000000
01000000
00001000
00000000
00010000
00000000
00000010
00000000
,  // measure 14
00002000
00000000
00000000
00003002
00000000
00000000
00000023
00000000
00000000
00000030
00000000
00000000
00000000
00000000
00000000
00000000
,  // measure 15
00000002
00000103
00001000
00010000
00001000
00000010
00002000
00000000
,  // measure 16
00023000
00130000
10000000
00100000
00010000
00001000
00020000
00000000
,  // measure 17
02030000
13000000
01000000
00010000
00001000
00000100
00000002
00000000
,  // measure 18
00000203
00000000
00001300
00000000
00010000
00000000
00000010
00001000
00000000
00000001
00000010
00000001
00000010
00000001
00000010
00000000
,  // measure 19
00000001
00000100
00000010
00001000
00000100
00000000
00010000
00000000
00000100
00000000
00010000
00000000
00000000
00000000
00001000
00000000
,  // measure 20
0000000M
00000000
00000000
00000000
00000000
00000000
00000000
M0000000
,  // measure 21
00000000
00000000
00000000
000000M0
00000000
00000000
00000000
00000000
,  // measure 22
00000000
00000000
00000000
0M000000
00000000
00000000
00000M00
00M00000
,  // measure 23
00000M00
00000000
00000000
00M00000
00000M00
00000000
00000000
00000000
00000000
00000000
00000000
00000000
00000000
00000000
00000000
00000000
,  // measure 24
0M000000
00000000
000000M0
0M000000
00000000
000000M0
00000000
00000000
00000000
00000000
M0000000
00000000
0000000M
00000000
00000000
00000000
,  // measure 25
00010000
00001000
00010000
00001000
00010000
00001000
00010000
00001000
00010000
00001000
00010000
00001000
0M0100M0
0M0010M0
0M0100M0
0M0010M0
,  // measure 26
MM1000MM
00010000
00100000
00010000
M010000M
00010000
00100000
00010000
00100000
00010000
00100000
00010000
00100000
00010000
00100000
00010000
,  // measure 27
00100000
01000000
00010000
01000000
10000000
00100000
00010000
00001000
,  // measure 28
00000010
00000000
00000100
00001000
00000100
00001000
00000001
00000100
00000001
00000100
00000010
00001000
00000010
00010000
00001000
00010000
,  // measure 29
00000100
00010000
01000000
10000000
00010000
00100000
10000000
00100000
,  // measure 30
00010000
10000000
00010000
10000000
00100000
01000000
00100000
01000000
00010000
00100000
00001000
01000000
00010000
00100000
00001000
01000000
,  // measure 31
00010000
00100000
00001000
00000010
00000001
00001000
00000100
00000001
,  // measure 32
00000100
00000010
00000100
00000010
00000001
00001000
00000001
00001000
00000010
00000100
00000001
00000010
00000001
00000100
00000010
00001000
,  // measure 33
00000010
00000100
00001000
01000000
00100000
00010000
00001000
00010000
,  // measure 34
01000000
00100000
00010000
01000000
00001000
00010000
00000100
00001000
00000010
00000100
00000001
00000010
00000100
00001000
00000010
00010000
,  // measure 35
00001000
00100000
01000000
00010000
00001000
00010000
00100000
10000000
,  // measure 36
01000000
00000000
00010000
00000000
00001000
00000000
00000010
00000000
00000100
00001000
00000010
00001000
00000100
00001000
00000010
00001000
,  // measure 37
00000100
00000001
00000100
00001000
00000010
00000100
00001000
00010000
,  // measure 38
00001000
00000000
00000010
00000000
00001000
00000000
00010000
00000000
00100000
01000000
00001000
01000000
00100000
01000000
00001000
01000000
,  // measure 39
0010000M
00010000
000010M0
00010000
01000M00
10000000
00100000
00010000
,  // measure 40
00001000
00010000
00000100
00001000
00000010
00000100
00000001
00001000
00000010
00001000
00000001
00000010
00000100
00000010
00000001
00000100
,  // measure 41
00000010
00010000
00100000
10000000
00100000
00010000
00000010
00001000
,  // measure 42
00000200
00002300
00000000
00003000
;

//---------------dance-double - ----------------
#NOTES:
     dance-double:
     :
     Medium:
     9:
     0.580,0.689,0.000,0.191,0.330,264.000,0.000,13.000,79.000,0.000,0.000,0.580,0.689,0.000,0.191,0.330,264.000,0.000,13.000,79.000,0.000,0.000: // measure 0
M0000000
M0000000
M0000000
M0000000
,  // measure 1
M0000000
00000000
M0000000
00000000
M0000000
00000000
M0000000
00000000
M0000000
00000000
M0000000
00000000
,  // measure 2
M0000000
M0000000
M0000000
M0000000
M0000000
M0000000
M0000000
M0000000
,  // measure 3
M0000000
M0000000
M0000000
M0000000
M0000000
M0000000
M0000000
M0000000
M0000000
M0000000
M0000000
M0000000
,  // measure 4
M0000000
M0000000
M0000000
M0000000
M0000000
M0000000
M0000000
M0000000
M0000000
M0000000
M0000000
M0000000
M0000000
M0000000
M0000000
M0000000
,  // measure 5
M0001000
00010000
00000100
00000010
00000100
00001000
00000001
00000100
,  // measure 6
00000010
00000100
00001000
00010000
00100000
10000000
00100000
00010000
,  // measure 7
00001000
00100000
00010000
10000000
01000000
00100000
01000000
10000000
,  // measure 8
00100000
01000000
00100000
01000000
00100000
01000000
00100000
00000000
00000000
10000000
00010000
00000000
00100000
00001000
00100000
00000000
,  // measure 9
00001000
00010000
00001000
00010000
00001000
00000000
00000010
00000000
00000100
00000000
00000001
00000000
00000100
00000000
00001000
00000000
,  // measure 10
00000010
00001000
00000010
00001000
00000010
00000000
00000100
00000000
00001000
00000000
00010000
00000000
01000000
00000000
00100000
00000000
,  // measure 11
00001000
00000010
00000001
00000010
00001000
00010000
00001000
00000010
,  // measure 12
00000100
00001000
00000100
00001000
00000100
00000000
00010000
00000000
00001000
00000000
00100000
00000000
01000000
00000000
00010000
00000000
,  // measure 13
02000000
00000000
00000000
00000000
13000000
00000000
00010000
10000000
00000000
10000000
00100000
00000000
01000000
00000000
00010000
00000000
,  // measure 14
00200000
00000000
00000000
00302000
00000000
00000000
00003020
00000000
00000000
00000000
00000030
00000000
00000000
00000000
00000000
00000000
,  // measure 15
00000200
00001300
00000010
00010000
00000100
00001000
00000020
00000000
,  // measure 16
00020030
00031000
01000000
00001000
00100000
00001000
02000000
00000000
,  // measure 17
03200000
10300000
01000000
10000000
00100000
01000000
00020000
00000000
,  // measure 18
00230000
00000000
00301000
00000000
00010000
00000000
00000010
00001000
00000000
00000001
00000100
00000001
00000100
00000001
00000100
00000000
,  // measure 19
00000010
00001000
00000010
00001000
00000010
00000000
00010000
00000000
00000100
00000000
00010000
00000000
00000000
00000000
00001000
00000000
,  // measure 20
0000000M
00000000
00000000
00000000
00000000
00000000
00000000
M0000000
,  // measure 21
00000000
00000000
00000000
000000M0
00000000
00000000
00000000
00000000
,  // measure 22
00000000
00000000
00000000
0M000000
00000000
00000000
00000M00
00M00000
,  // measure 23
00000M00
00000000
00000000
00M00000
00000M00
00000000
00000000
00000000
00000000
00000000
00000000
00000000
00000000
00000000
00000000
00000000
,  // measure 24
0M000000
00000000
000000M0
0M000000
00000000
000000M0
00000000
00000000
00000000
00000000
M0000000
00000000
0000000M
00000000
00000000
00000000
,  // measure 25
00001000
00000000
00010000
00000000
00000100
00000000
00100000
00000000
00001000
00000000
00010000
00000000
0M0001M0
0M0000M0
0M1000M0
0M0000M0
,  // measure 26
MM0010MM
00010000
M000001M
01000000
00000100
00100000
00000010
01000000
,  // measure 27
00000100
00010000
00001000
01000000
00010000
10000000
00100000
10000000
,  // measure 28
01000000
00010000
00001000
00000100
00000001
00000100
00001000
00010000
,  // measure 29
00000010
00001000
00000001
00000010
00000100
00001000
00000010
00000100
,  // measure 30
00000001
00000010
00001000
00010000
00100000
10000000
00100000
00010000
,  // measure 31
00001000
00100000
00010000
10000000
01000000
10000000
00010000
01000000
,  // measure 32
00100000
00010000
00001000
00000010
00000001
00000100
00001000
00010000
,  // measure 33
00000010
00001000
00000001
00000010
00000001
00001000
00000100
00000010
,  // measure 34
00001000
00010000
01000000
00010000
00001000
00010000
00100000
10000000
,  // measure 35
00010000
00100000
00001000
01000000
00010000
00100000
00001000
00010000
,  // measure 36
00000010
00001000
00000100
00010000
00000010
00000100
00001000
00000100
,  // measure 37
00000001
00001000
00000100
00010000
00000010
00001000
00000100
00100000
,  // measure 38
00001000
01000000
00010000
00100000
00001000
00100000
01000000
00010000
,  // measure 39
0100000M
10000000
000100M0
01000000
00001M00
00100000
00010000
01000000
,  // measure 40
00001000
00000100
00000010
00000001
00000010
00001000
00000100
00000001
,  // measure 41
00000100
00010000
01000000
10000000
01000000
00010000
00001000
00000010
,  // measure 42
00000200
00002300
00000000
00003000
;

//---------------dance-double - ----------------
#NOTES:
     dance-double:
     :
     Easy:
     7:
     0.473,0.626,0.000,0.440,0.249,196.000,0.000,30.000,79.000,0.000,0.000,0.473,0.626,0.000,0.440,0.249,196.000,0.000,30.000,79.000,0.000,0.000: // measure 0
M0000000
M0000000
M0000000
M0000000
,  // measure 1
M0000000
00000000
M0000000
00000000
M0000000
00000000
M0000000
00000000
M0000000
00000000
M0000000
00000000
,  // measure 2
M0000000
M0000000
M0000000
M0000000
M0000000
M0000000
M0000000
M0000000
,  // measure 3
M0000000
M0000000
M0000000
M0000000
M0000000
M0000000
M0000000
M0000000
M0000000
M0000000
M0000000
M0000000
,  // measure 4
M0000000
M0000000
M0000000
M0000000
M0000000
M0000000
M0000000
M0000000
M0000000
M0000000
M0000000
M0000000
M0000000
M0000000
M0000000
M0000000
,  // measure 5
M0010000
00001000
00100000
01000000
,  // measure 6
00010000
01000000
00100000
01000000
10000000
01000000
00100000
01000000
,  // measure 7
00010000
00001000
00000010
00000001
,  // measure 8
00001000
00000010
00001000
00000100
00001000
00000010
00010000
00001000
,  // measure 9
01000000
00010000
00100000
10000000
00100000
01000000
10000000
01000000
,  // measure 10
00010000
00001000
00010000
00000100
00000010
00000100
00000001
00000100
,  // measure 11
00000010
00000001
00000100
00000010
00001000
00000100
00010000
00000010
,  // measure 12
00000100
00001000
00010000
00001000
00100000
00010000
01000000
00100000
,  // measure 13
20000000
00000000
00000000
00000000
30100000
00000000
01000000
00010000
00000000
01000000
00010000
00000000
01000000
00000000
00010000
00000000
,  // measure 14
00200000
00000000
00000000
00302000
00000000
00000000
00023000
00000000
00000000
00030000
00000000
00000000
00000000
00000000
00000000
00000000
,  // measure 15
00002000
00000000
00000000
00023000
00000000
00000000
00030020
00000000
00000000
00000000
00002030
00000000
00003020
00000000
00000000
00000000
,  // measure 16
00000230
00000000
00000000
00000302
00000000
00000000
00002003
00000000
00000000
00000000
00003200
00000000
00020300
00000000
00000000
00000000
,  // measure 17
00032000
00000000
00000000
00203000
00000000
00000000
00320000
00000000
00000000
00000000
20030000
00000000
30200000
00000000
00000000
00000000
,  // measure 18
02300000
00000000
00000000
03010000
01000000
00000000
01000000
00001000
00000000
00001000
00010000
00000000
00000100
00000000
00000010
00000000
,  // measure 19
00001000
00000010
00000001
00001000
00000010
00010000
00000000
00001000
,  // measure 20
0000000M
00000000
00000000
00000000
00000000
00000000
00000000
M0000000
,  // measure 21
00000000
00000000
00000000
000000M0
00000000
00000000
00000000
00000000
,  // measure 22
00000000
00000000
00000000
0M000000
00000000
00000000
00000M00
00M00000
,  // measure 23
00000M00
00000000
00000000
00M00000
00000M00
00000000
00000000
00000000
00000000
00000000
00000000
00000000
00000000
00000000
00000000
00000000
,  // measure 24
0M000000
00000000
000000M0
0M000000
00000000
000000M0
00000000
00000000
00000000
00000000
M0000000
00000000
0000000M
00000000
00000000
00000000
,  // measure 25
00001000
00000000
00010000
00000000
00001000
00000000
00010000
00000000
00001000
00000000
00010000
00000000
0M0010M0
0M0000M0
0M0100M0
0M0000M0
,  // measure 26
MM0010MM
00100000
M000010M
00100000
00000100
00100000
00000100
00100000
,  // measure 27
00001000
01000000
00100000
00010000
,  // measure 28
00100000
10000000
00010000
10000000
00100000
01000000
00001000
00010000
,  // measure 29
00000010
00001000
00000100
00000001
,  // measure 30
00000100
00000010
00000001
00000010
00000100
00010000
00001000
00100000
,  // measure 31
00010000
10000000
01000000
00010000
,  // measure 32
01000000
00100000
00010000
00100000
01000000
00100000
00001000
00010000
,  // measure 33
00000100
00001000
00000001
00000100
,  // measure 34
00001000
00000100
00000010
00000100
00001000
00000100
00000001
00001000
,  // measure 35
00000200
00000000
00000000
00020300
,  // measure 36
00032000
00000000
00000000
00000000
00103000
00010000
01000000
00010000
,  // measure 37
00200000
00000000
00000000
00320000
,  // measure 38
20030000
00000000
00000000
00000000
30100000
10000000
01000000
10000000
,  // measure 39
0020000M
000000M0
00000M00
02300000
,  // measure 40
03010000
00100000
00001000
00010000
00000100
00001000
00000100
00000010
,  // measure 41
00000001
00001000
00000010
00000100
00000001
00001000
00000100
00000010
,  // measure 42
00000002
00002003
00000000
00003000
;
