#TITLE:Sicillian Sun;
#SUBTITLE:;
#ARTIST:OSTER Project;
#TITLETRANSLIT:;
#SUBTITLETRANSLIT:;
#ARTISTTRANSLIT:;
#GENRE:;
#CREDIT:;
#BANNER:sicilian_sun_bn.png;
#BACKGROUND:sicilian_sun_bg.png;
#LYRICSPATH:;
#CDTITLE:;
#MUSIC:Sicillian Sun.ogg;
#OFFSET:0.543000;
#SAMPLESTART:43.940002;
#SAMPLELENGTH:11.459999;
#SELECTABLE:YES;
#BPMS:0.000000=123.999996;
#STOPS:;
#DELAYS:;
#TIMESIGNATURES:0.000000=4=4
;
#BGCHANGES:;
#KEYSOUNDS:;
#ATTACKS:;

//---------------dance-double - Kyzentun----------------
#NOTES:
     dance-double:
     Kyzentun:
     Challenge:
     12:
     0.930,0.969,0.008,0.595,1.000,735.000,1.000,74.000,0.000,0.000,0.000,0.000,0.930,0.969,0.008,0.595,1.000,735.000,1.000,74.000,0.000,0.000,0.000,0.000: // measure 1
00000000
00000000
00000000
00000000
,  // measure 2
00000000
00000000
00000000
00000000
,  // measure 3
00000000
00000000
00000000
00000000
,  // measure 4
00000000
00000000
00000000
00000000
,  // measure 5
00000000
00000000
00000000
00000000
00000000
00000000
00010000
00001000
00010000
00000000
00001000
00000000
02000000
00000000
00000000
00000000
03100000
00000000
01000000
00000000
00000000
00000000
01000000
00000000
00000000
00000000
00001000
00010000
00001000
00000000
00010000
00000000
,  // measure 6
00000100
00000000
00000010
00000000
00000200
00000000
00000000
00000000
00001300
00000000
00000001
00000000
00000000
00000000
00000100
00000010
00000200
00000000
00000000
00000000
00000300
00000000
00000010
00000000
00000100
00000000
00001000
00000000
00020000
00000000
00000000
00000000
,  // measure 7
00031000
00100000
00000000
00100000
01000000
10000000
00100000
01000000
10000000
01000000
00200000
00000000
01300000
00001000
00000000
00000000
,  // measure 8
00000000
00000000
00000000
00000000
00000000
00000000
00010000
00001000
00010000
00000000
00000100
00000000
00002000
00000000
00000000
00000000
00003001
00000000
00000100
00000000
00000000
00000000
00000100
00000000
00000000
00000000
00000010
00000100
00000010
00000000
00001000
00000000
,  // measure 9
00000001
00000000
00000100
00000000
00002000
00000000
00000000
00000000
00013000
00000000
00001000
00000000
00000000
00000000
00001000
01000000
00002000
00000000
00000000
00000000
00003000
00000000
01000000
00000000
10000000
00000000
01000000
00000000
00020000
00000000
00000000
00000000
,  // measure 10
00130000
00001000
00000000
00001000
00000010
00000001
00001000
00000010
00000100
00001000
00000200
00000000
00000310
00010000
00000000
00000000
,  // measure 11
00000000
00000000
00000000
00000000
00000000
00000000
00001000
00010000
00001000
00000000
00100000
00000000
02000000
00000000
00000000
00000000
03010000
00000000
01000000
00000000
00000000
00000000
01000000
00000000
00000000
00000000
10000000
01000000
10000000
00000000
00010000
00000000
,  // measure 12
01000000
00000000
00100000
00000000
00020000
00000000
00000000
00000000
00031000
00000000
00010000
00000000
00000000
00000000
00000100
00000010
00000200
00000000
00000000
00000000
00000300
00000000
00001000
00000000
00000001
00000000
00000010
00000000
00002000
00000000
00000000
00000000
,  // measure 13
00013000
00001000
00000000
00001000
00100000
00010000
01000000
10000000
01000000
00100000
20000000
00000000
30010000
00200000
00000000
00000000
,  // measure 14
00300000
00000000
00000000
00000000
00000000
00000000
00001000
00010000
00001000
00000000
00010000
00000000
00000020
00000000
00000000
00000000
00000130
00000000
00001000
00000000
00000000
00000000
00001000
00000000
00000000
00000000
00000100
00000010
00000100
00000000
00000001
00000000
,  // measure 15
00000010
00000000
00000100
00000000
00000002
00000000
00000000
00000000
00000103
00000000
00001000
00000000
00000000
00000000
00001000
00000010
00001000
00000000
00000000
00000000
00000000
00000000
00000010
00000000
00000100
00000000
00001000
00000000
00020000
00000000
00000000
00000000
,  // measure 16
00031000
01000000
00000000
01000000
00010000
01000000
10000000
01000000
00100000
10000000
00020000
00000000
00130000
01000000
00000000
00000000
,  // measure 17
00000000
00000000
00000000
00000000
00000000
00000000
00100000
00001000
00100000
00000000
00001000
00000000
00010000
00000000
00000000
00000000
00000020
00000000
00000030
00000000
00000020
00000000
00000030
00000000
00000020
00000000
00000030
00000000
00000100
00000000
00001000
00000000
,  // measure 18
00000100
00000010
00020000
00030000
00001000
00200000
00000000
00000000
00300000
00000000
00000000
00001000
00100000
01000000
00020000
00000000
,  // measure 19
00031000
00000020
00000000
00000000
00000032
00000000
00000000
00000023
00000000
00000000
00002030
00000000
00013000
00001000
00000000
00000000
,  // measure 20
00000000
00000000
00000000
00000000
00000000
00000000
00000000
00000000
00000000
00010000
00000000
00000000
00001000
00000000
00000000
01000000
00000000
00000000
00010000
00000000
10000000
00000000
00010000
00000000
10000000
00000000
00010000
00000000
10000000
00000000
00010000
00000000
10000000
00000000
00010000
00000000
01000000
00000000
00100000
00000000
20000000
00000000
00000000
00000000
00000000
00000000
30010000
00000000
,  // measure 21
00100000
00000000
00000000
00000000
00001000
00000000
00010000
00000000
00000000
00000000
00000000
00000000
00000100
00000000
00000000
00001000
00000000
00000000
00000000
00000000
00000100
00000000
00000010
00000000
00000200
00000000
00000000
00000300
00000000
00000000
00000200
00000000
00000000
00000300
00000000
00000000
00000100
00000000
00001000
00000000
00000100
00000000
00001000
00000000
00000000
00000000
00000000
00000000
,  // measure 22
00000000
00000000
00000000
00000000
00000000
00000000
00000000
00000000
00000000
00000000
00000000
00000000
00000002
00000000
00000000
00000000
00000000
00000000
00000000
00000000
00000000
00000000
00000000
00000000
00000000
00000000
00000000
00000000
00000000
00000000
00000000
00000000
00000000
00000000
00000000
00000000
00000013
00000000
00000000
00000000
00000000
00000000
00000000
00000000
00000000
00000000
00000000
00000000
00000001
00000000
00000000
00000000
00000000
00000000
00000000
00000000
00000100
00000000
00000000
00000000
00000000
00000000
00000000
00000000
00000010
00000000
00000000
00000000
00000000
00000000
00000000
00000000
00000100
00000000
00000000
00000000
00000000
00000000
00000000
00000000
00000000
00000000
00000000
00000000
00000000
00000000
00000000
00000000
00000010
00000000
00000000
00000000
00000000
00000000
00000000
00000000
00000000
00000000
00000000
00000000
00000000
00000000
00010000
00000000
00000000
00000000
00000000
00000000
00000000
00000000
00000000
00000000
00000000
00000000
00001000
00000000
00000000
00000000
00000000
00000000
00000000
00000000
00000000
00000000
00000000
00000000
00200000
00000000
00000000
00000000
00000000
00000000
00000000
00000000
00000000
00000000
00000000
00000000
00000000
00000000
00000000
00000000
00000000
00000000
00310000
00000000
00000000
00000000
00000000
00000000
00000000
00000000
10000000
00000000
00000000
00000000
00000000
00000000
00000000
00000000
00010000
00000000
00000000
00000000
00000000
00000000
00000000
00000000
10000000
00000000
00000000
00000000
00000000
00000000
00000000
00000000
00100000
00000000
00000000
00000000
00000000
00000000
00000000
00000000
10000000
00000000
00000000
00000000
00000000
00000000
00000000
00000000
,  // measure 23
00100000
00000000
00000000
00000000
00000000
00000000
00000000
00000000
10000000
00000000
00000000
00000000
00000000
00000000
00000000
00000000
00100000
00000000
00000000
00000000
00000000
00000000
00000000
00000000
01000000
00000000
00000000
00000000
00000000
00000000
00000000
00000000
00100000
00000000
00000000
00000000
00000000
00000000
00000000
00000000
01000000
00000000
00000000
00000000
00000000
00000000
00000000
00000000
00010000
00000000
00000000
00000000
00000000
00000000
00000000
00000000
01000000
00000000
00000000
00000000
00000000
00000000
00000000
00000000
00010000
00000000
00000000
00000000
00000000
00000000
00000000
00000000
02000000
00000000
00000000
00000000
00000000
00000000
00000000
00000000
00000000
00000000
00000000
00000000
00000000
00000000
00000000
00000000
00000000
00000000
00010000
00000000
00000000
00000000
00000000
00000000
03000000
00000000
00000000
00000000
00000000
00000000
00000000
00000000
00000000
00000000
00000000
00000000
00010000
00000000
00000000
00000000
00000000
00000000
00000000
00000000
00000000
00000000
00000000
00000000
00010000
00000000
00000000
00000000
00000000
00000000
00000000
00000000
00000000
00000000
00000000
00000000
00000000
00000000
00000000
00000000
00000000
00000000
00000000
00000000
00000000
00000000
00000000
00000000
00100000
00000000
00000000
00000000
00000000
00000000
00000000
00000000
00000000
00000000
00000000
00000000
00000000
00000000
00000000
00000000
00000000
00000000
00000000
00000000
00000000
00000000
00000000
00000000
00100000
00000000
00000000
00000000
00000000
00000000
00000000
00000000
00000000
00000000
00000000
00000000
00001000
00000000
00000000
00000000
00000000
00000000
00010000
00000000
00000000
00000000
00000000
00000000
,  // measure 24
00001000
00000000
00010000
00000000
00000010
00000000
00000000
00000000
00000100
00000000
00001000
00000000
00000000
00000000
00010000
00000000
00000000
00000000
00001000
00010000
00001000
00000000
00000010
00000000
00000100
00000000
00001000
00000000
00000001
00000000
00000000
00000000
,  // measure 25
00000100
00000000
00000010
00000000
00000000
00000000
00001000
00000100
00002000
00000000
00000000
00000000
00000000
00000000
00003100
00000000
00010000
00000000
00001000
00000000
00100000
00000000
00000000
00000000
01000000
00000000
00010000
00000000
00000000
00000000
00010000
00000000
,  // measure 26
01000000
00000000
10000000
00000000
00010000
00000000
01000000
00000000
00100000
00000000
01000000
00000000
00010000
00000000
00000000
00000000
00100000
00000000
00002000
00000000
00000000
00000000
00000000
00000000
00003000
00000000
00000000
00000000
00000000
00000000
00010000
00000010
,  // measure 27
00010000
00000000
00000001
00000000
00001000
00000000
00000000
00000000
00000010
00000000
00000100
00000000
00000000
00000000
00001000
00000000
00000000
00000000
00000100
00000010
00000100
00000000
00000001
00000000
00000010
00000000
00000100
00000000
00001000
00000000
00000000
00000000
,  // measure 28
00000100
00000000
00010000
00000000
00000000
00000000
00001000
00100000
00002000
00000000
00000000
00000000
00003000
00000000
00100000
00000000
00010000
00000000
01000000
00000000
10000000
00000000
00000000
00000000
01000000
00000000
00100000
00000000
00000000
00000000
01000000
00000000
,  // measure 29
00010000
00100000
01000000
00010000
01000000
00100000
00001000
00000000
00010000
00000020
00000100
00000030
00000100
00000000
00000100
00000001
,  // measure 30
00001000
00000000
00000000
00000000
00000000
00000000
00000000
00000000
00000000
00000000
00000000
00000000
00000000
00000000
00000000
00000000
00000000
00000000
00000100
00000000
00000000
00000000
00000000
00000000
00000000
00000000
00000000
00000000
00000000
00000000
00000000
00000000
00000000
00000000
00000000
00000000
00001000
00000000
00000000
00000000
00000000
00000000
00000000
00000000
00000000
00000000
00000000
00000000
00000010
00000000
00000000
00000000
00000000
00000000
00000000
00000000
00000000
00000000
00000000
00000000
00010000
00000000
00000000
00000000
00000000
00000000
00000000
00000000
00000000
00000000
00000000
00000000
00000010
00000000
00000000
00010000
00000000
00000000
00000000
00000000
00000000
00000000
00000000
00000000
00000010
00000000
00000000
00000000
00000000
00000000
00000000
00000000
00000000
00000000
00000000
00000000
00000000
00000000
00000000
00000000
00000000
00000000
00000000
00000000
00000000
00000000
00000000
00000000
00010000
00000000
00000000
00000000
00000000
00000000
00000000
00000000
00000000
00000000
00000000
00000000
00000000
00000000
00000000
00000000
00000000
00000000
00000000
00000000
00000000
00000000
00000000
00000000
00001000
00000000
00000000
00000000
00000000
00000000
00000000
00000000
00000000
00000000
00000000
00000000
00100000
00000000
00000000
00000000
00000000
00000000
00000000
00000000
00010000
00000000
00000000
00000000
00000000
00000000
00000000
00000000
10000000
00000000
00000000
00000000
00000000
00000000
00000000
00000000
01000000
00000000
00000000
00000000
00000000
00000000
00000000
00000000
00000000
00000000
00000000
00000000
00100000
00000000
00000000
00000000
00000000
00000000
00000000
00000000
00000000
00000000
00000000
00000000
,  // measure 31
00000000
00000000
00100000
00000000
00010000
00000000
10000000
00000000
00100000
00000000
00000000
00000000
00000000
00000000
01000000
00100000
01000000
00000000
00001000
00000000
00000000
00000000
00010000
00000000
00000100
00000000
00001000
00000000
00000100
00000000
00010000
00000000
,  // measure 32
00000100
00001000
00000001
00000100
00000010
00000100
00000001
00000100
00000010
00001000
00000010
00010000
00000010
00001000
00000010
00010000
,  // measure 33
00001000
00000000
00000000
00000000
00000000
00000000
00000000
00000000
00000000
00000000
00000000
00000000
00100000
00000000
00000000
00000000
00000000
00000000
00000000
00000000
00000000
00000000
00000000
00000000
00010000
00000000
00000000
00000000
00000000
00000000
00000000
00000000
00000000
00000000
00000000
00000000
00100000
00000000
00000000
00001000
00000000
00000000
00000000
00000000
00000000
00000000
00000000
00000000
00000000
00000000
00000000
00000000
00000000
00000000
00000000
00000000
00000000
00000000
00000000
00000000
00100000
00000000
00000000
00000000
00000000
00000000
00000000
00000000
00000000
00000000
00000000
00000000
00001000
00000000
00000000
00000000
00000000
00000000
00000000
00000000
00100000
00000000
00000000
00000000
00000000
00000000
00000000
00000000
00001000
00000000
00000000
00000000
00000000
00000000
00000000
00000000
00100000
00000000
00000000
00000000
00000000
00000000
00000000
00000000
00010000
00000000
00000000
00000000
00000000
00000000
00000000
00000000
00100000
00000000
00000000
00000000
00000000
00000000
00000000
00000000
00010000
00000000
00000000
00000000
00000000
00000000
00000000
00000000
00100000
00000000
00000000
00000000
00000000
00000000
00000000
00000000
00010000
00000000
00000000
00000000
00000000
00000000
00000000
00000000
10000000
00000000
00000000
00000000
00000000
00000000
00000000
00000000
00010000
00000000
00000000
00000000
00000000
00000000
00000000
00000000
10000000
00000000
00000000
00000000
00000000
00000000
00000000
00000000
00100000
00000000
00000000
00000000
00000000
00000000
00000000
00000000
10000000
00000000
00000000
00000000
00000000
00000000
00000000
00000000
00100000
00000000
00000000
00000000
00000000
00000000
00000000
00000000
,  // measure 34
10000000
00000000
00100000
00000000
01000000
00000000
00100000
00000000
01000000
00000000
00010000
00000000
01000000
00000000
00010000
00000000
01000000
00000000
00010000
00000000
10000000
00000000
00010000
00000000
10000000
00000000
01000000
00000000
10000000
00000000
00000000
00000000
00000000
01000000
00000000
00000000
00000000
00000000
00000000
00100000
00000000
00000000
00001000
00000000
00000000
00000000
00000000
00000000
,  // measure 35
00000010
00000000
00000000
00000000
00000000
00000000
00000010
00000000
00000000
00000000
00000000
00000000
00000100
00000000
00000000
00000000
00000000
00000000
00001000
00000000
00000000
00000001
00000000
00000000
00001000
00000000
00000010
00000000
00001000
00000000
00000010
00000000
00001000
00000000
00000010
00000000
00000100
00000000
00000000
00000000
00000000
00000000
00000100
00000000
00000000
00000010
00000000
00000000
,  // measure 36
00001000
00000000
00000100
00000000
00010000
00000000
00000000
00000000
01000000
00000000
00100000
00000000
00000000
00000000
00010000
00000000
00000000
00000000
10000000
00100000
10000000
00000000
00100000
00000000
01000000
00000000
10000000
00000000
01000000
00000000
00000000
00000000
,  // measure 37
00010000
00000000
00100000
00000000
00000000
00000000
00001000
00010000
00002000
00000000
00000000
00000000
00003000
00000000
00010000
00000000
00000100
00000000
00000010
00000000
00000001
00000000
00000000
00000000
00000100
00000000
00000010
00000000
00000000
00000000
00000010
00000000
,  // measure 38
00010000
00001000
00100000
00010000
10000000
00100000
10000000
00000000
00001000
00020000
00000000
00000000
00000000
00030000
00000000
00000100
,  // measure 39
00001000
00000000
00000100
00000000
00000010
00000000
00000000
00000000
00000001
00000000
00001000
00000000
00000000
00000000
00000010
00000000
00000000
00000000
00000100
00000010
00000100
00000000
00001000
00000000
00010000
00000000
00001000
00000000
00100000
00000000
00000000
00000000
,  // measure 40
01000000
00000000
10000000
00000000
00000000
00000000
00010000
01000000
00020000
00000000
00000000
00000000
00030000
00000000
01000000
00000000
00001000
00000000
00010000
00000000
00000100
00000000
00000000
00000000
00000010
00000000
00000001
00000000
00000000
00000000
00000001
00000000
,  // measure 41
00000100
00000000
00001000
00000000
00000100
00000000
00000010
00000000
00010000
00000000
00001000
00000000
00020000
00000000
00000000
00000000
00031000
00000000
00100000
00000000
00000000
00000000
00000000
00000000
00010000
00000000
00000000
00000000
00010000
00000000
00100000
01000000
,  // measure 42
00100000
00010000
20000000
00000000
30200000
00000000
00320000
00000000
00032000
00000000
00003010
00000001
00001000
00000010
00000200
00000000
,  // measure 43
00001300
00000000
00000000
00000000
00020000
00000000
00000000
00000000
00000000
00000000
00000000
00000000
00000000
00000000
00000000
00000000
00030000
00000000
00000000
00000000
00000000
00001000
00000000
00000000
01000000
00000000
00000000
00010000
00000000
00000000
02000000
00000000
00000000
00000000
00000000
00000000
00000000
00000000
00000000
03020000
00000000
00000000
00000000
00000000
00000000
00000000
00000000
00000000
,  // measure 44
00030200
00000000
00000000
00000302
00000000
00000000
00000023
00000000
00000130
00020000
00000000
00000000
00000000
00000000
00030000
00000100
,  // measure 45
00001000
00000000
00000000
00000100
00000000
00000000
00010000
00000000
00001000
00000000
00010000
00000000
00001000
00000000
00100000
00000000
00001000
00000000
00100000
00000000
00001000
00000000
00100000
00000000
00010000
00000000
00100000
00000000
00010000
00000000
10000000
00000000
00010000
00000000
10000000
00000000
00020000
00000000
00000000
00000000
01030000
00000000
00200000
00000000
00000000
00000000
00000000
00000000
,  // measure 46
00320000
00000000
00000000
00000000
00031000
00000000
00000000
00000000
00000010
00000000
00000100
00000000
00002000
00000000
00000000
00000000
00000000
00000000
00003200
00000000
00000000
00000000
00000000
00000000
00010300
00000000
00001000
00000000
00010000
00000000
00002000
00000000
00000000
00000000
00000000
00000000
00003000
00000000
00000000
00200000
00000000
00000000
00000000
00000000
00000000
00310000
00000000
00000000
,  // measure 47
10000000
00000000
00000000
00000000
00000000
00000000
00000000
00000000
00100000
00000000
00000000
00000000
00000000
00000000
00000000
00000000
01000000
00000000
00000000
00000000
00000000
00000000
00000000
00000000
00010000
00000000
00000000
00000000
00000000
00000000
00000000
00000000
00000000
00000000
00000000
00000000
00000000
00000000
00000000
00000000
01000000
00000000
00000000
00000000
00000000
00000000
00000000
00000000
00000000
00000000
00000000
00000000
00000000
00000000
00001000
00000000
00000000
00000000
00000000
00000000
00000000
00000000
00000000
00000000
00000000
00000000
00010000
00000000
00000000
00000000
00000000
00000000
00000000
00000000
00000000
00000000
00000000
00000000
00002000
00000000
00000000
00000000
00000000
00000000
00000000
00000000
00000000
00000000
00000000
00000000
00000000
00000000
00000000
00000000
00000000
00000000
00103000
00000000
00000000
00000000
00000000
00000000
00000000
00000000
00001000
00000000
00000000
00000000
00000000
00000000
00000000
00000000
00100000
00000000
00000000
00000000
00000000
00000000
00000000
00000000
00001000
00000000
00000000
00000000
00000000
00000000
00000000
00000000
00010000
00000000
00000000
00000000
00000000
00000000
00000000
00000000
00000100
00000000
00000000
00000000
00000000
00000000
00000000
00000000
00010000
00000000
00000000
00000000
00000000
00000000
00000000
00000000
00000100
00000000
00000000
00000000
00000000
00000000
00000000
00000000
00001000
00000000
00000000
00000000
00000000
00000000
00000000
00000000
00000001
00000000
00000000
00000000
00000000
00000000
00000000
00000000
00001000
00000000
00000000
00000000
00000000
00000000
00000000
00000000
00000001
00000000
00000000
00000000
00000000
00000000
00000000
00000000
,  // measure 48
00000010
00000000
00000000
00000000
00000000
00000000
00000000
00000000
00000100
00000000
00000000
00000000
00000000
00000000
00000000
00000000
00000010
00000000
00000000
00000000
00000000
00000000
00000000
00000000
00000200
00000000
00000000
00000000
00000000
00000000
00000000
00000000
00000000
00000000
00000000
00000000
00000000
00000000
00000000
00000000
00000000
00000000
00000000
00000000
00000000
00000000
00000000
00000000
00000000
00000000
00000000
00000000
00000000
00000000
00000000
00000000
00000000
00000000
00000000
00000000
00000000
00000000
00000000
00000000
00000000
00000000
00000000
00000000
00000000
00000000
00000000
00000000
00000000
00000000
00000000
00000000
00000000
00000000
00000000
00000000
00000000
00000000
00000000
00000000
00000000
00000000
00000000
00000000
00000000
00000000
00000000
00000000
00000000
00000000
00000000
00000000
00000310
00000000
00000000
00000000
00000000
00000000
00000000
00000000
00000000
00000000
00000000
00000000
00000000
00000000
00000000
00000000
00000000
00000000
00000000
00000000
00000000
00000000
00000000
00000000
00000010
00000000
00000000
00000000
00000000
00000000
00000000
00000000
00000000
00000000
00000000
00000000
00000100
00000000
00000000
00000000
00000000
00000000
00001000
00000000
00000000
00000000
00000000
00000000
00000100
00000000
00000000
00000000
00000000
00000000
00000000
00000000
00000000
00000000
00000000
00000000
00010000
00000000
00000000
00000000
00000000
00000000
00000000
00000000
00000000
00000000
00000000
00000000
00001000
00000000
00000000
00000000
00000000
00000000
00000000
00000000
00000000
00000000
00000000
00000000
00000000
00000000
00000000
00000000
00000000
00000000
00000000
00000000
00000000
00000000
00000000
00000000
,  // measure 49
00100000
00000000
01000000
00000000
00000000
00000000
00010000
00000000
00000000
00000000
01000000
10000000
01000000
00000000
10000000
00000000
00010000
00000000
01000000
00000000
00100000
00000000
00000000
00000000
00010000
00000000
00001000
00000000
00000000
00000000
00001000
00010000
,  // measure 50
00002000
00000000
00003000
00010000
00000100
00001000
00000100
00000000
00000010
00000001
00000000
00000001
00000100
00001000
00000100
00000010
,  // measure 51
00001000
00000000
00000010
00000000
00010000
00000000
00000000
00000000
00001000
00000000
00200000
00000000
00000000
00000000
00000000
00000000
00300000
00000000
00000000
00000000
00000000
00000000
00010000
00100000
00010000
00000000
10000000
00000000
00100000
00000000
00000000
00000000
,  // measure 52
10000000
00000000
01000000
00000000
00000000
00000000
00010000
00000000
00000000
00000000
00001000
00010000
00001000
00000000
00010000
00000000
00000010
00000000
00000100
00000000
00000010
00000000
00000000
00000000
00001000
00000000
00000001
00000000
00000000
00000000
00000001
00000010
,  // measure 53
00000002
00000000
00000003
00000010
00000100
00010000
00001000
00000000
01000000
00010000
00000000
00010000
10000000
01000000
00100000
01000000
,  // measure 54
00010000
00000000
01000000
00000000
00100000
00000000
00000000
00000000
00001000
00000000
00020000
00000000
00000000
00000000
00030000
00000000
00001000
00000000
00000000
00000000
00001000
00000000
00010000
00000010
00010000
00000000
00000010
00000000
00000100
00000000
00000000
00000000
,  // measure 55
00001000
00000000
00000100
00000000
00000000
00000000
00000010
00000000
00000000
00000000
00001000
00000001
00001000
00000000
00000100
00000000
00000010
00000000
00000100
00000000
00001000
00000000
00000000
00000000
00000100
00000000
00010000
00000000
00000000
00000000
00001000
00100000
,  // measure 56
00002000
00000000
00000000
00103000
00010000
00100000
01000000
00000000
01000000
00010000
00000000
00010000
01000000
10000000
00010000
01000000
,  // measure 57
00100000
00000000
00010000
00000000
00100000
00000000
00000000
00000000
00010000
00000000
00002000
00000000
00000000
00000000
00000000
00000000
00003000
00000000
00000000
00000000
00000000
00000000
00010000
00000100
00010000
00000000
00000100
00000000
00001000
00000000
00000000
00000000
,  // measure 58
00000010
00000000
00000100
00000000
00000000
00000000
00001000
00000000
00000000
00000000
00010000
00001000
00010000
00000000
01000000
00000000
10000000
00000000
00010000
00000000
00100000
00000000
00000000
00000000
00001000
00000000
00010000
00000000
00000000
00000000
00010000
00000010
,  // measure 59
00020000
00000000
00030000
00000001
00000010
00000100
00001000
00000000
00000010
00000100
00000000
00000100
00001000
00010000
00001000
00100000
,  // measure 60
00010000
00100000
00020000
00000000
10030000
02000000
00000000
00000000
03100000
00001000
00000000
00001000
00000010
00000000
00000010
00000001
,  // measure 61
00000000
00000001
00000010
00000000
00000010
00001000
00000000
00001000
00010000
00000000
00010000
01000000
00000000
01000000
10000000
00000000
,  // measure 62
10000000
00000000
00000000
00100000
00000000
00000000
00000000
00000000
00000000
00100000
00000000
00000000
00010000
00000000
00000000
00000000
00000000
00000000
00001000
00000000
00010000
00000000
00001000
00000000
00010000
00000000
00001000
00000000
00010000
00000000
00001000
00000000
00010000
00000000
00001000
00000000
00010000
00000000
00000000
00000000
00000000
00000000
00011000
00000000
00000000
00000000
00000000
00000000
;
