#TITLE:Phantom of Blue;
#SUBTITLE:(MWOK);
#ARTIST:古代祐三;
#TITLETRANSLIT:;
#SUBTITLETRANSLIT:;
#ARTISTTRANSLIT:Yuzo Koshiro;
#GENRE:;
#CREDIT:;
#BANNER:;
#BACKGROUND:;
#LYRICSPATH:;
#CDTITLE:;
#MUSIC:Phantom of Blue (142.99, -.070).ogg;
#OFFSET:-0.070;
#SAMPLESTART:51.853;
#SAMPLELENGTH:12.000;
#SELECTABLE:YES;
#BPMS:0.000=142.990,60.000=71.495,68.000=142.990,252.000=71.495;
#STOPS:;
#TIMESIGNATURES:0.000=4=4
;
#BGCHANGES:;
#KEYSOUNDS:;

//---------------dance-double - Kyzentun----------------
#NOTES:
     dance-double:
     Kyzentun:
     Challenge:
     12:
     0.772,0.980,0.000,0.052,1.000,619.000,0.000,6.000,29.000,0.000,2.000,0.000,-1.000,-1.000,0.772,0.980,0.000,0.052,1.000,619.000,0.000,6.000,29.000,0.000,2.000,0.000,-1.000,-1.000:
00000000
00000000
00000000
00000000
,
00000000
00000000
00000000
00000000
,
00000000
00000000
00000000
00000000
,
00000000
00000000
00000000
00000000
,
00000000
00000000
00000000
00000000
,
00000000
00000000
00000000
00000000
,
00000000
00000000
00000000
00000000
,
00000000
00000000
00000000
00000000
00000000
00000000
00000000
00000000
00000000
00000000
00000000
00000000
00000000
00000000
00000000
00000000
00000000
00000000
00001000
00010000
00001000
00010000
00001000
00010000
,
MM0010MM
00010000
00000000
00000100
00000000
00001000
00000001
00000000
00000001
00000100
00000000
00000010
00000000
00010000
00001000
00000000
,
00001000
00100000
00000000
01000000
00000000
10000000
00100000
00000000
00100000
01000000
00000000
10000000
00000000
01000000
00010000
00000000
,
00010000
00100000
00000000
00001000
00000000
00010000
00000010
00000000
00001000
00000100
00000000
00000010
00000000
00000100
00010000
00000000
,
00001000
00100000
00000000
01000000
00000000
10000000
00100000
00000000
01000000
00010000
00000000
10000000
00000000
01000000
00100000
00000000
,
00001000
00010000
00000000
00000100
00000000
00001000
00000010
00000000
00000100
00001000
00000000
00000100
00000000
00000010
00010000
00000000
,
00000100
00010000
00000000
01000000
00000000
10000000
00010000
00000000
01000000
10000000
00000000
01000000
00000000
00100000
10000000
00000000
,
00010000
01000000
00010000
01000000
00010000
01000000
00010000
01000000
00010000
01000000
00010000
01000000
00040000
04000000
00000000
00000000
00000000
00000000
00000000
00000000
00000000
00000000
00000000
00000000
,
03030000
00000000
00000000
00000000
00000000
00000000
00000000
00000000
00000000
000000M0
00000000
00000M00
M0000000
00000000
0000000M
00000000
,
000000M0
00000000
00000000
00000000
00000000
00000000
00000000
00000000
00000000
00000000
00000000
00000000
0000M000
00000000
00000000
00000000
00000000
00000000
000000M0
00000000
00000000
00000000
00000000
00000000
00000000
00000000
00000000
00000000
00000000
00000000
00000000
00000000
00000000
00000000
00000000
00000000
00000000
00000000
00000000
00000000
00000000
00000000
00000000
00000000
00000000
00000000
00000000
00000000
0000000M
00000000
00000000
00000000
00000000
00000000
00000000
00000000
00000000
00000000
00000000
00000000
M0000000
00000000
00000000
00000000
00000000
00000000
0000000M
00000000
00000000
00000000
00000000
00000000
00000000
00000000
00000000
00000000
00000000
00000000
00000000
00000000
00000000
00000000
00000000
00000000
00000000
00000000
00000000
00000000
00000000
00000000
00000000
00000000
00000000
00000000
00000000
00000000
00000000
00000000
00000000
00000000
00000000
00000000
00000000
00000000
00000000
00000000
00000000
00000000
00000000
00000000
00000000
00000000
00000000
00000000
00000000
00000000
00000000
00000000
00000000
00000000
00000000
00000000
00000000
00000000
00000000
00000000
00000000
00000000
00010000
00000000
00000000
00000000
01000000
00000000
00000000
00000000
00010000
00000000
00000000
00000000
01000000
00000000
00000000
00000000
00010000
00000000
00000000
00000000
01000000
00000000
00000000
00000000
00010000
00000000
00000000
00000000
01000000
00000000
00000000
00000000
00010000
00000000
00000000
00000000
01000000
00000000
00000000
00000000
00010000
00000000
00000000
00000000
01000000
00000000
00000000
00000000
00010000
00000000
00000000
00000000
01000000
00000000
00000000
00000000
00010000
00000000
00000000
00000000
01000000
00000000
00000000
00000000
,
00020000
00000000
00000000
00000000
,
00000000
00000000
00000000
00030000
,
00200000
00000000
00000000
00000000
,
00300200
00000000
00000000
00000300
,
00001000
00000001
00000000
00000100
00000000
00000010
00001000
00000000
00001000
00000010
00000000
00010000
00000000
00001000
00100000
00000000
,
00100000
01000000
00000000
10000000
00000000
00010000
01000000
00000000
01000000
00100000
00000000
00010000
00000000
00001000
00010000
00000000
,
00010000
00000100
00000000
00000010
00000000
00000001
00000100
00000000
00000100
00001000
00000000
00010000
00000000
00100000
01000000
00000000
,
01000000
10000000
00000000
01000000
00000000
00100000
01000000
00000000
01000000
00001000
0000000M
0001000M
0000000M
00000010
00001000
00000000
,
00001000
00000001
00001000
00000001
00001000
00000001
00001000
00000001
00000010
00000100
00000010
00000100
00000010
00000100
00000010
00000100
,
00010000
00001000
00010000
00001000
00100000
00010000
00100000
00010000
10000000
00100000
10000000
00100000
01000000
00010000
01000000
00010000
,
10000000
01000000
00100000
00010000
01000000
00001000
00010000
00000100
00001000
00000010
00000100
00000001
00000100
00000010
00001000
00000100
,
00010000
00001000
00010000
00001000
00010000
00001000
00010000
00001000
00010000
00001000
00010000
00001000
00010000
00001000
00010000
00001000
00010000
00001000
00010000
00001000
00010000
00001000
00010000
00001000
,
MM0100MM
00001000
00000000
00100000
00000000
00010000
00100000
01000000
10000000
00010000
00000000
01000000
00000000
00100000
01000000
00001000
,
00010000
00000100
00000000
00001000
00000000
00000001
00000100
00000010
00001000
00000001
00000000
00000010
00000000
00001000
00010000
00001000
,
00100000
00010000
00000000
10000000
00000000
00100000
01000000
10000000
01000000
00100000
00000000
10000000
00000000
00010000
01000000
00001000
,
00010000
00000100
00000000
00001000
00000000
00000010
00000001
00000010
00000100
00000001
00000000
00001000
00000000
00000010
00010000
00001000
,
00100000
00010000
00000000
10000000
00000000
01000000
00010000
01000000
00100000
00010000
00000000
01000000
00000000
00001000
00010000
00000010
,
00001000
00000010
00000000
00000100
00000000
00001000
00000100
00000001
00000100
00000010
00000000
00010000
00000000
00001000
00100000
00010000
,
00100000
10000000
00000000
00100000
00000000
00010000
01000000
00100000
01000000
00001000
00000000
00010000
00000000
00000010
00000100
00000001
,
00000100
00001000
00000000
00010000
00000000
00100000
01000000
10000000
01000000
00010000
00000000
10000000
00000000
01000000
00100000
00010000
,
10000000
01000000
10000000
01000000
00100000
00001000
00100000
00001000
00010000
00000100
00010000
00000100
00001000
00000001
00001000
00000001
,
00000100
00000010
00000100
00000010
00010000
00001000
00010000
00001000
01000000
00010000
01000000
00010000
10000000
00100000
10000000
00100000
,
10000000
01000000
00100000
00001000
00010000
00000010
00000100
00000001
00001000
00000001
00000100
00000010
00010000
00001000
00100000
01000000
,
10000000
00100000
01000000
00001000
00010000
00000100
00000010
00000001
00001000
00000001
00000010
00000100
00010000
00001000
01000000
00100000
,
10000000
01000000
10000000
00010000
10000000
01000000
10000000
00100000
01000000
00100000
00010000
00100000
10000000
00100000
01000000
00001000
,
01000000
00010000
01000000
00100000
01000000
00001000
00010000
00001000
00100000
00001000
00010000
00001000
00000010
00000100
00000010
00000001
,
00000100
00000001
00000100
00001000
00000100
00001000
00010000
00001000
00010000
01000000
00010000
01000000
10000000
01000000
10000000
00100000
,
10000000
00100000
00010000
00100000
00010000
00001000
00010000
00001000
00000010
00001000
00000010
00000100
00000010
00000100
00010000
00000100
,
MM0100MM
00001000
00000000
00100000
00000000
01000000
10000000
00000000
10000000
00100000
00000000
00010000
00000000
00001000
00000010
00000000
,
00000010
00000100
00000000
00001000
00000000
00000001
00000100
00000000
00000100
00000010
00000000
00010000
00000000
00001000
00100000
00000000
,
00100000
01000000
00000000
10000000
00000000
00100000
00010000
00000000
00001000
00010000
00000000
00000100
00000000
00000010
00001000
00000000
,
00000010
00000100
00000000
00010000
00000000
00001000
01000000
00000000
00100000
10000000
00000000
01000000
00000000
00010000
00001000
00000000
,
00100000
00010000
00000000
01000000
00000000
00001000
00010000
00000000
00000100
00000010
00000000
00001000
00000000
00000010
00000001
00000000
,
00000100
00001000
00000000
00010000
00000000
00100000
10000000
00000000
00010000
01000000
00000000
00100000
00000000
00010000
00001000
00000000
,
00000010
00000100
00000000
00001000
00000000
00000001
00000100
00000000
00001000
00010000
00000000
00100000
00000000
00010000
00001000
00000000
,
01000000
00100000
00000000
10000000
00000000
01000000
00010000
00000000
00001000
00010000
00000000
00000100
00000000
00000010
00001000
00000000
,
00010000
00001000
01000000
00100000
01000000
00100000
10000000
01000000
,
10000000
00000000
00000000
01000000
00000000
00000000
00100000
00000000
00000000
01000000
00000000
00000000
00100000
00000000
00000000
00001000
00000000
00000000
00010000
00000000
00000000
00001000
00000000
00000000
00010000
00000000
00001000
00000000
00010000
00000000
00001000
00000000
00010000
00000000
00001000
00000000
00010000
00000000
00001000
00000000
00010000
00000000
00001000
00000000
00010000
00000000
00001000
00000000
,
00020000
00000000
00000000
00000000
,
00000000
00000000
00000000
00030000
,
00000200
00000000
00000000
00000000
,
00000320
00000000
00000000
00000000
,
00000031
00001000
00000001
00001000
00000001
00001000
00000001
00001000
00000010
00000100
00000010
00000100
00000010
00000100
00000010
00000100
,
00001000
00010000
00001000
00010000
00100000
01000000
00100000
01000000
00010000
10000000
00010000
10000000
01000000
00100000
01000000
00100000
,
00001000
00010000
00000010
00001000
00000001
00000100
00000010
00001000
00000100
00010000
00001000
00100000
00010000
01000000
00100000
01000000
,
00001000
00010000
00001000
00010000
00001000
00010000
00001000
00010000
00001000
00010000
00001000
00010000
00001000
00010000
00001000
00010000
00001000
00010000
00001000
00010000
00001000
00010000
00001000
00010000
,
MM0010MM
00000000
00000000
00000000
;

//---------------dance-double - Kyzentun----------------
#NOTES:
     dance-double:
     Kyzentun:
     Hard:
     9:
     0.606,0.817,0.000,0.069,0.877,483.000,0.000,8.000,29.000,0.000,8.000,0.000,-1.000,-1.000,0.606,0.817,0.000,0.069,0.877,483.000,0.000,8.000,29.000,0.000,8.000,0.000,-1.000,-1.000:
00000000
00000000
00000000
00000000
,
00000000
00000000
00000000
00000000
,
00000000
00000000
00000000
00000000
,
00000000
00000000
00000000
00000000
,
00000000
00000000
00000000
00000000
,
00000000
00000000
00000000
00000000
,
00000000
00000000
00000000
00000000
,
00000000
00000000
00000000
00000000
00000000
00020000
00000000
00000000
,
MM0310MM
00100000
00000000
00100000
00000000
00100000
00010000
00000000
00010000
10000000
00000000
10000000
00000000
10000000
00100000
00000000
,
00100000
01000000
00000000
01000000
00000000
01000000
00001000
00000000
00001000
00010000
00000000
00010000
00000000
00010000
00000010
00000000
,
00000010
00000100
00000000
00000001
00000000
00001000
00000100
00000000
00000100
00010000
00000000
00001000
00000000
01000000
00010000
00000000
,
00010000
00100000
00000000
01000000
00000000
10000000
00100000
00000000
00100000
01000000
00000000
00001000
00000000
00010000
00000100
00000000
,
00000100
00000010
00000000
00000001
00000000
00000100
00000010
00000000
00010000
00001000
00000000
01000000
00000000
00100000
10000000
00000000
,
00010000
01000000
00000000
00001000
00000000
00010000
00000100
00000000
00000010
00000001
00000000
00000100
00000000
00001000
00010000
00000000
,
00004000
04000000
00000000
00000000
00000000
00000000
00000000
00000000
00000000
00000000
00000000
00000000
00000000
00000000
00000000
00000000
00000000
00000000
00000000
00000000
00000000
00000000
00000000
00000000
,
03003000
00000000
00000000
00000000
00000000
00000000
00000000
00000000
00000000
000000M0
00000000
00000M00
M0000000
00000000
0000000M
00000000
,
000000M0
00000000
00M00000
000000M0
00000000
00000000
00000000
00000000
0000000M
00000000
M0000000
0000000M
00000000
00000000
00000000
00000000
00000000
00000000
00000000
00000000
00000000
00000000
00000000
00000000
02000000
00000000
00000000
00000000
00000000
00000000
00000000
00000000
,
03020000
00000000
00000000
00000000
,
00000000
00000000
00000000
00030000
,
00200000
00000000
00000000
00000000
,
00300200
00000000
00000000
00000300
,
00001000
00000001
00001000
00000000
00000100
00010000
00000100
00000000
00010000
00001000
00010000
00000000
00001000
00100000
00001000
00000000
,
10000000
00010000
10000000
00000000
00100000
01000000
00100000
00000000
01000000
00001000
01000000
00000000
00000100
00010000
00000100
00000000
,
00001000
00000010
00001000
00000000
00000010
00000100
00000010
00000000
00000100
00001000
00000100
00000000
00001000
00010000
00001000
00000000
,
00100000
01000000
00100000
00000000
00010000
01000000
00010000
00000000
01000000
00100000
0100000M
0000000M
0000100M
00010000
00001000
00000000
,
00010000
00000100
00010000
00000100
00010000
00000100
00010000
00000000
00000010
00000100
00000010
00000100
00000010
00000100
00000010
00000000
,
00010000
00001000
00010000
00001000
00010000
00001000
00010000
00000000
00100000
01000000
00100000
01000000
00100000
01000000
00100000
00000000
,
10000000
01000000
10000000
01000000
10000000
01000000
10000000
01000000
00100000
00001000
00100000
00001000
00100000
00001000
00100000
00001000
,
00040000
00004000
00000000
00000000
00000000
00000000
00000000
00000000
00000000
00000000
00000000
00000000
00000000
00000000
00000000
00000000
00000000
00000000
00000000
00000000
00000000
00000000
00000000
00003000
,
MM0300MM
00000000
00000100
00000000
00000010
00000000
00000001
00000100
00000001
00000000
00000100
00000000
00010000
00000000
01000000
00100000
,
01000000
00000000
00010000
00000000
00100000
00000000
01000000
10000000
01000000
00000000
00010000
00000000
00001000
00000000
00000010
00000100
,
00000010
00000000
00000001
00000000
00000010
00000000
00001000
00010000
00001000
00000000
00000100
00000000
00001000
00000000
00010000
00100000
,
00010000
00000000
00001000
00000000
00100000
00000000
01000000
10000000
01000000
00000000
00010000
00000000
00000100
00000000
00000010
00000001
,
00000010
00000000
00000100
00000000
00010000
00000000
00001000
01000000
00010000
00000000
10000000
00000000
01000000
00000000
00100000
00001000
,
00010000
00000000
00000010
00000000
00000100
00000000
00001000
00000100
00000001
00000000
00000010
00000000
00001000
00000000
00010000
00001000
,
01000000
00000000
00100000
00000000
10000000
00000000
01000000
00010000
00001000
00000000
00000010
00000000
00000001
00000000
00000010
00000001
,
00001000
00000000
00000100
00000000
00010000
00000000
00001000
00100000
01000000
00000000
10000000
00000000
00010000
00000000
01000000
00001000
,
00010000
00000010
00010000
00000010
00010000
00000010
00010000
00000010
00010000
00000000
00000010
00000000
00000100
00000000
00000001
00000000
,
00000100
00001000
00000100
00001000
00000100
00001000
00000100
00001000
00000100
00000000
00001000
00000000
00010000
00000000
01000000
00000000
,
10000000
00010000
10000000
00010000
10000000
00010000
10000000
00010000
10000000
00000000
00100000
00000000
00010000
00000000
00001000
00000000
,
00000010
00000001
00000010
00000001
00000010
00000001
00000010
00000001
00000010
00000000
00001000
00000000
00010000
00000000
00001000
00000000
,
00000100
00000010
00000100
00001000
00000100
00000010
00000100
00001000
00000100
00000000
00000010
00000000
00010000
00000000
00001000
00000000
,
01000000
00100000
01000000
10000000
01000000
00100000
01000000
10000000
01000000
00000000
00010000
00000000
00100000
00000000
01000000
00000000
,
00010000
00001000
00010000
00000100
00010000
00001000
00010000
00000100
00010000
00000000
00001000
00000000
00000010
00000000
00000100
00000000
,
00001000
00000010
00001000
00000100
00001000
00000010
00001000
00000100
00001000
00000000
00000010
00000000
00000100
00000000
00001000
00000000
,
MM0100MM
00001000
00000000
00001000
00000000
00001000
00100000
00000000
00100000
01000000
00000000
01000000
00000000
01000000
10000000
00000000
,
10000000
00100000
00000000
00100000
00000000
00100000
00010000
00000000
00010000
00001000
00000000
00001000
00000000
00001000
00000010
00000000
,
00000010
00000001
00000000
00000001
00000000
00000001
00001000
00000000
00001000
00000010
00000000
00000010
00000000
00000010
00000100
00000000
,
00000100
00001000
00000000
00001000
00000000
00001000
00010000
00000000
00010000
00100000
00000000
00100000
00000000
00100000
00010000
00000000
,
00010000
00001000
00000000
01000000
00000000
00100000
10000000
00000000
10000000
00010000
00000000
00100000
00000000
00001000
00010000
00000000
,
00010000
00000100
00000000
00000010
00000000
00000001
00001000
00000000
00001000
00000010
00000000
00000100
00000000
00001000
00010000
00000000
,
00010000
01000000
00000000
00100000
00000000
00010000
01000000
00000000
01000000
10000000
00000000
01000000
00000000
00010000
00100000
00000000
,
00100000
00001000
00000000
00010000
00000000
00000100
00000010
00000000
00000010
00001000
00000000
00000010
00000000
00000001
00000100
00000000
,
00000100
00001000
00010000
01000000
10000000
00100000
00010000
00001000
,
00000010
00000000
00000000
00000001
00000000
00000000
00000010
00000000
00000000
00000001
00000000
00000000
00000010
00000000
00000000
00000001
00000000
00000000
00000010
00000000
00000000
00000001
00000000
00000000
00000040
00000000
00000400
00000000
00000000
00000000
00000000
00000000
00000000
00000000
00000000
00000000
00000000
00000000
00000000
00000000
00000000
00000000
00000000
00000000
00000030
00000000
00000000
00000000
,
00002300
00000000
00000000
00000000
,
00000000
00000000
00000000
00003000
,
00000200
00000000
00000000
00000000
,
00000320
00000000
00000000
00000000
,
00000031
00001000
00000001
00001000
00000001
00001000
00000001
00000000
00000010
00000100
00000010
00000100
00000010
00000100
00000010
00000000
,
00001000
00010000
00001000
00010000
00001000
00010000
00001000
00000000
01000000
00100000
01000000
00100000
01000000
00100000
01000000
00000000
,
00100000
10000000
00100000
10000000
00100000
10000000
00100000
10000000
00001000
00010000
00001000
00010000
00001000
00010000
00001000
00010000
,
00004000
00040000
00000000
00000000
00000000
00000000
00000000
00000000
00000000
00000000
00000000
00000000
00000000
00000000
00000000
00000000
00000000
00000000
00000000
00000000
00000000
00000000
00000000
00000000
,
MM0330MM
00000000
00000000
00000000
;

//---------------dance-double - Kyzentun----------------
#NOTES:
     dance-double:
     Kyzentun:
     Medium:
     8:
     0.411,0.436,0.000,0.069,0.411,325.000,0.000,8.000,29.000,0.000,8.000,0.000,-1.000,-1.000,0.411,0.436,0.000,0.069,0.411,325.000,0.000,8.000,29.000,0.000,8.000,0.000,-1.000,-1.000: // measure 1
00000000
00000000
00000000
00000000
,  // measure 2
00000000
00000000
00000000
00000000
,  // measure 3
00000000
00000000
00000000
00000000
,  // measure 4
00000000
00000000
00000000
00000000
,  // measure 5
00000000
00000000
00000000
00000000
,  // measure 6
00000000
00000000
00000000
00000000
,  // measure 7
00000000
00000000
00000000
00000000
,  // measure 8
00000000
00000000
00000000
00000000
00000000
00002000
00000000
00000000
,  // measure 9
MM0130MM
00000100
00000000
00000100
00000000
00000100
00000000
00000000
00000010
00000001
00000000
00000001
00000000
00000001
00000000
00000000
,  // measure 10
00001000
00000010
00000000
00000010
00000000
00000010
00000000
00000000
00010000
00000100
00000000
00000100
00000000
00000100
00000000
00000000
,  // measure 11
01000000
00001000
00000000
00010000
00000000
00100000
00000000
00000000
10000000
00010000
00000000
00100000
00000000
01000000
00000000
00000000
,  // measure 12
00100000
00001000
00000000
00010000
00000000
00000010
00000000
00000000
00000100
00000001
00000000
00001000
00000000
00000100
00000000
00000000
,  // measure 13
00010000
00001000
00000000
00100000
00000000
01000000
00000000
00000000
10000000
00100000
00000000
00010000
00000000
00001000
00000000
00000000
,  // measure 14
00010000
00000100
00000000
00000001
00000000
00000100
00000000
00000000
00000010
00000001
00000000
00010000
00000000
00001000
00000000
00000000
,  // measure 15
00004000
04000000
00000000
00000000
00000000
00000000
00000000
00000000
00000000
00000000
00000000
00000000
00000000
00000000
00000000
00000000
,  // measure 16
03003000
00000000
00000000
00000000
00000000
00000000
00000000
00000000
00000000
000000M0
00000000
00000M00
M0000000
00000000
0000000M
00000000
,  // measure 17
000000M0
00000000
00M00000
000000M0
00000000
00000000
00000000
00000000
0000000M
00000000
M0000000
0000000M
00000000
00000000
00000000
00000000
00000000
00000000
00000000
00000000
00000000
00000000
00000000
00000000
02000000
00000000
00000000
00000000
00000000
00000000
00000000
00000000
,  // measure 18
03020000
00000000
00000000
00000000
,  // measure 19
00000000
00000000
00000000
00030000
,  // measure 20
00200000
00000000
00000000
00000000
,  // measure 21
00300200
00000000
00000000
00000300
,  // measure 22
00001000
00000100
00000010
00000000
00000010
00000100
00010000
00000000
,  // measure 23
00001000
01000000
00100000
00000000
00100000
10000000
01000000
00000000
,  // measure 24
00100000
00001000
00010000
00000000
00010000
00000100
00000010
00000000
,  // measure 25
00000001
00000000
00000100
00000000
00000010
00000000
00000000
00000000
00000010
00000000
0001000M
0000000M
0000100M
00000000
00000000
00000000
,  // measure 26
00010000
00100000
10000000
00100000
01000000
00001000
00010000
00000100
,  // measure 27
00000010
00000001
00000010
00001000
00010000
01000000
10000000
00010000
,  // measure 28
01000000
00100000
00010000
00001000
00000010
00000100
00010000
00001000
,  // measure 29
00040000
00004000
00000000
00000000
00000000
00000000
00000000
00000000
00000000
00000000
00000000
00000000
00000000
00000000
00000000
00003000
,  // measure 30
MM0300MM
00000100
00001000
00000100
00000010
00000000
00000010
00000001
,  // measure 31
00001000
00000001
00000100
00000000
00000010
00010000
00001000
00010000
,  // measure 32
00000100
00000000
00000100
01000000
00010000
01000000
00100000
00000000
,  // measure 33
10000000
00100000
00010000
00100000
10000000
00000000
10000000
01000000
,  // measure 34
00010000
01000000
00100000
00000000
00001000
00010000
00000100
00010000
,  // measure 35
00001000
00000000
00001000
00000010
00000001
00000010
00001000
00000000
,  // measure 36
00010000
00000100
00000010
00000100
00000001
00000000
00000001
00000100
,  // measure 37
00001000
00000100
00010000
00000000
00001000
01000000
00100000
10000000
,  // measure 38
00010000
01000000
00010000
01000000
00001000
00010000
00001000
00010000
,  // measure 39
00000100
00001000
00000100
00001000
00000001
00000100
00000001
00000100
,  // measure 40
00001000
00010000
00001000
00010000
01000000
10000000
01000000
10000000
,  // measure 41
00100000
00010000
00100000
00010000
00001000
00000100
00001000
00000100
,  // measure 42
00000010
00001000
00000001
00000010
00000100
00010000
00001000
00010000
,  // measure 43
01000000
00100000
10000000
00100000
00010000
01000000
00100000
01000000
,  // measure 44
00001000
00010000
00001000
00000100
00000010
00001000
00000001
00000010
,  // measure 45
00000100
00010000
00001000
00100000
01000000
10000000
01000000
00010000
,  // measure 46
MM0010MM
00010000
00000000
00010000
00000000
00010000
00000000
00000000
00000010
00001000
00000000
00001000
00000000
00001000
00000000
00000000
,  // measure 47
00000001
00000100
00000000
00000100
00000000
00000100
00000000
00000000
00001000
00010000
00000000
00010000
00000000
00010000
00000000
00000000
,  // measure 48
00100000
01000000
00000000
01000000
00000000
01000000
00000000
00000000
00010000
00100000
00000000
00100000
00000000
00100000
00000000
00000000
,  // measure 49
01000000
00100000
00000000
00001000
00000000
00010000
00000000
00000000
00000010
00000100
00000000
00001000
00000000
00000100
00000000
00000000
,  // measure 50
00000010
00001000
00000000
00000001
00000000
00000010
00000000
00000000
00001000
00010000
00000000
00000100
00000000
00010000
00000000
00000000
,  // measure 51
00001000
01000000
00000000
00100000
00000000
10000000
00000000
00000000
00100000
01000000
00000000
10000000
00000000
01000000
00000000
00000000
,  // measure 52
00010000
00100000
00000000
00001000
00000000
00010000
00000000
00000000
00000100
00000010
00000000
00001000
00000000
00000010
00000000
00000000
,  // measure 53
00000001
00000100
00000000
00001000
00000000
00010000
00000000
00000000
01000000
10000000
00000000
00010000
00000000
00100000
00000000
00000000
,  // measure 54
00001000
00010000
01000000
10000000
00100000
00010000
00001000
00000100
,  // measure 55
00000040
00000000
00000000
00000400
00000000
00000000
00000000
00000000
00000000
00000000
00000000
00000000
00000000
00000000
00000000
00000000
00000000
00000000
00000000
00000000
00000000
00000000
00000000
00000000
00000000
00000000
00000000
00000000
00000000
00000000
00000000
00000000
00000000
00000000
00000000
00000000
00000000
00000000
00000000
00000000
00000000
00000000
00000000
00000000
00000030
00000000
00000000
00000000
,  // measure 56
00002300
00000000
00000000
00000000
,  // measure 57
00000000
00000000
00000000
00003000
,  // measure 58
00020000
00000000
00000000
00000000
,  // measure 59
00230000
00000000
00000000
00000000
,  // measure 60
01300000
10000000
01000000
00100000
00010000
00001000
00000010
00000001
,  // measure 61
00000010
00001000
00010000
00001000
00000100
00001000
00010000
00100000
,  // measure 62
00010000
00001000
00010000
01000000
10000000
00100000
00010000
00001000
,  // measure 63
00040000
00004000
00000000
00000000
00000000
00000000
00000000
00000000
00000000
00000000
00000000
00000000
00000000
00000000
00000000
00000000
,  // measure 64
MM0330MM
00000000
00000000
00000000
;

//---------------dance-double - Kyzentun----------------
#NOTES:
     dance-double:
     Kyzentun:
     Easy:
     6:
     0.295,0.381,0.000,0.086,0.030,229.000,0.000,10.000,29.000,0.000,0.000,0.000,-1.000,-1.000,0.295,0.381,0.000,0.086,0.030,229.000,0.000,10.000,29.000,0.000,0.000,0.000,-1.000,-1.000: // measure 1
00000000
00000000
00000000
00000000
,  // measure 2
00000000
00000000
00000000
00000000
,  // measure 3
00000000
00000000
00000000
00000000
,  // measure 4
00000000
00000000
00000000
00000000
,  // measure 5
00000000
00000000
00000000
00000000
,  // measure 6
00000000
00000000
00000000
00000000
,  // measure 7
00000000
00000000
00000000
00000000
,  // measure 8
00000000
00000000
00000000
00000000
,  // measure 9
MM0100MM
00010000
00010000
00000000
00000100
00000100
00000100
00000000
,  // measure 10
00001000
00001000
00001000
00000000
00000001
00000001
00000001
00000000
,  // measure 11
00001000
00001000
00001000
00000000
00000100
00000100
00000100
00000000
,  // measure 12
00010000
00010000
00010000
00000000
00001000
00001000
00001000
00000000
,  // measure 13
01000000
00010000
01000000
00000000
00010000
10000000
00010000
00000000
,  // measure 14
10000000
01000000
10000000
00000000
01000000
00100000
01000000
00000000
,  // measure 15
00200000
00000000
00000000
00000000
,  // measure 16
00300000
00000000
00000000
00000000
00000000
00000000
00000000
00000000
00000000
000000M0
00000000
00000M00
M0000000
00000000
0000000M
00000000
,  // measure 17
000000M0
00000000
0000M000
000000M0
00000000
00000000
00000000
00000000
0000000M
00000000
M0000000
0000000M
00000000
00000000
00000000
00000000
00000000
00000000
00000000
00000000
00000000
00000000
00000000
00000000
00000000
00000000
00000000
00000000
00000000
00000000
00000000
00000000
,  // measure 18
00020000
00000000
00000000
00000000
,  // measure 19
00000000
00000000
00000000
00030000
,  // measure 20
00200000
00000000
00000000
00000000
,  // measure 21
00302000
00000000
00000000
00003000
,  // measure 22
00010000
00000100
00001000
00000001
,  // measure 23
00000100
00000010
00010000
00001000
,  // measure 24
00100000
01000000
10000000
00010000
,  // measure 25
01000000
00000000
00000000
00000000
00100000
00000000
00000000
00000000
00010000
00000000
0000000M
0000000M
0000100M
00000000
00000000
00000000
,  // measure 26
00010000
00000100
00010000
00000000
00000100
00001000
00000100
00000000
,  // measure 27
00001000
00000001
00001000
00000000
00000001
00000010
00000001
00000000
,  // measure 28
00000010
00000100
00000010
00000000
00000100
00010000
00000100
00000000
,  // measure 29
00020000
00000000
00000000
00000000
,  // measure 30
MM0300MM
00001000
00100000
01000000
,  // measure 31
10000000
00100000
10000000
01000000
,  // measure 32
00010000
00001000
00000100
00000001
,  // measure 33
00000010
00000001
00000100
00001000
,  // measure 34
00010000
00001000
00000010
00000100
,  // measure 35
00010000
00001000
00010000
00100000
,  // measure 36
01000000
00010000
10000000
00100000
,  // measure 37
00010000
00001000
00000010
00000100
,  // measure 38
00001000
00000100
00001000
00000000
00000100
00000000
00010000
00000000
,  // measure 39
00001000
00100000
00001000
00000000
00100000
00000000
01000000
00000000
,  // measure 40
10000000
00010000
10000000
00000000
00010000
00000000
01000000
00000000
,  // measure 41
00100000
10000000
00100000
00000000
10000000
00000000
01000000
00000000
,  // measure 42
00010000
00001000
00010000
00000000
00001000
00000000
00010000
00000000
,  // measure 43
00000010
00000100
00000010
00000000
00001000
00000000
00000001
00000000
,  // measure 44
00000010
00000100
00000010
00000000
00000100
00000000
00010000
00000000
,  // measure 45
00001000
00010000
00001000
00000000
00100000
00000000
00001000
00000000
,  // measure 46
MM0100MM
00010000
00010000
00000000
00001000
00001000
00001000
00000000
,  // measure 47
01000000
01000000
01000000
00000000
00100000
00100000
00100000
00000000
,  // measure 48
10000000
10000000
10000000
00000000
01000000
01000000
01000000
00000000
,  // measure 49
00100000
00100000
00100000
00000000
00001000
00001000
00001000
00000000
,  // measure 50
00010000
00000010
00010000
00000000
00000010
00000100
00000010
00000000
,  // measure 51
00000100
00000001
00000100
00000000
00000001
00000010
00000001
00000000
,  // measure 52
00000010
00000100
00000010
00000000
00000100
00010000
00000100
00000000
,  // measure 53
00010000
00001000
00010000
00000000
00001000
01000000
00001000
00000000
,  // measure 54
01000000
00100000
01000000
00100000
01000000
00100000
01000000
00100000
,  // measure 55
10000000
00100000
10000000
00100000
20000000
00000000
00000000
00000000
,  // measure 56
32000000
00000000
00000000
00000000
,  // measure 57
00000000
00000000
00000000
03000000
,  // measure 58
00200000
00000000
00000000
00000000
,  // measure 59
00302000
00000000
00000000
00000000
,  // measure 60
00013000
00000100
00010000
00000000
00000100
00000010
00000100
00000000
,  // measure 61
00000010
00000001
00000010
00000000
00000100
00010000
00000100
00000000
,  // measure 62
00010000
00001000
00010000
00000000
00001000
00100000
00001000
00000000
,  // measure 63
00020000
00000000
00000000
00000000
,  // measure 64
MM0300MM
00000000
00000000
00000000
;
