#TITLE:Merriment In Morlia;
#SUBTITLE:Tales of Phantasia OC Remix;
#ARTIST:klm09;
#TITLETRANSLIT:;
#SUBTITLETRANSLIT:;
#ARTISTTRANSLIT:;
#GENRE:Game;
#CREDIT:Steps, Kyzentun - Sync, x0_000;
#BANNER:;
#BACKGROUND:;
#LYRICSPATH:;
#CDTITLE:;
#MUSIC:Tales_of_Phantasia_Merriment_In_Morlia_OC_ReMix.ogg;
#OFFSET:-0.063;
#SAMPLESTART:60.009;
#SAMPLELENGTH:10.000;
#SELECTABLE:YES;
#BPMS:0.000=151.929;
#STOPS:;
#TIMESIGNATURES:0.000=4=4
;
#BGCHANGES:;
#KEYSOUNDS:;

//---------------dance-single - Kyzentun----------------
#NOTES:
     dance-single:
     Kyzentun:
     Hard:
     11:
     0.832,1.000,0.048,0.006,0.965,1790.000,15.000,2.000,56.000,0.000,0.000,0.832,1.000,0.048,0.006,0.965,1790.000,15.000,2.000,56.000,0.000,0.000: // measure 1
0000
0000
0000
0000
0000
0000
0000
0000
0000
0000
M000
0000
0M00
00M0
0000
00M0
,  // measure 2
0M00
0000
M000
0000
0M00
00M0
0000
00M0
0M00
0000
M000
0000
0M00
00M0
0000
00M0
,  // measure 3
0M00
0000
1000
0000
0100
0010
0000
0010
0100
0000
1000
0000
0100
0010
0000
0010
,  // measure 4
0100
0000
1000
0000
0100
0010
0000
0010
0100
0000
1000
0000
0100
0010
0000
0010
,  // measure 5
0100
0000
10M0
0000
0001
0100
00M0
0100
0001
0000
10M0
0000
0001
0100
00M0
0100
,  // measure 6
0001
0000
10M0
0000
0001
0100
00M0
0100
0001
0000
10M0
0000
0001
0100
00M0
0100
,  // measure 7
0001
0000
10M0
0000
0001
0100
00M0
0100
0001
0000
10M0
0000
0001
0100
00M0
0100
,  // measure 8
0001
0000
10M0
0000
0001
0100
00M0
0100
0001
0000
10M0
0000
0001
0000
01M1
0000
,  // measure 9
0101
00M0
0100
0010
0001
0010
1000
0001
,  // measure 10
0010
0100
0001
0100
1000
0001
0100
0010
,  // measure 11
1000
0100
0001
0100
0010
0001
0100
0010
,  // measure 12
0001
0010
1000
0001
0010
1000
0010
0100
,  // measure 13
1000
0010
0100
0001
1000
0100
0010
1000
,  // measure 14
0010
0001
0100
0010
0100
1000
0100
0001
,  // measure 15
1000
0000
0100
0000
0010
0100
0010
0100
0010
0001
0010
0001
1000
0001
1000
0001
,  // measure 16
1000
0000
0000
0010
0000
0000
1000
0000
0000
0010
0000
0000
0100
0000
0000
0010
0000
0000
0100
0000
0000
0010
0000
0000
0100
0000
0001
0000
0100
0000
0001
0000
0100
0000
0001
0000
0100
0000
0001
0000
0100
0000
0001
0000
0100
0000
0001
0000
,  // measure 17
M1M0
0101
0000
0110
,  // measure 18
0000
0000
1010
0000
0000
1001
1001
0000
,  // measure 19
0000
1100
0000
0110
,  // measure 20
0000
0000
0011
0000
0000
0000
1100
1100
,  // measure 21
0100
1000
0100
1000
0001
0100
0001
0100
,  // measure 22
0010
1000
0010
1000
0001
0010
0001
0010
,  // measure 23
0001
1000
0001
1000
0001
1000
0001
0000
1000
0010
1000
0010
1000
0010
1000
0000
,  // measure 24
0010
0100
0010
0100
0010
0100
0010
0000
0100
0001
0100
0001
0100
0001
0100
0000
,  // measure 25
0001
0010
0001
0010
0001
0010
0001
0000
0010
0100
0010
0100
0010
0100
0010
0000
,  // measure 26
0100
1000
0100
1000
0100
1000
0100
0000
1000
0001
1000
0001
1000
0001
1000
0000
,  // measure 27
0001
0100
0010
0100
0001
0100
0010
0000
0100
0010
1000
0010
0100
0010
1000
0000
,  // measure 28
0010
1000
0001
1000
0010
1000
0001
0000
1000
0100
0010
0100
1000
0100
0010
0000
,  // measure 29
0100
0010
0001
0010
0100
0010
0001
0000
0010
0001
1000
0001
0100
0001
1000
0000
,  // measure 30
0001
0100
0010
0100
1000
0100
0010
0000
0100
0001
1000
0001
0010
0001
1000
0000
,  // measure 31
0010
0000
1000
0010
1000
0000
0001
0010
0001
0000
1000
0010
1000
0000
0001
0010
,  // measure 32
MM01
0000
0000
0000
0000
0000
0000
0000
0000
0000
0000
0000
0010
0000
0001
0010
,  // measure 33
MM01
0010
0001
0010
0001
0010
0001
0000
0010
0001
0010
0100
0010
0001
0010
0000
,  // measure 34
0001
1000
0001
0100
0001
1000
0001
0000
1000
0100
1000
0001
1000
0010
1000
0000
,  // measure 35
0010
0100
0010
1000
0010
0100
0010
0000
0100
0001
0100
0010
0100
0001
0100
0000
,  // measure 36
0001
0100
0001
1000
0001
0010
0001
0000
0010
0001
0010
0100
0010
1000
0010
0000
,  // measure 37
1000
0010
0100
0010
0001
0010
0100
0000
0010
0001
0010
0100
0010
0001
0010
0000
,  // measure 38
0001
0010
0001
1000
0001
0100
0001
0000
0100
0010
0100
1000
0100
0010
0100
0000
,  // measure 39
0010
0100
0010
0001
0010
0100
0010
0000
0100
0001
0100
0001
0100
0001
0100
0000
,  // measure 40
0001
0010
0001
0010
0001
0010
0001
0000
1000
0010
1000
0010
1000
0010
1000
0000
,  // measure 41
0100
0010
0100
0010
0100
0010
0100
0000
1000
0010
1000
0010
1000
0010
1000
0000
,  // measure 42
0001
0100
0001
0100
0001
0100
0001
0000
0010
0100
0010
0100
0010
0100
0010
0000
,  // measure 43
0001
1000
0001
1000
0001
1000
0001
0000
0100
0010
0100
0010
0100
0010
0100
0000
,  // measure 44
0010
0001
0010
0001
0010
0001
0010
0000
0001
1000
0001
1000
0001
1000
0001
0000
,  // measure 45
1000
0100
1000
0100
1000
0100
1000
0000
0100
0001
0100
0001
0100
0001
0100
0000
,  // measure 46
0001
0010
0001
0010
0001
0010
0001
0000
0010
1000
0010
1000
0010
1000
0010
0000
,  // measure 47
1000
0001
1000
0001
1000
0001
1000
0000
0001
0100
0001
0100
0001
0100
0001
0000
,  // measure 48
0100
1000
0100
1000
0100
1000
0100
0000
1000
0100
1000
0100
1000
0100
0010
0001
,  // measure 49
1MM0
0000
0000
0000
,  // measure 50
0001
0000
1000
0000
,  // measure 51
0010
0000
0000
0000
,  // measure 52
0100
0000
0001
0000
,  // measure 53
1000
0000
0000
0000
,  // measure 54
0100
0000
0010
0000
,  // measure 55
0001
0000
0000
0000
,  // measure 56
0010
0000
0001
0000
,  // measure 57
0100
0000
0000
0000
0000
0000
0000
0010
,  // measure 58
0100
0000
0001
0000
,  // measure 59
1000
0000
0000
0000
0000
0000
0000
0001
,  // measure 60
1000
0000
0100
0000
,  // measure 61
0010
0000
0001
0100
0010
0000
0000
0000
,  // measure 62
0100
0000
0010
1000
0100
0000
0000
0010
,  // measure 63
0001
0010
0001
0010
0100
0010
0100
0010
0100
1000
0100
1000
0001
1000
0001
1000
,  // measure 64
0001
0000
0000
0100
0000
0000
0001
0000
0000
0100
0000
0000
0010
0000
0000
0100
0000
0000
0010
0000
0000
0100
0000
0000
0010
0000
1000
0000
0010
0000
1000
0000
0010
0000
1000
0000
0010
0000
1000
0000
0010
0000
1000
0000
0010
0000
1000
0000
,  // measure 65
0M1M
0000
0000
0000
,  // measure 66
1000
0000
0010
0100
0000
0100
0010
0000
1000
0000
0001
0100
0000
0100
0001
0000
,  // measure 67
1000
0000
0100
0010
0000
0010
0100
0000
0010
0000
0100
1000
0000
1000
0100
0000
,  // measure 68
0010
0000
0001
1000
0000
1000
0001
0000
0010
0000
0001
0100
0000
0100
0001
0000
,  // measure 69
1000
0000
0001
0100
0000
0100
0001
0000
0100
0000
0010
1000
0000
1000
0010
0000
,  // measure 70
1000
0000
0001
0010
0000
0010
0001
0000
0010
0000
0100
1000
0000
1000
0100
0000
,  // measure 71
1000
0000
0001
0010
0000
0010
0001
0000
0100
0000
0010
1000
0000
1000
0010
0000
,  // measure 72
0100
0000
0001
1000
0000
0010
0100
0000
0001
0000
0100
0010
0000
1000
0001
0000
,  // measure 73
0100
0000
0010
1000
0000
0010
1000
0000
0010
0000
0100
0001
0000
0100
0001
0000
,  // measure 74
1000
0000
0100
0010
0000
0001
1000
0000
0001
0000
0100
0010
0000
0010
1000
0000
,  // measure 75
0100
0000
0010
0001
0000
1000
0010
0000
0100
0000
0001
1000
0000
0001
1000
0000
,  // measure 76
0010
0000
0100
0001
0000
1000
0001
0000
0010
0000
0100
0010
0000
0001
0100
0000
,  // measure 77
0010
0000
1000
0010
0000
1000
0010
0000
0100
0000
0001
1000
0000
0100
0010
0000
,  // measure 78
0001
0000
0100
0010
0000
0010
1000
0000
0100
0000
0010
0001
0000
0001
1000
0000
,  // measure 79
0100
0000
1000
0001
0000
0100
0010
0000
1000
0000
0001
0100
0000
0010
0100
0000
,  // measure 80
0010
0000
1000
0100
0000
0010
0001
0000
1000
0000
0010
0100
0000
0100
0010
0000
,  // measure 81
1000
0000
0001
0000
1000
0000
0001
0010
0001
0000
1000
0010
1000
0000
0001
0010
,  // measure 82
MM01
0000
0100
0001
0000
0001
0100
0000
0010
0000
1000
0010
0000
0010
1000
0000
,  // measure 83
0100
0000
0010
0100
0000
0100
0010
0000
0001
0000
1000
0001
0000
0001
1000
0000
,  // measure 84
0010
0000
0100
0010
0000
0100
0010
0000
0100
0000
0001
0100
0000
0001
0100
0000
,  // measure 85
0001
0000
1000
0001
0000
1000
0001
0000
1000
0000
0100
1000
0000
0100
1000
0000
,  // measure 86
0100
0000
0010
0100
0000
0010
0100
0000
0010
0000
0100
0010
0000
0100
0010
0000
,  // measure 87
0100
0000
1000
0100
0000
1000
0100
0000
1000
0000
0001
1000
0000
0001
1000
0000
,  // measure 88
0001
0000
0010
0001
0000
0010
0001
0000
0010
0000
0100
0010
0000
0100
0010
0000
,  // measure 89
0100
0000
1000
0100
0000
1000
0100
0000
1000
0000
0010
1000
0000
0010
1000
0000
,  // measure 90
0010
0000
0100
0010
0000
1000
0010
0000
0100
0000
0001
0100
0000
0010
0100
0000
,  // measure 91
0001
0000
1000
0001
0000
0010
0001
0000
1000
0000
0010
1000
0000
0001
1000
0000
,  // measure 92
0100
0000
0010
0100
0000
1000
0100
0000
0010
0000
0001
0100
0000
0010
1000
0000
,  // measure 93
0001
0000
0100
0010
0000
1000
0010
0000
1000
0000
0001
0010
0000
0100
0010
0000
,  // measure 94
0001
0000
0100
0010
0000
1000
0010
0000
0100
0000
0001
1000
0000
0001
0010
0000
,  // measure 95
0100
0000
1000
0010
0000
0010
0100
0000
0010
0000
1000
0001
0000
0001
1000
0000
,  // measure 96
0100
0000
0010
0100
0000
0100
0010
0000
1000
0001
1000
0001
0100
0010
0100
0010
,  // measure 97
1000
0000
0000
0001
0000
0000
1000
0000
0000
0001
0000
0000
0010
0000
0000
0100
0000
0000
0010
0000
0000
0100
0000
0000
1000
0000
0001
0000
1000
0000
0001
0000
1000
0000
0001
0000
1000
0000
0001
0000
1000
0000
0001
0000
1000
0000
0001
0000
,  // measure 98
1MM0
0000
0000
0000
,  // measure 99
0001
0000
0100
0000
,  // measure 100
1000
0000
0000
0000
,  // measure 101
0001
0000
0010
0000
,  // measure 102
1000
0000
0000
0000
,  // measure 103
0001
0000
0010
0000
,  // measure 104
1000
0000
0000
0000
,  // measure 105
0001
0000
0100
0000
,  // measure 106
1000
0000
0000
0000
0000
0000
0000
0001
,  // measure 107
1000
0000
0010
0000
,  // measure 108
0100
0000
0000
0000
0000
0000
0000
0010
,  // measure 109
1000
0000
0100
0000
,  // measure 110
0010
0000
0001
0100
1000
0000
0000
0000
,  // measure 111
0100
0000
1000
0100
0001
0000
0000
1000
,  // measure 112
0100
0000
0000
0000
0010
0000
0001
0000
1000
0001
1000
0001
1000
0010
0100
0010
,  // measure 113
0100
0000
0000
0010
0000
0000
0100
0000
0000
0001
0000
0000
1000
0000
0000
0001
0000
0000
1000
0000
0000
0001
0000
0000
1000
0000
0100
0000
1000
0000
0100
0000
1000
0000
0100
0000
1000
0000
0100
0000
1000
0000
0100
0000
1000
0000
0100
0000
,  // measure 114
10MM
0100
0000
0100
0010
0100
0000
0100
,  // measure 115
0000
0000
0100
0000
0000
0000
0100
0000
0000
0000
0100
1000
0000
1000
0100
0000
,  // measure 116
0010
0100
0000
0100
1000
0100
0000
0100
,  // measure 117
0010
0100
1000
0100
0010
0110
0000
1100
,  // measure 118
1000
0001
0100
0001
1000
0010
0100
0010
,  // measure 119
1000
0100
0010
0100
1000
0001
0010
0001
,  // measure 120
0100
0000
0100
0000
0001
0100
0001
0000
1000
0000
1000
0000
0100
0010
0100
0000
,  // measure 121
0010
0000
0010
0000
0001
1000
0001
0000
1000
0000
1000
0000
0010
0100
0010
0000
,  // measure 122
0100
0000
0100
0000
0001
0010
0001
0000
0010
0000
0010
0000
0100
1000
0100
0000
,  // measure 123
0010
0000
0010
0000
0001
0100
0001
0000
1000
0000
1000
0000
0010
0100
0010
0000
,  // measure 124
1000
0000
1000
0000
0001
0100
0001
0000
0010
0000
0010
0000
0100
1000
0100
0000
,  // measure 125
1000
0000
1000
0000
0010
0100
0010
0000
1000
0000
1000
0000
0001
0100
0001
0000
,  // measure 126
0010
0000
0010
0000
0100
0010
0100
0000
1000
0000
1000
0000
0001
1000
0001
0000
,  // measure 127
0100
0000
0100
0000
0010
0100
0010
0000
1000
0000
1000
0000
0010
1000
0010
0000
,  // measure 128
0100
0001
0100
0001
1000
0001
1000
0001
1000
0100
1000
0100
0010
0100
0010
0100
,  // measure 129
0010
0000
0000
0001
0000
0000
0010
0000
0000
0001
0000
0000
0100
0000
0000
0001
0000
0000
0100
0000
0000
0001
0000
0000
0100
0000
0010
0000
0100
0000
0010
0000
0100
0000
0010
0000
0100
0000
0010
0000
0100
0000
0010
0000
0100
0000
0010
0000
,  // measure 130
M10M
0000
0000
0000
0000
0000
0000
0000
0010
0000
0100
0000
0010
0100
0010
0100
,  // measure 131
0010
0000
1000
0010
0000
0010
1000
0000
0010
0000
0010
0000
1000
0001
1000
0000
,  // measure 132
0001
0000
0100
0010
0000
0010
0100
0000
0001
0000
0001
0000
1000
0010
1000
0000
,  // measure 133
0100
0000
0010
0001
0000
0001
0010
0000
0001
0000
0001
0000
1000
0100
1000
0000
,  // measure 134
0010
0000
0100
0010
0000
0010
0100
0000
0001
0000
0001
0000
0100
0010
0100
0000
,  // measure 135
0010
0000
1000
0100
0000
0100
1000
0000
0010
0000
0010
0000
0100
0001
0100
0000
,  // measure 136
0001
0000
0010
0001
0000
0001
0010
0000
0001
0000
0001
0000
0010
0001
0010
0000
,  // measure 137
0100
0000
1000
0100
0000
0100
1000
0000
0100
0000
0100
0000
1000
0100
1000
0000
,  // measure 138
0001
0000
0100
0001
0000
0001
0100
0000
0001
0000
0001
0000
0100
0001
0100
0000
,  // measure 139
0010
0000
1000
0010
0000
0010
1000
0000
0010
0000
0010
0000
1000
0010
1000
0000
,  // measure 140
0010
0000
0100
0001
0000
0001
0100
0000
0001
0000
0001
0000
1000
0100
1000
0000
,  // measure 141
0001
0000
0100
0010
0000
0010
0100
0000
0010
0000
0010
0000
1000
0100
1000
0000
,  // measure 142
0001
0000
0010
0100
0000
0100
0010
0000
0001
0000
0001
0000
1000
0010
1000
0000
,  // measure 143
0001
0000
1000
0001
0000
0001
1000
0000
0001
0000
0001
0000
1000
0001
1000
0000
,  // measure 144
0010
0000
0100
0010
0000
0010
0100
0000
0010
0000
0010
0000
0100
0010
0100
0000
,  // measure 145
0001
0000
0010
0100
0000
0100
0010
0000
0001
0000
0001
0000
1000
0010
1000
0000
,  // measure 146
0001
0000
1000
0100
1000
0000
0001
0100
0001
0000
1000
0100
1000
0000
0001
0100
,  // measure 147
M0M1
0000
0010
0100
0000
1000
0100
0000
0010
0000
0010
0000
0001
1000
0001
0000
,  // measure 148
0100
0000
0010
1000
0000
0001
1000
0000
0010
0000
0010
0000
0100
0001
0100
0000
,  // measure 149
0010
0000
1000
0100
0000
0010
0001
0000
1000
0000
1000
0000
0010
0100
0010
0000
,  // measure 150
1000
0000
0001
0010
0000
0100
0010
0000
0001
0000
0001
0000
0100
0010
0100
0000
,  // measure 151
0010
0000
1000
0001
0000
1000
0100
0000
0010
0000
0010
0000
0001
1000
0001
0000
,  // measure 152
0100
0000
0010
0100
0000
0010
0100
0000
0010
0000
0010
0000
0100
0001
0100
0000
,  // measure 153
0001
0000
1000
0001
0000
1000
0001
0000
1000
0000
1000
0000
0100
0010
0100
0000
,  // measure 154
0010
0000
0001
0010
0000
0001
0010
0000
0001
0000
0001
0000
1000
0010
1000
0000
,  // measure 155
0010
0000
0100
0001
0000
1000
0100
0000
0010
0000
0010
0000
0001
1000
0001
0000
,  // measure 156
0100
0000
0010
1000
0000
0100
0010
0000
0001
0000
0001
0000
1000
0100
1000
0000
,  // measure 157
0010
0000
0100
0001
0000
1000
0010
0000
0100
0000
0100
0000
0001
0100
0001
0000
,  // measure 158
0010
0000
0100
1000
0000
0001
0100
0000
0010
0000
0010
0000
1000
0001
1000
0000
,  // measure 159
0010
0000
0100
0001
0000
1000
0001
0000
0100
0000
0100
0000
0010
1000
0010
0000
,  // measure 160
0100
0000
0001
1000
0000
0100
0010
0000
0100
0000
0100
0000
0010
0100
0010
0000
,  // measure 161
0001
0000
0100
0010
0000
0010
0100
0000
0001
1000
0001
1000
0001
0100
0001
0100
,  // measure 162
0010
0000
0000
0100
0000
0000
0010
0000
0000
0100
0000
0000
0010
0000
0000
1000
0000
0000
0010
0000
0000
1000
0000
0000
0001
0000
1000
0000
0001
0000
1000
0000
0001
0000
1000
0000
0001
0000
1000
0000
0001
0000
1000
0000
0001
0000
1000
0000
,  // measure 163
0MM1
1000
0001
0100
0001
1000
0001
0000
1000
0100
1000
0001
1000
0100
1000
0000
,  // measure 164
0100
0010
0100
0001
0100
0010
0100
0000
0010
0001
0010
0100
0010
0001
0010
0000
,  // measure 165
0001
0010
0001
1000
0001
0100
0001
0000
0100
0010
0100
1000
0100
0010
0100
0000
,  // measure 166
0010
0100
0010
0001
0010
0100
0010
0000
0100
0010
0100
0001
0100
0010
0100
0000
,  // measure 167
0010
1000
0010
0100
0010
1000
0010
0000
1000
0010
1000
0001
1000
0010
1000
0000
,  // measure 168
0010
0100
0010
1000
0010
1000
0010
0000
1000
0001
1000
0100
1000
0100
1000
0000
,  // measure 169
0100
0010
0100
1000
0100
1000
0100
0000
1000
0100
1000
0001
1000
0001
1000
0000
,  // measure 170
0001
1000
0001
0010
0001
0010
0001
0000
0010
0001
0010
0100
0010
0100
0010
0000
,  // measure 171
0100
1000
0100
1000
0100
1000
0100
0000
1000
0001
1000
0001
1000
0001
1000
0000
,  // measure 172
0001
0100
0001
0100
0001
0100
0001
0000
0100
0010
0100
0010
0100
0010
0100
0000
,  // measure 173
0010
1000
0010
1000
0010
1000
0010
0000
1000
0001
1000
0001
1000
0001
1000
0000
,  // measure 174
0001
0000
0100
0000
,  // measure 175
0010
0000
1000
0100
0001
0000
0000
0000
,  // measure 176
0100
0000
0001
0100
1000
0000
0000
0010
,  // measure 177
0100
0000
0001
0010
1000
0000
0000
0010
,  // measure 178
0001
0000
0000
0000
1000
0100
0010
0000
0001
0000
1000
0100
1000
0000
0001
0100
,  // measure 179
M0M1
0000
0100
0010
0000
0000
0010
0000
0100
0000
0010
0000
1000
0000
0010
0000
,  // measure 180
0100
0010
1000
0001
0100
0100
0100
0100
,  // measure 181
0100
0000
0001
1000
0000
0000
0100
0000
0010
0000
0100
0000
0001
0000
0100
0000
,  // measure 182
0010
0100
1000
0010
0100
0100
0100
0100
,  // measure 183
0100
0000
0010
1000
0000
0000
0001
0000
0010
0000
0001
0000
1000
0000
0001
0000
,  // measure 184
0100
0001
0100
0010
1000
1000
1000
1000
,  // measure 185
1000
0000
0010
0100
0000
0000
0001
0000
0100
0000
0001
0000
1000
0000
0001
0000
,  // measure 186
0010
0001
0010
0100
1000
1000
1000
1000
,  // measure 187
1000
0000
0100
0010
0000
0000
0001
0000
0010
0000
0001
0000
0100
0000
0001
0000
,  // measure 188
0010
0001
1000
0010
0100
0100
0100
0100
,  // measure 189
0100
0000
0010
1000
0000
0000
0001
0000
0010
0000
0100
0000
0010
0000
1000
0000
,  // measure 190
0010
0001
1000
0100
0010
0010
0010
0010
,  // measure 191
0010
0000
0001
0010
0000
0000
0100
0000
0010
0000
1000
0000
0010
0000
0100
0000
,  // measure 192
0010
0001
1000
0001
0100
0100
0100
0100
,  // measure 193
0100
0000
0010
0100
0000
0000
0010
0000
0100
0000
1000
0000
0100
0000
0010
0000
,  // measure 194
0100
0000
0000
0000
0000
0000
0000
0000
0000
0000
0000
0000
0000
0000
0000
0000
0000
0000
0000
0000
0000
0000
0000
0000
0001
0000
0000
0000
0000
0000
0000
0000
0000
0000
0000
0000
0000
0000
0000
0000
0000
0000
0000
0000
0000
0000
0000
0000
1000
0000
0000
0000
0000
0000
0000
0000
0000
0000
0000
0000
0000
0000
0000
0000
0000
0000
0000
0000
0000
0000
0000
0000
0010
0000
0000
0000
0000
0000
0000
0000
0000
0000
0000
0000
0000
0000
0000
0000
0000
0000
0000
0000
0000
0000
0000
0000
1000
0000
0000
0000
0000
0000
0000
0000
0000
0000
0000
0000
0000
0000
0000
0000
0000
0000
0000
0000
0000
0000
0000
0000
0001
0000
0000
0000
0000
0000
1000
0000
0000
0000
0000
0000
0001
0000
0000
0000
0000
0000
0000
0000
0000
0000
0000
0000
1000
0000
0000
0000
0000
0000
0000
0000
0000
0000
0000
0000
0000
0000
0000
0000
0001
0000
0000
0000
0000
0000
0000
0000
0000
0000
0000
0000
0000
0000
0000
0000
1000
0000
0000
0000
0000
0000
0000
0000
0000
0000
0000
0000
0000
0000
0000
0000
,  // measure 195
2002
0000
0000
0000
,  // measure 196
3003
0000
0000
0000
;
