#TITLE:Mermaid Girl;
#SUBTITLE:;
#ARTIST:Cream Puff;
#TITLETRANSLIT:;
#SUBTITLETRANSLIT:;
#ARTISTTRANSLIT:;
#GENRE:;
#CREDIT:;
#BANNER:MG bn.png;
#BACKGROUND:MG bg.png;
#LYRICSPATH:;
#CDTITLE:;
#MUSIC:Mermaid Girl.ogg;
#OFFSET:-1.755000;
#SAMPLESTART:60.879002;
#SAMPLELENGTH:12.000000;
#SELECTABLE:YES;
#DISPLAYBPM:70.000000:140.000000;
#BPMS:0.000000=139.999995,176.000000=69.999998,178.000000=139.999995,182.000000=69.999998,183.000000=139.999995;
#STOPS:;
#DELAYS:;
#TIMESIGNATURES:0.000000=4=4
;
#BGCHANGES:;
#KEYSOUNDS:;
#ATTACKS:;

//---------------dance-double - Kyzentun----------------
#NOTES:
     dance-double:
     Kyzentun:
     Hard:
     8:
     0.636,1.000,0.000,1.000,0.193,408.000,0.000,134.000,48.000,0.000,0.000,0.000,0.636,1.000,0.000,1.000,0.193,408.000,0.000,134.000,48.000,0.000,0.000,0.000: // measure 1
00000000
00000000
00000000
00000000
,  // measure 2
00000000
00000000
00000000
00000000
00000000
00000000
00001000
00010000
,  // measure 3
00001000
01000000
00000000
01000000
00100000
00000000
00010000
00000000
00001000
00000000
00010000
00000000
00000100
00000000
00000000
00000000
,  // measure 4
00001000
00000100
00000010
00000100
00001000
00000010
00000100
00000000
,  // measure 5
00000100
00000000
00000010
00010000
00000000
00010000
00001000
00000000
00100000
00000000
01000000
00000000
00100000
00000000
00000000
00000000
,  // measure 6
00010000
01000000
00100000
01000000
00002000
00003000
01000000
00100000
,  // measure 7
00010000
00001000
00000000
00001000
00000010
00000000
00000100
00000000
00000010
00000000
00001000
00000000
00010000
00000000
00000000
00000000
,  // measure 8
00000100
00000010
00000100
00010000
00001000
00010000
00100000
00000000
,  // measure 9
00100000
00000000
01000000
00010000
00000000
00010000
00100000
00000000
00001000
00000000
00010000
00000000
00000100
00000000
00000000
00000000
,  // measure 10
00000100
00000000
00001000
00000010
00000000
00000010
00000100
00000000
00001000
00000000
00010000
00000000
00002000
00000000
00203000
00000000
,  // measure 11
02300000
03000000
02000000
03000000
02000000
00000000
23000000
00000000
32000000
00000000
03020000
00000000
00032000
00000000
00000000
00000000
,  // measure 12
00003020
00000030
00000020
00000030
00000020
00000000
00000032
00000000
00000023
00000000
00002030
00000000
00023000
00000000
00000000
00000000
,  // measure 13
02030000
00000000
23000000
30020000
00000000
02030000
03002000
00000000
00023000
00030000
00020000
00030000
00020000
00000000
00000000
00000000
,  // measure 14
00030020
00000230
00002300
00023000
00230000
00300000
00200000
02300000
,  // measure 15
03020000
00030000
00020000
00030000
00020000
00000000
20030000
00000000
32000000
00000000
03020000
00000000
00032000
00000000
00000000
00000000
,  // measure 16
00003200
00000300
00000200
00000300
00000200
00000000
00000320
00000000
00002030
00000000
00003002
00000000
00000023
00000000
00000000
00000000
,  // measure 17
00000230
00000000
00002300
00003200
00000000
00020300
00032000
00000000
02003000
00000000
03200000
00000000
20300000
00000000
30000000
00000000
,  // measure 18
00020000
00000000
02030000
03002000
00000000
00023000
00030200
00000000
00000320
00000000
00000032
00000000
00000023
00000000
00000030
00000000
,  // measure 19
MMMMMM00
00000000
MMMMMM00
00000000
00000000
00000000
00000001
00000010
,  // measure 20
00000100
00000000
00001000
00000000
01000000
00000000
00010000
00001000
,  // measure 21
00000100
00001000
00010000
00100000
00000000
00000000
00100000
01000000
,  // measure 22
00010000
00000000
00000100
00000000
00000010
00000000
00010000
00100000
,  // measure 23
00010000
00001000
00020000
00030000
00000000
00000000
00001000
00000010
,  // measure 24
00000100
00010000
00100000
01000000
,  // measure 25
00001000
00000000
00000010
00000000
00001000
00000000
00010000
01000000
,  // measure 26
00010000
00000000
00000100
00000000
00000010
00000000
00001000
00010000
,  // measure 27
00100000
01000000
00200000
00300000
00000000
00000000
00000000
00000000
,  // measure 28
00000000
00100000
01000000
00001000
00010000
00000100
00000010
00000000
,  // measure 29
00000000
00000100
00001000
00000200
00000000
00000300
00000000
00010000
,  // measure 30
00001000
00100000
01000000
00010000
,  // measure 31
00002000
00000000
00003000
00000000
,  // measure 32
00000000
00010000
00001000
00000100
00001000
00010000
00001000
00000010
,  // measure 33
00000100
00000000
00010000
00000000
00001000
00000000
00000000
00010000
,  // measure 34
00001000
01000000
00100000
00010000
,  // measure 35
MMM02MMM
00000000
MMM00MMM
00000000
00003000
00000000
00010000
00001000
,  // measure 36
00000010
00000100
00000000
00000100
00001000
00000000
00000010
00000000
00000100
00000000
00001000
00000000
00010000
00000000
00000000
00000000
,  // measure 37
00001000
01000000
00100000
00010000
00001000
00010000
01000000
00000000
,  // measure 38
00100000
00000000
00001000
00010000
00000000
00010000
00000100
00000000
00000010
00000000
00001000
00000000
00010000
00000000
00000000
00000000
,  // measure 39
00001000
00000100
00001000
00010000
00200000
00000000
01300000
00010000
,  // measure 40
00100000
00001000
00000000
00001000
00010000
00000000
00000010
00000000
00000100
00000000
00001000
00000000
00000100
00000000
00000000
00000000
,  // measure 41
00000010
00010000
00001000
00010000
01000000
00100000
00010000
00000000
,  // measure 42
01000000
00000000
00100000
00010000
00000000
00010000
00001000
00000000
00000100
00000000
00000010
00000000
00000100
00000000
00000000
00000000
,  // measure 43
00000010
00000000
00010000
00001000
00000000
00001000
00100000
00000000
00010000
00000000
01000000
00000000
00200000
00000000
20300000
00000000
,  // measure 44
30020000
00030000
00020000
00030000
00020000
00000000
00230000
00000000
00302000
00000000
00003020
00000000
00000230
00000000
00000300
00000000
,  // measure 45
00020000
00030000
00020000
00030000
00020000
00030000
00002000
00000000
02003000
00000000
03200000
00000000
20300000
00000000
30000000
00000000
00020000
00000000
00000000
00000000
02030000
00000000
03002000
00000000
00000000
00000000
00023000
00000000
00030020
00000000
00000000
00000000
,  // measure 46
00000230
00000000
00000000
00000000
00000302
00000000
00000000
00000000
00000023
00000000
00000000
00000000
00000030
00000000
00000000
00000000
00000002
00000003
00000002
00000003
00000020
00000000
00000230
00000000
00002300
00000000
00003000
00000000
MMMM00MM
00000000
00000000
00000000
,  // measure 47
MMMM00MM
00000000
00000000
00000000
00002000
00000000
00003200
00000000
00000320
00000000
00002030
00000000
00023000
00030000
00020000
00030000
,  // measure 48
00020000
00000000
00000000
00000000
00230000
00000000
20300000
00000000
30200000
00000000
00320000
00000000
00032000
00003000
00002000
00003000
,  // measure 49
00002000
00000000
00000000
00000000
00003020
00000000
00000032
00000203
00000000
00000320
00020030
00000000
00032000
00003000
00002000
00003000
,  // measure 50
00002000
00000000
00000000
00000000
02003000
00000000
03200000
20300000
00000000
30020000
02030000
00000000
03002000
00003000
00002000
00003000
,  // measure 51
00002000
00003000
00000000
00010000
00010000
00000000
00001000
00000100
,  // measure 52
00001000
00000000
00000000
00010000
01000000
00020000
00000000
00030000
,  // measure 53
00000000
00001000
00000020
00000000
00000230
00000000
00200300
00000000
,  // measure 54
00302000
02003000
00000000
03000000
,  // measure 55
00000000
00000000
00000000
01000000
00010000
00100000
01000000
00010000
,  // measure 56
00001000
00000100
00000010
00000000
00001000
00000000
01000000
00000000
,  // measure 57
00000000
00010000
00001000
00000000
00000100
00000000
00001000
00000000
,  // measure 58
00100000
M20MMMMM
M00MMMMM
03000000
,  // measure 59
00000000
00000000
00000000
00000000
,  // measure 60
01000000
00000000
00010000
00000000
00001000
00000010
00000000
00000010
00000100
00000000
00001000
00000000
00000010
00000000
00000100
00000000
,  // measure 61
00001000
00000000
00010000
00100000
01000000
00010000
00100000
01000000
,  // measure 62
00010000
00000000
00000000
00000000
00001000
00000000
00000100
00000010
00000000
00000010
00001000
00000000
00000100
00000000
00000010
00000000
,  // measure 63
00001000
00000000
00010000
01000000
00100000
00010000
01000000
00000000
,  // measure 64
00100000
00000000
01000000
00000000
00001000
00010000
00000000
00010000
00000100
00000000
00000010
00000000
00000100
00000000
00001000
00000000
,  // measure 65
00000010
00000000
00000100
00001000
00010000
00100000
00010000
00001000
,  // measure 66
00000100
00000000
00000000
00000000
00000010
00000000
00010000
00001000
00000000
00001000
00100000
00000000
01000000
00000000
00100000
00000000
,  // measure 67
00010000
00000000
00000000
00000000
01000000
00000000
00001000
00010000
00000000
00010000
00000100
00000000
00000010
00000000
00001000
00000000
,  // measure 68
00010000
00000000
00000000
00000000
;
