#TITLE:MATADOR;
#SUBTITLE:;
#ARTIST:cranky;
#TITLETRANSLIT:;
#SUBTITLETRANSLIT:;
#ARTISTTRANSLIT:;
#GENRE:Rave;
#CREDIT:Some rhythms reused from Daiz's singles chart.;
#BANNER:Matador.png;
#BACKGROUND:Matador-bg.png;
#LYRICSPATH:;
#CDTITLE:;
#MUSIC:Matador.ogg;
#OFFSET:0.010000;
#SAMPLESTART:15.640000;
#SAMPLELENGTH:12.440000;
#SELECTABLE:YES;
#BPMS:0.000000=167.999997;
#STOPS:;
#DELAYS:;
#TIMESIGNATURES:0.000000=4=4
;
#BGCHANGES:;
#KEYSOUNDS:;
#ATTACKS:;

//---------------dance-double - Daiz+Kyz----------------
#NOTES:
     dance-double:
     Daiz+Kyz:
     Challenge:
     12:
     0.986,1.000,0.593,0.109,1.000,628.000,60.000,11.000,0.000,0.000,0.000,0.000,0.986,1.000,0.593,0.109,1.000,628.000,60.000,11.000,0.000,0.000,0.000,0.000:
00000000
00000000
00000000
00000000
,
00000000
00000000
00000000
00000000
,
00000000
00000000
00000000
00000000
,
00000000
00000000
00000000
00000000
,
00001000
00000000
00000000
00000000
00000000
00020000
00000000
00030010
,
00000010
00000000
00000000
00000000
,
00000100
00000001
00000100
00000001
00001000
00000001
00001000
00000001
00001000
00000100
00002000
00003100
00000010
00000100
00000020
00000130
,
00000110
00000000
00000000
00000000
00000000
00000000
00000010
00000000
00000011
00000000
00000001
00001000
00000001
00001000
00000100
00001000
,
00001100
00000000
00000000
00000000
00000000
00000000
00000100
00000000
00010100
00000000
00010000
00001000
00010000
00001000
00100000
00010000
,
00110000
00000000
00000000
00000000
00000000
00000000
10000000
00010000
10010000
00000000
00000000
00000000
00000000
00000000
10000000
01000000
,
00100000
00000000
00000000
00000000
00000000
00000000
00000000
00000000
00001000
00000000
00000000
00000000
00000000
00000000
00000000
00000000
00010000
00000000
00000000
00000000
00000010
00000000
00000000
00000000
00010000
00000000
00000000
00000000
00000000
00000000
00000000
00000000
00000000
00000000
00000000
00000000
00000100
00000000
00000000
00001000
00000000
00000000
00000100
00000000
00000000
00000000
00000000
00000000
,
00000010
00000000
00000000
00000000
00000011
00000000
00000000
00000001
00000010
00000000
00001000
00000000
00010000
00000000
01000000
00000000
,
11000000
00000000
00000000
00000000
11000000
00000000
00000000
10000000
01000000
00000000
00010000
00000000
00001000
00000000
00000100
00000000
,
00000101
00000000
00000000
00000000
00000101
00000000
00000000
00000001
00000100
00000000
00001000
00000000
00010000
00000000
00100000
00000000
,
10100000
00000000
00000000
00000000
10100000
00000000
00000000
10000000
00100000
00000000
00010000
00000000
00001000
00000000
00010000
00000000
,
01000000
00000000
00000000
00000000
01100000
00000000
00000000
00100000
01000000
00000000
00010000
00000000
00000100
00000000
00000010
00000000
,
00000011
00000000
00000000
00000000
00000011
00000000
00000000
00000001
00000010
00000000
00001000
00000000
00100000
00000000
01000000
00000000
,
11000000
00000000
00000000
00000000
11000000
00000000
00000000
10000000
00100000
00000000
00010000
00000000
00000010
00000000
00000100
00000000
,
00000002
00000000
00000000
00000003
00001000
00000100
00010000
00000100
00001000
00000000
00000000
00000000
00000010
00010000
00001000
00010000
,
00000010
00000000
00000000
00000000
00000110
00000000
00000000
00000100
00001000
00000000
00010000
00000000
00001000
00000000
00000010
00000000
,
00000110
00000000
00000000
00000000
00000110
00000000
00000000
00000100
00001000
00000000
00000010
00000000
00000001
00000000
00000010
00000000
,
00000110
00000000
00000000
00000000
00000110
00000000
00000000
00000100
00000001
00000000
00001000
00000000
00000100
00000000
00000010
00000000
,
00000110
00000000
00000000
00000000
00000110
00000000
00000000
00000100
00010000
00000000
00001000
00000000
00100000
00000000
00010000
00000000
,
01000000
00000000
00000000
00000000
01100000
00000000
00000000
00100000
01000000
00000000
10000000
00000000
01000000
00000000
00010000
00000000
,
01100000
00000000
00000000
00000000
01100000
00000000
00000000
01000000
00010000
00000000
00100000
00000000
10000000
00000000
00100000
00000000
,
01100000
00000000
00000000
00000000
01100000
00000000
00000000
01000000
00010000
00000000
00001000
00000000
00010000
00000000
00000100
00000000
,
00001000
00000100
00001000
00000100
00001000
00000000
00000200
00000000
00000000
00000000
00000000
00000000
00000020
00000000
00000000
00000000
00000330
00000000
00000000
00000000
00000000
00000000
00000000
00000000
00000000
00000000
00000000
00000000
00000000
00000000
00000000
00000000
,
00000100
00001000
00000100
00001000
00000100
00001000
00000100
00001000
00000100
00001000
00000100
00001000
00000100
00001000
00000100
00001000
,
00000001
00000100
00000001
00000100
00000001
00000100
00000001
00000100
00000001
00000100
00000001
00000100
00000001
00000100
00000001
00000100
,
00000010
00001000
00000010
00001000
00000010
00001000
00000010
00001000
00000010
00010000
00000010
00010000
00000010
00100000
00000010
00100000
,
00001000
00100000
00001000
00100000
00001000
00100000
00001000
00100000
00001000
00100000
00001000
00100000
00001000
00100000
00001000
00100000
,
00010000
10000000
00010000
10000000
00010000
10000000
00010000
10000000
00010000
00100000
00010000
00100000
00010000
10000000
00010000
10000000
,
00100000
01000000
00100000
01000000
00100000
01000000
00100000
01000000
00100000
01000000
00100000
01000000
00100000
01000000
00100000
01000000
,
00010000
01000000
00010000
01000000
00010000
01000000
00010000
01000000
00010000
01000000
00010000
01000000
00010000
01000000
00010000
01000000
,
00001000
00010000
00001000
00010000
00001000
00010000
00001000
00010000
00001000
00000000
00000000
00000000
00000000
00000000
00000000
00000000
,
00010000
00000010
00010000
00000010
00010000
00000010
00010000
00000010
00010000
00000010
00010000
00000010
00010000
00000010
00010000
00000010
,
00001000
00000001
00001000
00000001
00001000
00000001
00001000
00000001
00001000
00000001
00001000
00000001
00001000
00000001
00001000
00000001
,
00000010
00000100
00000010
00000100
00000010
00000100
00000010
00000100
00000010
00000001
00000010
00000001
00000010
00000100
00000010
00000100
,
00010000
00000100
00010000
00000100
00010000
00000100
00010000
00000100
00010000
00000100
00010000
00000100
00010000
00000100
00010000
00000100
,
01000000
00001000
01000000
00001000
01000000
00001000
01000000
00001000
01000000
00010000
01000000
00010000
01000000
00100000
01000000
00100000
,
10000000
00010000
10000000
00010000
10000000
00010000
10000000
00010000
10000000
00010000
10000000
00010000
10000000
00010000
10000000
00010000
,
00100000
00001000
00100000
00001000
00100000
00001000
00100000
00001000
00100000
00001000
00100000
00001000
00100000
00001000
00100000
00001000
,
00010000
00000000
00000010
00010000
00001000
00000000
00100000
00001000
00020000
00000000
00001000
00000000
00031000
00000000
00001000
00010000
,
00001000
00000000
00000000
00000000
00001000
00000000
00000000
00000100
00000010
00000000
00000001
00000000
00000000
00000000
00000010
00000000
,
00000100
00000000
00000000
00000000
00000100
00000000
00000000
00001000
00010000
00000000
01000000
00000000
01000000
00000000
00000000
00000000
,
00100000
00000000
00000000
00000000
00100000
00000000
00000000
01000000
10000000
00000000
00100000
00000000
00000000
00000000
00010000
00000000
,
00001000
00000000
00000000
00000000
00001000
00000000
00000000
00000010
00000001
00000000
00000100
00000000
00000100
00000000
00000000
00000000
,
00000010
00000000
00000000
00000000
00000010
00000000
00000000
00010000
00001000
00000000
00000000
00000000
01000000
00000000
00000000
00100000
,
10000000
00000000
00000000
00000000
00010000
00000000
00000000
01000000
00001000
00000000
00010000
00000000
00000010
00000000
00000100
00000000
,
00000010
00001000
00000010
00001000
00000010
00001000
00000010
00001000
00000010
00001000
00000010
00001000
00000010
00001000
00000010
00001000
,
00001010
00000000
00000000
00000000
00000000
00000000
00000010
00000000
00010010
00000000
00010000
00001000
00010000
00001000
00010000
00001000
,
00011000
00000000
00000000
00000000
00000000
00000000
00100000
00000000
00110000
00000000
00010000
10000000
00010000
10000000
00010000
10000000
,
10010000
00000000
00000000
00000000
00000000
00000000
00010000
01000000
01010000
00000000
00000000
00000000
00000000
00000000
00010000
01000000
,
00100000
00000000
00000000
00000000
00000000
00000000
00000000
00000000
00010000
00000000
00000000
00000000
00000000
00000000
00000000
00000000
00001000
00000000
00000000
00000000
00010000
00000000
00000000
00000000
00001000
00000000
00000000
00000000
00000000
00000000
00000000
00000000
00000000
00000000
00000000
00000000
00001000
00000000
00000000
00010000
00000000
00000000
00001000
00000000
00000000
00000000
00000000
00000000
,
00011000
00000000
00000000
00000000
00011000
00000000
00000000
00010000
00000100
00000000
00000001
00000000
00000100
00000000
00010000
00000000
,
00010100
00000000
00000000
00000000
00001010
00000000
00000000
00000010
00000100
00000000
00001000
00000000
01000000
00000000
00100000
00000000
,
10100000
00000000
00000000
00000000
00110000
00000000
00000000
00100000
01000000
00000000
00010000
00000000
00000100
00000000
00000010
00000000
,
00000110
00000000
00000000
00000000
00001001
00000000
00000000
00000001
00000010
00000000
00000100
00000000
00010000
00000000
00000010
00000000
,
00001010
00000000
00000000
00000000
00011000
00000000
00000000
00010000
00100000
00000000
01000000
00000000
10000000
00000000
01000000
00000000
,
01001000
00000000
00000000
00000000
00101000
00000000
00000000
00001000
00000010
00000000
00000001
00000000
00000010
00000000
00000100
00000000
,
00010100
00000000
00000000
00000000
01001000
00000000
00000000
01000000
00100000
00000000
00010000
00000000
00100000
00000000
10000000
00000000
,
00020000
00000000
00000000
02030000
00000000
00000000
03001000
00010000
00000100
00000000
00010000
00001000
01000000
00000000
00000000
00000000
,
00011000
00000000
00000000
00000000
00001010
00000000
00000000
00000010
00000100
00000000
00010000
00000000
00000100
00000000
00000010
00000000
,
00010010
00000000
00000000
00000000
00101000
00000000
00000000
00100000
01000000
00000000
00001000
00000000
01000000
00000000
00100000
00000000
,
00110000
00000000
00000000
00000000
11000000
00000000
00000000
01000000
00010000
00000000
00001000
00000000
00000010
00000000
00000001
00000000
,
00001001
00000000
00000000
00000000
00000110
00000000
00000000
00000100
00001000
00000000
00010000
00000000
00100000
00000000
10000000
00000000
,
10010000
00000000
00000000
00000000
00011000
00000000
00000000
00001000
00010000
00000000
00000010
00000000
00000100
00000000
00000010
00001000
,
00000010
00001000
00000001
00001000
00000001
00001000
00000100
00010000
00000100
00010000
00001000
00010000
00001000
00010000
00001000
01000000
,
00001000
01000000
00010000
01000000
00010000
01000000
00100000
10000000
00100000
10000000
00010000
10000000
00010000
10000000
00001000
00100000
,
00001000
00000000
00100000
00001000
00100000
00001000
00200000
00000000
00000000
00000000
00000000
00000000
00320000
00000000
00000000
00000000
00000000
00000000
00000000
00000000
00030000
00000000
00000000
00000000
00000000
00000000
00000000
00000000
00000000
00000000
00000000
00000000
;

//---------------dance-double - Daiz+Kyz----------------
#NOTES:
     dance-double:
     Daiz+Kyz:
     Hard:
     9:
     0.698,0.758,0.138,0.198,0.459,461.000,14.000,20.000,0.000,8.000,0.000,0.000,0.698,0.758,0.138,0.198,0.459,461.000,14.000,20.000,0.000,8.000,0.000,0.000: // measure 1
00000000
00000000
00000000
00000000
,  // measure 2
00000000
00000000
00000000
00000000
,  // measure 3
00000000
00000000
00000000
00000000
,  // measure 4
00000000
00000000
00000000
00000000
,  // measure 5
00001000
00000000
00000000
00000000
00000000
00020000
00000000
00030010
,  // measure 6
00000010
00000000
00000000
00000000
,  // measure 7
00000100
00000000
00000000
00000000
00000000
00000001
00000000
00001000
,  // measure 8
00001100
00000000
00000000
00000100
00010100
00000000
00000000
00010000
,  // measure 9
00011000
00000000
00000000
00001000
01001000
00000000
00000000
01000000
,  // measure 10
01100000
00000000
00000000
00000000
00000000
00000000
00100000
00000000
10100000
00000000
00000000
00000000
00000000
00000000
10000000
00010000
,  // measure 11
10000000
00000000
00010000
00000000
00100000
00001000
00100000
00000000
00000000
00000000
00000000
00000000
,  // measure 12
00001000
00000000
00000000
00000000
00001000
00000000
00000000
00010000
00001000
00000000
00010000
00000000
00100000
00000000
01000000
00000000
,  // measure 13
00100000
00000000
00000000
00000000
00100000
00000000
00000000
10000000
01000000
00000000
00010000
00000000
01000000
00000000
10000000
00000000
,  // measure 14
00010000
00000000
00000000
00000000
00010000
00000000
00000000
00100000
00001000
00000000
00010000
00000000
00000100
00000000
00001000
00000000
,  // measure 15
00000100
00000000
00000000
00000000
00000100
00000000
00000000
00001000
00000001
00000000
00000010
00000000
00001000
00000000
00000010
00000000
,  // measure 16
00000100
00000000
00000000
00000000
00000100
00000000
00000000
00000010
00001000
00000000
00010000
00000000
00001000
00000000
00100000
00000000
,  // measure 17
01000000
00000000
00000000
00000000
01000000
00000000
00000000
10000000
01000000
00000000
00100000
00000000
01000000
00000000
00010000
00000000
,  // measure 18
00001000
00000000
00000000
00000000
00001000
00000000
00000000
00010000
00000010
00000000
00000100
00000000
00001000
00000000
00000100
00000000
,  // measure 19
00000002
00000000
00000000
00000200
00000000
00000000
00000020
00000000
00000000
00000000
00000000
00000000
00000333
00000000
00000000
00000000
,  // measure 20
00000001
00000000
00000000
00000000
00000001
00000000
00000000
00001000
00000100
00000000
00010000
00000000
00001000
00000000
00010000
00000000
,  // measure 21
00100000
00000000
00000000
00000000
00100000
00000000
00000000
01000000
10000000
00000000
01000000
00000000
00100000
00000000
10000000
00000000
,  // measure 22
00010000
00000000
00000000
00000000
00010000
00000000
00000000
00100000
00001000
00000000
00010000
00000000
00000100
00000000
00001000
00000000
,  // measure 23
00000100
00000000
00000000
00000000
00000100
00000000
00000000
00000010
00001000
00000000
00010000
00000000
00001000
00000000
00000010
00000000
,  // measure 24
00000100
00000000
00000000
00000000
00000100
00000000
00000000
00010000
00001000
00000000
01000000
00000000
00010000
00000000
01000000
00000000
,  // measure 25
00100000
00000000
00000000
00000000
00100000
00000000
00000000
01000000
10000000
00000000
01000000
00000000
00010000
00000000
00100000
00000000
,  // measure 26
00010000
00000000
00000000
00000000
00010000
00000000
00000000
00100000
00001000
00000000
00010000
00000000
00000100
00000000
00000010
00000000
,  // measure 27
00000200
00000000
00000000
00020000
00000000
00000000
00002000
00000000
00000000
00000000
00000000
00000000
00033300
00000000
00000000
00000000
,  // measure 28
00000100
00010000
00000100
00000000
00001000
00000100
00001000
00000000
00000001
00001000
00000001
00000000
00000100
00000000
00001000
00000000
,  // measure 29
00000100
00000010
00000100
00000000
00000010
00001000
00000010
00000000
00001000
00000001
00001000
00000000
00000100
00000000
00010000
00000000
,  // measure 30
00001000
01000000
00001000
00000000
00100000
00001000
00100000
00000000
00010000
00100000
00010000
00000000
10000000
00000000
00100000
00000000
,  // measure 31
01000000
00001000
01000000
00000000
00001000
00010000
00001000
00000000
00010000
00000010
00010000
00000000
00000010
00000000
00000100
00000000
,  // measure 32
00000001
00001000
00000001
00000000
00000010
00000001
00000010
00000000
00000100
00000010
00000100
00000000
00010000
00000000
00001000
00000000
,  // measure 33
00010000
00001000
00010000
00000000
00001000
00100000
00001000
00000000
00100000
00010000
00100000
00000000
00010000
00000000
10000000
00000000
,  // measure 34
01000000
00100000
01000000
00000000
10000000
01000000
10000000
00000000
00010000
10000000
00010000
00000000
01000000
00000000
00001000
00000000
,  // measure 35
00010000
00000010
00010000
00000000
00000010
00001000
00000010
00000000
00002000
00000000
00000000
00000000
00003000
00000000
00000000
00000000
,  // measure 36
00000010
00001000
00000010
00000000
00010000
00001000
00010000
00000000
00000100
00001000
00000100
00000000
00010000
00000000
00001000
00000000
,  // measure 37
01000000
00010000
01000000
00000000
00100000
10000000
00100000
00000000
01000000
10000000
01000000
00000000
00100000
00000000
10000000
00000000
,  // measure 38
01000000
00100000
01000000
00000000
10000000
00010000
10000000
00000000
00001000
00100000
00001000
00000000
00010000
00000000
00000010
00000000
,  // measure 39
00001000
00000001
00001000
00000000
00000100
00000010
00000100
00000000
00010000
00001000
00010000
00000000
00000100
00000000
00000010
00000000
,  // measure 40
00000001
00000100
00000001
00000000
00001000
00000010
00001000
00000000
00000100
00010000
00000100
00000000
01000000
00000000
00001000
00000000
,  // measure 41
00100000
00010000
00100000
00000000
00001000
00010000
00001000
00000000
01000000
00010000
01000000
00000000
10000000
00000000
01000000
00000000
,  // measure 42
00100000
10000000
00100000
00000000
01000000
00010000
01000000
00000000
00001000
00010000
00001000
00000000
00010000
00000000
00000100
00000000
,  // measure 43
00010000
00000000
00000100
01000000
00000100
00000000
00010000
00002000
00020000
00000000
00000000
00000000
00133010
00000000
00000000
00000000
,  // measure 44
00011000
00000000
00000000
00000000
00011000
00000000
00000000
00000100
00010000
00000000
00000100
00000000
00000000
00000000
00000010
00000000
,  // measure 45
00000001
00000000
00000000
00000000
00001000
00000000
00000000
00000010
00000100
00000000
00000100
00000000
00000100
00000000
00000000
00000000
,  // measure 46
00001000
00000000
00000000
00000000
00001000
00000000
00000000
00010000
00100000
00000000
10000000
00000000
00000000
00000000
10000000
00000000
,  // measure 47
01000000
00000000
00000000
00000000
01000000
00000000
00000000
00100000
00010000
00000000
00010000
00000000
00010000
00000000
00000000
00000000
,  // measure 48
00100000
00000000
00000000
00000000
00100000
00000000
00000000
00001000
00010000
00000000
00000000
00000000
00000100
00000000
00000000
00000010
,  // measure 49
00000001
00000000
00000000
00000000
00000100
00000000
00000000
00001000
00010000
00000000
00100000
00000000
01000000
00000000
00100000
00000000
,  // measure 50
02000000
00020000
20000000
00200000
,  // measure 51
33331000
00000000
00000000
01000000
01010000
00000000
00000000
00010000
,  // measure 52
00110000
00000000
00000000
00100000
00101000
00000000
00000000
00001000
,  // measure 53
00011000
00000000
00000000
00000000
00000000
00000000
00010000
00000000
00010100
00000000
00000000
00000000
00000000
00000000
00000100
00001000
,  // measure 54
00000100
00000000
00000010
00000000
00000001
00001000
00000001
00000000
00000000
00000000
00000000
00000000
,  // measure 55
00000100
00000000
00000000
00000000
00000100
00000000
00000000
00001000
00010000
00000000
00001000
00000000
00000010
00000000
00001000
00000000
,  // measure 56
00010000
00000000
00000000
00000000
00010000
00000000
00000000
00010000
00100000
00000000
00010000
00000000
00001000
00000000
00010000
00000000
,  // measure 57
01000000
00000000
00000000
00000000
01000000
00000000
00000000
00010000
00001000
00000000
00000100
00000000
00001000
00000000
00010000
00000000
,  // measure 58
00001000
00000000
00000000
00000000
00001000
00000000
00000000
00000100
00000001
00000000
00000100
00000000
00001000
00000000
00010000
00000000
,  // measure 59
00100000
00000000
00000000
00000000
00100000
00000000
00000000
00010000
00001000
00000000
00100000
00000000
01000000
00000000
00100000
00000000
,  // measure 60
00001000
00000000
00000000
00000000
00001000
00000000
00000000
00010000
01000000
00000000
10000000
00000000
01000000
00000000
00010000
00000000
,  // measure 61
00001000
00000000
00000000
00000000
00001000
00000000
00000000
00000010
00000001
00000000
00000010
00000000
00001000
00000000
00010000
00000000
,  // measure 62
00002000
00000000
00000000
02000000
00000000
00000000
00020000
00000000
00000000
00000000
00000000
00000000
03033000
00000000
00000000
00000000
,  // measure 63
00001000
00000000
00000000
00000000
00001000
00000000
00000000
10000000
00100000
00000000
00010000
00000000
00001000
00000000
00000100
00000000
,  // measure 64
00000001
00000000
00000000
00000000
00000001
00000000
00000000
00000010
00001000
00000000
00010000
00000000
01000000
00000000
10000000
00000000
,  // measure 65
00010000
00000000
00000000
00000000
00010000
00000000
00000000
10000000
00100000
00000000
00010000
00000000
00001000
00000000
00000100
00000000
,  // measure 66
00000001
00000000
00000000
00000000
00000001
00000000
00000000
00001000
00000100
00000000
00010000
00000000
00001000
00000000
00100000
00000000
,  // measure 67
00010000
00000000
00000000
00000000
00010000
00000000
00000000
10000000
01000000
00000000
00010000
00000000
00001000
00000000
00000010
00000000
,  // measure 68
00000001
00000000
00000000
00000000
00000001
00000000
00000000
00000100
00001000
00000000
00010000
00000000
00100000
00000000
10000000
00000000
,  // measure 69
00010000
00000000
00000000
00000000
00010000
00000000
00000000
10000000
01000000
00000000
00010000
00000000
00001000
00000000
00000010
00000000
,  // measure 70
00000002
00000000
00000000
00000200
00000000
00000000
00000020
00000000
00000000
00000000
00000000
00000000
00000333
00000000
00000000
00000000
;
