#TITLE:Kurumi Ponchio;
#SUBTITLE:Len Cover;
#ARTIST:ギガP feat. 鏡音レン;
#TITLETRANSLIT:Kurumi Ponchio;
#SUBTITLETRANSLIT:;
#ARTISTTRANSLIT:Kagamine Len;
#GENRE:;
#CREDIT:StarCharm;
#BANNER:;
#BACKGROUND:;
#LYRICSPATH:;
#CDTITLE:;
#MUSIC:Kurumi Ponchio Kagamine Len.ogg;
#OFFSET:-0.140;
#SAMPLESTART:110.640;
#SAMPLELENGTH:12.000;
#SELECTABLE:YES;
#DISPLAYBPM:150.000;
#BPMS:0.000=150.060
,582.750=70.000
;
#STOPS:
;
#BGCHANGES:;
#KEYSOUNDS:;
#ATTACKS:;

//---------------dance-double - Blank----------------
#NOTES:
     dance-double:
     :
     Challenge:
     13:
     0.853,1.000,0.008,0.591,0.894,1291.000,2.000,142.000,81.000,32.000,16.000,0.853,1.000,0.008,0.591,0.894,1291.000,2.000,142.000,81.000,32.000,16.000: // measure 0
00000000
00000000
00000000
00000000
,  // measure 1
00000000
00000000
00000000
00000000
,  // measure 2
00000000
00000000
00000000
00000000
,  // measure 3
00000000
00000000
00000000
00000000
,  // measure 4
00000000
00000000
00000000
00000000
,  // measure 5
00001000
00000000
00010000
00000001
00000000
00000001
01000000
00000100
01000000
00000000
00001000
00000000
00001000
00000000
00000000
00000000
,  // measure 6
00010000
00000000
00001000
10000000
00000000
10000000
00000100
01000000
00000100
00000000
00000000
00000000
00010000
00000000
00000000
00000000
,  // measure 7
00001000
00000000
10000000
00001000
00000000
00001000
01000000
00001000
01000000
00000000
00000010
00000000
00000010
00000000
00000000
00000000
,  // measure 8
00010000
00000000
00000001
00010000
00000000
00010000
00000100
00010000
00000200
00000000
00000000
00000000
00000300
00000000
00000000
00000000
,  // measure 9
01000000
00000000
00001000
00100000
00000000
00100000
00000010
10000000
00000010
00000000
00100000
00000000
00100000
00000000
00000000
00000000
,  // measure 10
00000010
00000000
00010000
00000100
00000000
00000100
00100000
00001000
00100000
00000000
00000000
00000000
00100000
00000000
00000000
00000000
,  // measure 11
00000100
00000000
00010000
00000001
00000000
00000001
00100000
00000100
00100000
00000000
00000010
00000000
00000010
00000000
00000000
00000000
,  // measure 12
10000000
00000000
00000100
01000000
00000000
01000000
00001000
00010000
00000020
00000000
10000000
00000000
10000030
00000000
10000000
00000000
,  // measure 13
00001000
00000000
01000000
00000010
00000000
00000010
00100000
00000001
00100000
00000000
00000100
00000000
00000100
00000000
00000000
00000000
,  // measure 14
01000000
00000000
00000100
10000000
00000000
10000000
00000001
00100000
00000001
00000000
00000000
00000000
00000001
00000000
00000000
00000000
,  // measure 15
00010000
00000000
00000010
10000000
00000000
10000000
00000001
01000000
00000001
00000000
00100000
00000000
00100000
00000000
00000000
00000000
,  // measure 16
00001000
00000000
00000000
00000000
00011000
00000000
00000000
00000000
00001000
01000000
00001000
00000000
01000000
00100000
01000000
00000000
,  // measure 17
00010000
00000000
10000000
01000000
00000000
01000000
00010000
01000000
00100000
00000000
00001000
00000000
00001000
00000000
00000000
00000000
,  // measure 18
00010000
00000000
00000100
00001000
00000000
00001000
00000010
00000100
00000010
00000000
00000000
00000000
00000010
00000000
00000000
00000000
,  // measure 19
00010000
00000000
00000010
00000100
00000000
00000100
00001000
00000100
00001000
00000000
00000100
00000000
00000100
00000000
00000000
00000000
,  // measure 20
00000010
00000000
00001000
00000100
00000000
00000100
00000001
00000100
00000002
00000000
00000000
00000000
00000003
00000000
00000000
00000000
,  // measure 21
00000100
00000000
00010000
00001000
00000000
00001000
00100000
00001000
00100000
00000000
00010000
00000000
00010000
00000000
00000000
00000000
,  // measure 22
00100000
00000000
01000000
10000000
00000000
10000000
01000000
00100000
01000000
00000000
00000000
00000000
01000000
00000000
00000000
00000000
,  // measure 23
00100000
00000000
00010000
01000000
00000000
01000000
00001000
00010000
00001000
00000000
00000010
00000000
00000010
00000000
00000000
00000000
,  // measure 24
00000100
00000000
00000010
00001000
00000000
00001000
00000010
00000100
00020000
00000000
00001000
00100000
00031000
00100000
00001000
00100000
,  // measure 25
00001000
00000000
01000000
00000000
00010000
00000000
10000000
00100000
01000000
00000000
00010000
00000000
10000000
00000000
01000000
00000000
,  // measure 26
00010000
00001000
00010000
00000000
00000100
00000000
00000020
00000000
00000000
00000000
00000031
00000000
00001000
00000000
00000010
00000000
,  // measure 27
00000100
00001000
00000100
00000010
00000100
00000001
00000100
00000000
00000010
00001000
00000001
00001000
00000100
00010000
00000000
00010000
,  // measure 28
00001000
01000000
00010000
01000000
00100000
00000000
00010000
00100000
02000000
00000000
00020000
00000000
20000000
00000000
00000000
00030000
,  // measure 29
33010000
01000000
00100000
01000000
10000000
01000000
00100000
00000000
10000000
00100000
01000000
00100000
00010000
00100000
01000000
00000000
,  // measure 30
00000000
00010000
10000000
01000000
00100000
00000000
00001000
00000000
00020000
00000000
00000200
00000000
00002000
00000000
00000300
00000000
,  // measure 31
00033100
00001000
00000100
00000010
00000100
00000001
00000000
00000001
00000100
00000010
00000100
00001000
00000001
00000100
00000010
00000100
,  // measure 32
00000010
00000000
00010000
00000000
00001000
00010000
00004000
00000000
00000000
00000000
00010000
00000010
00010000
00000010
00010000
00000010
,  // measure 33
00013000
00001000
00100000
00001000
00100000
00001000
00100000
00001000
00100000
00010000
40000000
30010000
40000000
30010000
10000000
00010000
,  // measure 34
10000000
00000000
00100000
00000000
02000000
03000000
00100000
00000000
01000000
00000000
00100000
00000000
02000000
03000000
00100000
00000000
01000000
00000000
00001000
00000000
00010000
00000000
00001000
00000000
MMM10MMM
00000000
00001000
00000000
00010000
00000000
00001000
00000000
,  // measure 35
00010000
00000010
00001000
000M0010
00001000
00000010
0000M100
00000010
00000100
00000001
00001M00
00000001
00001000
00000001
0000M010
00000001
,  // measure 36
00002000
00000000
00000000
00000010
00000000
00000000
00020000
00000000
00000000
00003010
00000000
00000000
00002000
00000000
00000000
00030010
00000000
00000000
00020000
00000000
00000000
00003010
00000000
00000000
00002000
00000000
00000000
00030010
00000000
00000000
00023000
00000000
00030002
00000000
00020003
00000000
00030002
00000000
00000000
00001000
00000000
00000000
00000200
00000000
00000000
00001003
00000000
00000000
,  // measure 37
00000002
00001303
00000001
00001000
00000001
00010000
00000100
00010000
00000100
00010000
00000400
00010300
00000400
00100300
00001000
00100000
,  // measure 38
00001000
00000000
00100000
00000000
00002000
00003000
00100000
00000000
00001000
00000000
10000000
00000000
00020000
00030000
10000000
00000000
00040000
00030000
10000000
00000000
00040000
00030000
10000000
00000000
00010000
00000000
01000000
00000000
00400000
00300000
01000000
00000000
,  // measure 39
00400000
01300000
00100000
01000000
00100000
10000000
00040000
10030000
00040000
10030000
00010000
40000000
30004000
00103000
00001000
00100000
,  // measure 40
00000100
00100000
00000100
00100000
00000100
00100000
00000100
00100000
00000100
00100000
00000100
00100000
00000100
00100000
00000100
00100000
,  // measure 41
00000100
00000000
10000000
00000100
00000000
00000100
10000000
00000000
00000000
00000000
00000010
00000000
00000010
00000000
00000000
00000000
,  // measure 42
00000000
00100000
00000001
00100000
00000001
10000000
00000010
10000000
00000010
01000000
00000001
01000000
00000001
10000000
00000100
10000000
,  // measure 43
00000100
00000000
00100000
00000100
10000000
00000000
00000100
01000000
00000001
10000000
00000000
10000000
00000010
01000000
00000000
01000000
,  // measure 44
00000100
00000000
10000000
00001000
00100000
00000010
00100000
00002000
00020000
00000000
00000020
00000000
00200000
00000000
00000000
00000000
,  // measure 45
00333030
00001000
00000000
00001000
00100000
00000010
10000000
00000001
00100000
00000010
10000000
00000001
01000000
00000100
10000000
00000001
,  // measure 46
01000000
00000100
10000000
00000001
00100000
00000010
10000000
00000001
00100000
00000010
01000000
00000100
00200000
00000000
00300000
00000000
,  // measure 47
00000100
00000000
00100000
00000100
10000000
00000001
01000000
00000010
10000000
00000001
00100000
00000100
10000000
00000001
02000000
00000000
,  // measure 48
03000010
01000000
00000001
00010000
00001000
10000000
00000001
00000000
00100000
00000010
10000000
00000001
10000000
00000001
10000000
00000001
,  // measure 49
00400000
00000010
00000000
00000010
00000000
00000010
00300000
00000010
00100000
00001000
40000000
30001000
40000000
30001000
10000000
00001000
,  // measure 50
10000000
00000100
02000000
03000100
01000000
00000100
02000000
03000100
01000000
00000001
00010000
00000001
MM010000
00M00001
M0M1MM00
00000001
,  // measure 51
00010000
00000010
00100000
000M0010
00100000
00000010
10M00000
00000010
10000000
00001000
M1000000
00001000
01000000
00001000
1M000000
00001000
,  // measure 52
20000000
00000000
00000000
00000100
00000000
00000000
02000000
00000000
00000000
30000100
00000000
00000000
20000000
00000000
00000000
03000100
00000000
00000000
02000000
00000000
00000000
30000100
00000000
00000000
20000000
00000000
00000000
03001000
00000000
00000000
02000000
00000000
30002000
00000000
23003000
00000000
00002000
00000000
00000000
31000000
00000000
00000000
00000200
00000000
00000000
01003000
00000000
00000000
,  // measure 53
00002000
00003300
00010000
00010000
00000100
00000100
00000010
00000010
,  // measure 54
00000100
00000100
00002000
00000000
00003000
00000001
00000002
00000000
,  // measure 55
00000200
00000000
00000303
00000000
00000001
00000010
00001000
00020000
,  // measure 56
00000000
00030000
00002000
00000000
02000000
00000000
00020000
00000000
,  // measure 57
03033000
01000000
00010000
10000000
01000000
00010000
01000000
00100000
,  // measure 58
00001000
00020000
00000000
00030000
00000000
00001000
00010000
00010000
,  // measure 59
00000020
00000000
00000130
00000200
00000000
00000301
00001000
00000200
,  // measure 60
00000000
00000000
00000020
00000000
00000000
00000000
00000002
00000000
00000000
00000000
00002000
00000000
00003333
00000000
00000100
00000010
,  // measure 61
00000100
00000000
00001000
00001000
00000100
00000100
00010000
00010000
,  // measure 62
00001000
00001000
00200000
00000000
00300000
00010000
10000000
00100000
,  // measure 63
02000000
00000000
13000000
02000000
00000000
00020000
00000000
20000000
,  // measure 64
00000000
00000000
33130000
00000000
01000000
00000000
00000000
00000000
00001000
00000000
00010000
00000100
00010000
00000100
00010000
00000100
,  // measure 65
00010000
00000100
00000010
000000M0
00000010
00000001
00000010
00001000
,  // measure 66
00020000
00000000
00031000
01000000
0M000000
01000000
00010000
10000000
,  // measure 67
00000000
01000000
00010000
01000000
00100000
00001000
00010000
00000010
,  // measure 68
00000000
00000000
00000000
00100000
00000000
00000000
00001000
00000000
00000000
10000000
00000000
00000000
00000100
00000000
00000000
01000000
00000000
00000000
00001000
00010000
00001000
00010000
00001000
00010000
,  // measure 69
00001000
00001000
00001000
00001000
00001000
00001000
00001000
00001000
,  // measure 70
00010000
00000000
00000010
00000000
00000100
00000000
00000020
00000000
00000000
00000000
00001030
00000010
00000001
00000010
00000100
00000000
,  // measure 71
00000010
00001000
00000001
00000010
00000100
00000010
00001000
00000010
00000100
00001000
00000001
00000100
00000010
00000100
00001000
00000100
,  // measure 72
00000010
00000010
00000010
00000020
00000000
MMMM1030
00000000
00000002
,  // measure 73
00000000
00000003
00000001
00000000
00000001
00000000
00000001
00000000
00000001
00000000
00000001
00000000
00000001
00000000
00000001
00000000
,  // measure 74
00000010
00000100
00010000
00000200
00000000
01000300
00000010
10000000
,  // measure 75
00000100
00000000
00000000
01000000
00000001
00000000
00000000
10000000
00000010
00000000
00000000
00000000
01000000
00000000
00000010
00000000
,  // measure 76
00200000
00000000
00000000
00000000
00000000
00000000
00000000
00000000
00000100
00000000
00000100
00010000
00000100
00010000
00000100
00010000
,  // measure 77
00300100
00000100
00000100
00000100
00000100
00000100
00000100
00000100
,  // measure 78
00100000
00000000
00000001
00000000
10000000
00000000
00000100
00000000
00000000
00000000
01000000
00000100
10000000
00000001
01000000
00000000
,  // measure 79
00000001
01000000
00000100
10000000
00001000
01000000
00000100
00010000
00000001
00100000
00000010
00010000
00000001
01000000
00000100
10000000
,  // measure 80
00002000
00000000
00020000
00000000
00000020
00000000
02000000
00000000
00000000
00000000
M0M00M0M
00003000
03031030
00000000
00000000
00000000
,  // measure 81
00010000
00010000
00010000
00010000
00010000
00010000
00010000
00010000
,  // measure 82
00001000
00100000
00010000
20000000
00000000
30100000
01000000
10000000
,  // measure 83
01000000
00100000
01000000
10000000
02000000
00000000
03100000
10000000
00010000
00100000
02000000
00000000
03010000
00000000
00001000
00000000
,  // measure 84
00100000
00000000
00001000
00000000
00100000
00000000
00001000
00000000
00100000
00000000
00001000
00000000
00100000
00000000
00001000
00000000
00200000
00000000
00301000
00000000
00200000
00000000
00301000
00000000
00200000
00000000
00301000
00000000
00200000
00301000
00100000
00001000
,  // measure 85
00100000
00000000
00100000
00000000
00000010
00010000
00000001
00010000
00000100
00000000
00100000
00001000
10000000
00001000
01000000
00000000
,  // measure 86
00000100
01000000
00000100
01000000
00000001
00100000
00000001
00100000
00000010
01000000
00000010
01000000
00000001
00010000
00000001
00000000
,  // measure 87
02000000
00000000
03000010
01000000
00000010
01000000
00000001
01000000
00000001
01000000
00000100
01000000
00000100
00000000
00000100
00000000
,  // measure 88
20000000
00000000
30000100
01000000
00000002
00000000
01000003
00000100
10MMM0MM
00000000
00000001
20000000
00000002
00000000
30000003
00000000
,  // measure 89
00000000
01000000
00000010
01000000
00000010
10000000
00000001
10000000
00000001
00100000
00000100
00100000
00000100
00010000
00001000
00010000
,  // measure 90
00001000
00100000
00000100
00100000
00000100
10000000
00000001
10000000
00000001
00000000
0000001M
01000000
00000020
00000000
00000000
00000000
,  // measure 91
00000030
01000000
00000001
01000000
00000001
01000000
00000001
00000000
00000000
10000000
00000100
M0000000
00000100
10000000
00000100
00000000
,  // measure 92
10000000
00000001
10000000
00000001
10000000
00000001
10000000
00000001
10000000
00000001
10000000
00000001
10000000
00000001
10000000
00000001
,  // measure 93
100MM000
00000000
00000010
00000010
01000000
01000000
00000100
00000100
,  // measure 94
00100000
00000000
00000000
00000000
00200000
00000000
00000000
00000000
00000000
00000000
00000000
00000000
00000000
00000000
00000000
00000000
00000000
00000000
00000000
0000000M
003000M0
00000M00
00000000
00000000
00000000
00000000
00000000
000000M0
00000M00
0000M000
00000000
00000000
,  // measure 95
00000000
00000000
00000000
00000M00
0000M000
000M0000
00000000
00000000
00000000
00000000
00000000
0000M000
000M0000
00M00000
00000000
00000000
00000000
00000000
00000000
000M0000
00M00000
0M000000
00000000
00000000
00000000
00000000
00000000
00M00000
0M000200
M0000000
00000000
00000000
,  // measure 96
00000000
00020000
00002000
00200000
,  // measure 97
00333300
00000100
00010000
00000100
00001000
00000100
00000010
00000100
,  // measure 98
00000001
00000100
00002000
00000000
00003000
00000100
00010000
00001000
,  // measure 99
02000000
00000000
031M0000
00M00000
00000000
00100000
10000000
02000000
,  // measure 100
00000000
03100000
00002000
00000000
00020000
00000000
00000020
00000000
,  // measure 101
00033030
00000000
00010000
00000010
00000100
00000010
00000001
00000010
,  // measure 102
00001000
00010000
02000000
00000000
00000000
03010000
00100000
10000000
,  // measure 103
00200000
00000000
02300000
23000000
00000000
31000000
00010000
00002000
,  // measure 104
00000000
00000000
00013000
00000000
00100000
00000000
02000000
00000000
00000000
00000000
03010000
01000000
00010000
01000000
00010000
01000000
,  // measure 105
00010000
10000000
01000000
0M000000
00000000
01000000
00200000
00000000
,  // measure 106
00302000
00000000
00013000
00000200
00000000
00000310
00000001
00000100
,  // measure 107
00000M00
M0000000
0M000000
00M00000
00000000
00000100
00000010
00000100
,  // measure 108
00000001
00000000
00000000
00000000
00000010
00000000
00000000
00000000
00000100
00000000
00000000
00000000
00010000
00000000
00000000
00000000
00001000
00000000
00000000
00000000
00010000
00000000
00001000
00000000
00010000
00001000
00010000
00001000
00010000
00001000
00010000
00001000
,  // measure 109
00010000
00010000
00010000
00010000
00010000
00010000
00010000
00010000
,  // measure 110
00001000
00100000
00001000
02000000
00000000
03001000
10000000
00001000
,  // measure 111
02000000
00000000
03000100
00010000
00000002
00000000
01000003
00001000
10000000
00000000
00000010
00010000
00000001
00000000
00100000
00001000
,  // measure 112
10000000
00000100
01000000
00000002
00000000
200MM000
00000003
30000200
,  // measure 113
00000000
00000300
00000100
00000000
00000100
00000000
00000100
00000000
00000100
00000000
00000100
00000000
00000100
00000000
00000100
00000000
,  // measure 114
01000000
00000000
00000001
00000000
01000000
00000000
00000020
00000000
00000000
00000000
01000030
00001000
00010000
00000100
01000000
00000000
,  // measure 115
00000100
00000000
00010000
00000010
10000000
00000000
00001000
00100000
00000001
00000000
01000000
00000000
00001000
10000000
00000001
00000000
,  // measure 116
00200000
00000000
00000000
00000000
00000000
00000000
00000000
00000000
00000010
00000000
00000010
00000000
00000010
00010000
00000010
00010000
,  // measure 117
00300010
00000010
00000010
00000010
00000010
00000010
00000010
00000010
,  // measure 118
00010000
00001000
01000000
00000200
00000000
01000300
00001000
00100000
,  // measure 119
00000010
00000000
10000000
00000000
00000100
00000000
10000000
00000100
00010000
00000000
00000100
00100000
00000001
00100000
00001000
00100000
,  // measure 120
00000100
01000000
00000002
20000000
00000000
300MM003
00000000
00000020
,  // measure 121
00000000
00000030
00000010
00000000
00000010
00000000
00000010
00000000
00000010
00000000
00000010
00000000
00000010
00000000
00000010
00000000
,  // measure 122
00100000
00001000
00010000
00000200
00000000
00000310
00001000
00000010
,  // measure 123
00000100
00000010
00000001
00000010
00001000
00000010
00000001
00001000
00000010
00000000
00000100
00000000
00002000
00000000
00000000
00000000
,  // measure 124
00023000
00000000
00000000
00000000
00030000
00001000
01000000
00100000
,  // measure 125
00010000
00000000
00100000
01000000
00100000
00010000
00100000
10000000
00010000
00000000
00100000
00000000
02000000
00000000
00000000
00000000
,  // measure 126
23000000
00000000
00000000
00000000
30000000
01000000
00010000
00001000
,  // measure 127
00000020
00000000
00000000
00000000
00000030
00000100
00000000
00000100
00002000
00000000
00003200
00000000
00020300
00000000
00000000
00000000
,  // measure 128
00032000
00000000
00000000
00000000
,  // measure 129
02003000
00000000
03000000
00000000
00100000
01000000
00001000
01000000
00100000
01000000
00000000
01000000
00000020
00000000
00000000
00000000
,  // measure 130
00010030
00000000
00000100
00001000
00000000
00001000
00000001
00000100
00000010
00000000
00000100
00000000
00000100
00000000
00000000
00000000
,  // measure 131
00001000
00000000
01000000
00100000
00000000
00100000
00010000
00100000
01000000
00000000
00000000
00000000
01000000
00000000
00000000
00000000
,  // measure 132
00100000
00000000
00010000
00001000
00000000
00001000
00000010
00000100
00001000
00000000
00000010
00000000
00000010
00000000
00000000
00000000
,  // measure 133
00000100
00000000
00001000
00010000
00000000
00010000
01000000
00100000
00020000
00000000
00000000
00000000
00030000
00000000
00000000
00000000
,  // measure 134
00100000
00000000
00000010
00001000
00000000
00001000
00000100
00000001
00000100
00000000
00000010
00000000
00000010
00000000
00000000
00000000
,  // measure 135
00001000
00000000
00100000
00010000
00000000
00010000
01000000
10000000
01000000
00000000
00000000
00000000
01000000
00000000
00000000
00000000
,  // measure 136
00100000
00000000
00010000
00001000
00000000
00001000
01000000
00000100
10000000
00000000
00000100
00000000
00000100
00000000
00000000
00000000
,  // measure 137
01000000
00000000
00000001
00100000
0000M000
001M0000
0000M100
100M0000
0000M002
000M0000
0000M000
000M0000
0000M000
000M0000
0000M000
000M0000
,  // measure 138
10000003
00000000
00000010
00100000
00000000
00100000
00000010
10000000
00000001
00000000
01000000
00000000
01000000
00000000
00000000
00000000
,  // measure 139
00000001
00000000
01000000
00000100
00000000
00000100
10000000
00000001
00200000
00000000
00300000
00000000
00200000
00000000
00000000
00000000
,  // measure 140
00300010
00000000
00010000
00001000
00000000
00001000
01000000
00100000
01000000
00000000
10000000
00000000
10000000
00000000
00000000
00000000
,  // measure 141
01000000
00000000
00010000
00100000
00000000
00100000
01000000
00010000
02000000
00000000
00000000
00000000
00000000
00000000
00000000
00000000
,  // measure 142
03100000
00000000
00001000
00010000
00000000
00010000
00000100
00000010
00000100
00000000
00000001
00000000
00000001
00000000
00000000
00000000
,  // measure 143
00000100
00000000
00001000
00000010
00000000
00000010
00000100
00001000
00000200
00000000
00000300
00000000
00000200
00000000
00000000
00000000
,  // measure 144
00000310
00000000
00010000
00001000
00000000
00001000
00100000
00000100
00100000
00000000
00000010
00000000
00000010
00000000
00010000
00000000
,  // measure 145
00001000
00100000
00000020
00000000
00200000
00000000
00022000
00000000
,  // measure 146
00333030
00000000
00000000
00000000
;

//---------------dance-double - Blank----------------
#NOTES:
     dance-double:
     :
     Hard:
     13:
     0.853,1.000,0.008,0.595,0.894,1291.000,2.000,143.000,99.000,2.000,15.000,0.853,1.000,0.008,0.595,0.894,1291.000,2.000,143.000,99.000,2.000,15.000: // measure 0
00000000
00000000
00000000
00000000
,  // measure 1
00000000
00000000
00000000
00000000
,  // measure 2
00000000
00000000
00000000
00000000
,  // measure 3
00000000
00000000
00000000
00000000
,  // measure 4
00000000
00000000
00000000
00000000
,  // measure 5
00001000
00000000
00010000
00000001
00000000
00000001
01000000
00000100
01000000
00000000
00001000
00000000
00001000
00000000
00000000
00000000
,  // measure 6
00010000
00000000
00001000
10000000
00000000
10000000
00000100
01000000
00000100
00000000
00000000
00000000
00010000
00000000
00000000
00000000
,  // measure 7
00001000
00000000
10000000
00001000
00000000
00001000
01000000
00001000
01000000
00000000
00000010
00000000
00000010
00000000
00000000
00000000
,  // measure 8
00010000
00000000
00000001
00010000
00000000
00010000
00000100
00010000
00000200
00000000
00000000
00000000
00000300
00000000
00000000
00000000
,  // measure 9
01000000
00000000
00001000
00100000
00000000
00100000
00000010
10000000
00000010
00000000
00100000
00000000
00100000
00000000
00000000
00000000
,  // measure 10
00000010
00000000
00010000
00000100
00000000
00000100
00100000
00001000
00100000
00000000
00000000
00000000
00100000
00000000
00000000
00000000
,  // measure 11
00000100
00000000
00010000
00000001
00000000
00000001
00100000
00000100
00100000
00000000
00000010
00000000
00000010
00000000
00000000
00000000
,  // measure 12
10000000
00000000
00000100
01000000
00000000
01000000
00001000
00010000
00000020
00000000
10000000
00000000
10000030
00000000
10000000
00000000
,  // measure 13
00001000
00000000
01000000
00000010
00000000
00000010
00100000
00000001
00100000
00000000
00000100
00000000
00000100
00000000
00000000
00000000
,  // measure 14
01000000
00000000
00000100
10000000
00000000
10000000
00000001
00100000
00000001
00000000
00000000
00000000
00000001
00000000
00000000
00000000
,  // measure 15
00010000
00000000
00000010
10000000
00000000
10000000
00000001
01000000
00000001
00000000
00100000
00000000
00100000
00000000
00000000
00000000
,  // measure 16
00001000
00000000
00000000
00000000
00011000
00000000
00000000
00000000
00001000
01000000
00001000
00000000
01000000
00100000
01000000
00000000
,  // measure 17
00010000
00000000
10000000
01000000
00000000
01000000
00010000
01000000
00100000
00000000
00001000
00000000
00001000
00000000
00000000
00000000
,  // measure 18
00010000
00000000
00000100
00001000
00000000
00001000
00000010
00000100
00000010
00000000
00000000
00000000
00000010
00000000
00000000
00000000
,  // measure 19
00010000
00000000
00000010
00000100
00000000
00000100
00001000
00000100
00001000
00000000
00000100
00000000
00000100
00000000
00000000
00000000
,  // measure 20
00000010
00000000
00001000
00000100
00000000
00000100
00000001
00000100
00000002
00000000
00000000
00000000
00000003
00000000
00000000
00000000
,  // measure 21
00000100
00000000
00010000
00001000
00000000
00001000
00100000
00001000
00100000
00000000
00010000
00000000
00010000
00000000
00000000
00000000
,  // measure 22
00100000
00000000
01000000
10000000
00000000
10000000
01000000
00100000
01000000
00000000
00000000
00000000
01000000
00000000
00000000
00000000
,  // measure 23
00100000
00000000
00010000
01000000
00000000
01000000
00001000
00010000
00001000
00000000
00000010
00000000
00000010
00000000
00000000
00000000
,  // measure 24
00000100
00000000
00000010
00001000
00000000
00001000
00000010
00000100
00020000
00000000
00031000
00100000
00001000
00100000
00001000
00100000
,  // measure 25
00001000
00000000
01000000
00000000
00010000
00000000
10000000
00100000
01000000
00000000
00010000
00000000
10000000
00000000
01000000
00000000
,  // measure 26
00010000
00001000
00010000
00000000
00000100
00000000
00000020
00000000
00000000
00000000
00000031
00000000
00001000
00000000
00000010
00000000
,  // measure 27
00000100
00001000
00000100
00000010
00000100
00000001
00000100
00000000
00000010
00001000
00000001
00001000
00000100
00010000
00000000
00010000
,  // measure 28
00001000
01000000
00010000
01000000
00100000
00000000
00010000
00100000
02000000
00000000
03020000
00000000
20030000
00000000
00000000
00000000
,  // measure 29
30010000
01000000
00100000
01000000
10000000
01000000
00100000
00000000
10000000
00100000
01000000
00100000
00010000
00100000
01000000
00000000
,  // measure 30
00000000
00010000
10000000
01000000
00100000
00000000
00001000
00000000
00020000
00000000
00030200
00000000
00002300
00000000
00000000
00000000
,  // measure 31
00003100
00001000
00000100
00000010
00000100
00000001
00000000
00000001
00000100
00000010
00000100
00001000
00000001
00000100
00000010
00000100
,  // measure 32
00000010
00000000
00010000
00000000
00001000
00010000
00002000
00000000
00000000
00000000
00013000
00000010
00010000
00000010
00010000
00000010
,  // measure 33
00010000
00001000
00100000
00001000
00100000
00001000
00100000
00001000
00100000
00010000
40000000
30010000
40000000
30010000
10000000
00010000
,  // measure 34
10000000
00000000
00100000
00000000
02000000
03000000
00100000
00000000
01000000
00000000
00100000
00000000
02000000
03000000
00100000
00000000
01000000
00000000
00001000
00000000
00010000
00000000
00001000
00000000
MMM10MMM
00000000
00001000
00000000
00010000
00000000
00001000
00000000
,  // measure 35
00010000
00000010
00001000
000M0010
00001000
00000010
0000M100
00000010
00000100
00000001
00001M00
00000001
00001000
00000001
0000M010
00000001
,  // measure 36
00002000
00000000
00000000
00003010
00000000
00000000
00020000
00000000
00000000
00030010
00000000
00000000
00002000
00000000
00000000
00003010
00000000
00000000
00020000
00000000
00000000
00030010
00000000
00000000
00002000
00000000
00000000
00003010
00000000
00000000
00020000
00000000
00030002
00000000
00020003
00000000
00030002
00000000
00000000
00001003
00000000
00000000
00000200
00000000
00000000
00001300
00000000
00000000
,  // measure 37
00000002
00001003
00000001
00001000
00000001
00010000
00000100
00010000
00000100
00010000
00000400
00010300
00000400
00100300
00001000
00100000
,  // measure 38
00001000
00000000
00100000
00000000
00002000
00003000
00100000
00000000
00001000
00000000
10000000
00000000
00020000
00030000
10000000
00000000
00040000
00030000
10000000
00000000
00040000
00030000
10000000
00000000
00010000
00000000
01000000
00000000
00400000
00300000
01000000
00000000
,  // measure 39
00400000
01300000
00100000
01000000
00100000
10000000
00040000
10030000
00040000
10030000
00010000
40000000
30004000
00103000
00001000
00100000
,  // measure 40
00000100
00100000
00000100
00100000
00000100
00100000
00000100
00100000
00000100
00100000
00000100
00100000
00000100
00100000
00000100
00100000
,  // measure 41
00000100
00000000
10000000
00000100
00000000
00000100
10000000
00000000
00000000
00000000
00000010
00000000
00000010
00000000
00000000
00000000
,  // measure 42
00000000
00100000
00000001
00100000
00000001
10000000
00000010
10000000
00000010
01000000
00000001
01000000
00000001
10000000
00000100
10000000
,  // measure 43
00000100
00000000
00100000
00000100
10000000
00000000
00000100
01000000
00000001
10000000
00000000
10000000
00000010
01000000
00000000
01000000
,  // measure 44
00000100
00000000
10000000
00001000
00100000
00000010
00100000
00002000
00023000
00000000
00030020
00000000
00200030
00000000
00000000
00000000
,  // measure 45
00300000
00001000
00000000
00001000
00100000
00000010
10000000
00000001
00100000
00000010
10000000
00000001
01000000
00000100
10000000
00000001
,  // measure 46
01000000
00000100
10000000
00000001
00100000
00000010
10000000
00000001
00100000
00000010
01000000
00000100
00200000
00000000
00300000
00000000
,  // measure 47
00000100
00000000
00100000
00000100
10000000
00000001
01000000
00000010
10000000
00000001
00100000
00000100
10000000
00000001
02000000
00000000
,  // measure 48
03000010
01000000
00000001
00010000
00001000
10000000
00000001
00000000
00100000
00000010
10000000
00000001
10000000
00000001
10000000
00000001
,  // measure 49
00400000
00000010
00000000
00000010
00000000
00000010
00300000
00000010
00100000
00001000
40000000
30001000
40000000
30001000
10000000
00001000
,  // measure 50
10000000
00000100
02000000
03000100
01000000
00000100
02000000
03000100
01000000
00000001
00010000
00000001
MM010000
00M00001
M0M1MM00
00000001
,  // measure 51
00010000
00000010
00100000
000M0010
00100000
00000010
10M00000
00000010
10000000
00001000
M1000000
00001000
01000000
00001000
1M000000
00001000
,  // measure 52
20000000
00000000
00000000
30000100
00000000
00000000
02000000
00000000
00000000
03000100
00000000
00000000
20000000
00000000
00000000
30000100
00000000
00000000
02000000
00000000
00000000
03000100
00000000
00000000
20000000
00000000
00000000
30001000
00000000
00000000
02000000
00000000
00002000
00000000
23003000
00000000
30002000
00000000
00000000
01003000
00000000
00000000
00000200
00000000
00000000
01000300
00000000
00000000
,  // measure 53
00002000
00003000
00010000
00010000
00000100
00000100
00000010
00000010
,  // measure 54
00000100
00000100
00002000
00000000
00003000
00000001
00000002
00000000
,  // measure 55
00000200
00000000
00000303
00000000
00000001
00000010
00001000
00020000
,  // measure 56
00000000
00030000
00002000
00000000
02003000
00000000
03020000
00000000
,  // measure 57
00030000
01000000
00010000
10000000
01000000
00010000
01000000
00100000
,  // measure 58
00001000
00020000
00000000
00030000
00000000
00001000
00010000
00010000
,  // measure 59
00000020
00000000
00000130
00000200
00000000
00000301
00001000
00000200
,  // measure 60
00000000
00000000
00000320
00000000
00000000
00000000
00000032
00000000
00000000
00000000
00002003
00000000
00003000
00000000
00000100
00000010
,  // measure 61
00000100
00000000
00001000
00001000
00000100
00000100
00010000
00010000
,  // measure 62
00001000
00001000
00200000
00000000
00300000
00010000
10000000
00100000
,  // measure 63
02000000
00000000
13000000
02000000
00000000
03020000
00000000
20030000
,  // measure 64
00000000
00000000
30100000
00000000
01000000
00000000
00000000
00000000
00001000
00000000
00010000
00000100
00010000
00000100
00010000
00000100
,  // measure 65
00010000
00000100
00000010
000000M0
00000010
00000001
00000010
00001000
,  // measure 66
00020000
00000000
00031000
01000000
0M000000
01000000
00010000
10000000
,  // measure 67
00000000
01000000
00010000
01000000
00100000
00001000
00010000
00000010
,  // measure 68
00000000
00000000
00000000
00100000
00000000
00000000
00001000
00000000
00000000
10000000
00000000
00000000
00000100
00000000
00000000
01000000
00000000
00000000
00001000
00010000
00001000
00010000
00001000
00010000
,  // measure 69
00001000
00001000
00001000
00001000
00001000
00001000
00001000
00001000
,  // measure 70
00010000
00000000
00000010
00000000
00000100
00000000
00000020
00000000
00000000
00000000
00001030
00000010
00000001
00000010
00000100
00000000
,  // measure 71
00000010
00001000
00000001
00000010
00000100
00000010
00001000
00000010
00000100
00001000
00000001
00000100
00000010
00000100
00001000
00000100
,  // measure 72
00000010
00000010
00000010
00000020
00000000
MMMM1030
00000000
00000002
,  // measure 73
00000000
00000003
00000001
00000000
00000001
00000000
00000001
00000000
00000001
00000000
00000001
00000000
00000001
00000000
00000001
00000000
,  // measure 74
00000010
00000100
00010000
00000200
00000000
01000300
00000010
10000000
,  // measure 75
00000100
00000000
00000000
01000000
00000001
00000000
00000000
10000000
00000010
00000000
00000000
00000000
01000000
00000000
00000010
00000000
,  // measure 76
00200000
00000000
00000000
00000000
00000000
00000000
00000000
00000000
00000100
00000000
00300100
00010000
00000100
00010000
00000100
00010000
,  // measure 77
00000100
00000100
00000100
00000100
00000100
00000100
00000100
00000100
,  // measure 78
00100000
00000000
00000001
00000000
10000000
00000000
00000100
00000000
00000000
00000000
01000000
00000100
10000000
00000001
01000000
00000000
,  // measure 79
00000001
01000000
00000100
10000000
00001000
01000000
00000100
00010000
00000001
00100000
00000010
00010000
00000001
01000000
00000100
10000000
,  // measure 80
00002000
00023000
00030020
02000030
00000000
M0M00M0M
03001000
00000000
,  // measure 81
00010000
00010000
00010000
00010000
00010000
00010000
00010000
00010000
,  // measure 82
00001000
00100000
00010000
20000000
00000000
30100000
01000000
10000000
,  // measure 83
01000000
00100000
01000000
10000000
02000000
00000000
03100000
10000000
00010000
00100000
02000000
00000000
03010000
00000000
00001000
00000000
,  // measure 84
00100000
00000000
00001000
00000000
00100000
00000000
00001000
00000000
00100000
00000000
00001000
00000000
00100000
00000000
00001000
00000000
00200000
00000000
00301000
00000000
00200000
00000000
00301000
00000000
00200000
00000000
00301000
00000000
00200000
00301000
00100000
00001000
,  // measure 85
00100000
00000000
00100000
00000000
00000010
00010000
00000001
00010000
00000100
00000000
00100000
00001000
10000000
00001000
01000000
00000000
,  // measure 86
00000100
01000000
00000100
01000000
00000001
00100000
00000001
00100000
00000010
01000000
00000010
01000000
00000001
00010000
00000001
00000000
,  // measure 87
02000000
00000000
03000010
01000000
00000010
01000000
00000001
01000000
00000001
01000000
00000100
01000000
00000100
00000000
00000100
00000000
,  // measure 88
20000000
00000000
30000100
01000000
00000002
00000000
01000003
00000100
10MMM0MM
00000000
00000001
20000000
00000002
00000000
30000003
00000000
,  // measure 89
00000000
01000000
00000010
01000000
00000010
10000000
00000001
10000000
00000001
00100000
00000100
00100000
00000100
00010000
00001000
00010000
,  // measure 90
00001000
00100000
00000100
00100000
00000100
10000000
00000001
10000000
00000001
00000000
0000001M
01000000
00000020
00000000
00000000
00000000
,  // measure 91
00000030
01000000
00000001
01000000
00000001
01000000
00000001
00000000
00000000
10000000
00000100
M0000000
00000100
10000000
00000100
00000000
,  // measure 92
10000000
00000001
10000000
00000001
10000000
00000001
10000000
00000001
10000000
00000001
10000000
00000001
10000000
00000001
10000000
00000001
,  // measure 93
10MMMM00
00000000
00000010
00000010
01000000
01000000
00000100
00000100
,  // measure 94
00100000
00000000
00000000
00000000
00200000
00000000
00000000
00000000
00000000
00000000
00000000
00000000
00000000
00000000
00000000
00000000
00000000
00000000
00000000
0000000M
003000M0
00000M00
00000000
00000000
00000000
00000000
00000000
000000M0
00000M00
0000M000
00000000
00000000
,  // measure 95
00000000
00000000
00000000
00000M00
0000M000
000M0000
00000000
00000000
00000000
00000000
00000000
0000M000
000M0000
00M00000
00000000
00000000
00000000
00000000
00000000
000M0000
00M00000
0M000000
00000000
00000000
00000000
00000000
00000000
00M00000
0M000200
M0000000
00000000
00000000
,  // measure 96
00000000
00020300
00032000
00203000
,  // measure 97
00300000
00000100
00010000
00000100
00001000
00000100
00000010
00000100
,  // measure 98
00000001
00000100
00002000
00000000
00003000
00000100
00010000
00001000
,  // measure 99
02000000
00000000
031M0000
00M00000
00000000
00100000
10000000
02000000
,  // measure 100
00000000
03100000
00002000
00000000
00023000
00000000
00030020
00000000
,  // measure 101
00000030
00000000
00010000
00000010
00000100
00000010
00000001
00000010
,  // measure 102
00001000
00010000
02000000
00000000
00000000
03010000
00100000
10000000
,  // measure 103
00200000
00000000
02300000
23000000
00000000
31000000
00010000
00002000
,  // measure 104
00000000
00000000
00013000
00000000
00100000
00000000
02000000
00000000
00000000
00000000
03010000
01000000
00010000
01000000
00010000
01000000
,  // measure 105
00010000
10000000
01000000
0M000000
00000000
01000000
00200000
00000000
,  // measure 106
00302000
00000000
00013000
00000200
00000000
00000310
00000001
00000100
,  // measure 107
00000M00
M0000000
0M000000
00M00000
00000000
00000100
00000010
00000100
,  // measure 108
00000001
00000000
00000000
00000000
00000010
00000000
00000000
00000000
00000100
00000000
00000000
00000000
00010000
00000000
00000000
00000000
00001000
00000000
00000000
00000000
00010000
00000000
00001000
00000000
00010000
00001000
00010000
00001000
00010000
00001000
00010000
00001000
,  // measure 109
00010000
00010000
00010000
00010000
00010000
00010000
00010000
00010000
,  // measure 110
00001000
00100000
00001000
02000000
00000000
03001000
10000000
00001000
,  // measure 111
02000000
00000000
03000100
00010000
00000002
00000000
01000003
00001000
10000000
00000000
00000010
00010000
00000001
00000000
00100000
00001000
,  // measure 112
10000000
00000100
01000000
00000002
00000000
2MMMMMM0
00000003
30000200
,  // measure 113
00000000
00000300
00000100
00000000
00000100
00000000
00000100
00000000
00000100
00000000
00000100
00000000
00000100
00000000
00000100
00000000
,  // measure 114
01000000
00000000
00000001
00000000
01000000
00000000
00000020
00000000
00000000
00000000
01000030
00001000
00010000
00000100
01000000
00000000
,  // measure 115
00000100
00000000
00010000
00000010
10000000
00000000
00001000
00100000
00000001
00000000
01000000
00000000
00001000
10000000
00000001
00000000
,  // measure 116
00200000
00000000
00000000
00000000
00000000
00000000
00000000
00000000
00000010
00000000
00000010
00000000
00300010
00010000
00000010
00010000
,  // measure 117
00000010
00000010
00000010
00000010
00000010
00000010
00000010
00000010
,  // measure 118
00010000
00001000
01000000
00000200
00000000
01000300
00001000
00100000
,  // measure 119
00000010
00000000
10000000
00000000
00000100
00000000
10000000
00000100
00010000
00000000
00000100
00100000
00000001
00100000
00001000
00100000
,  // measure 120
00000100
01000000
00000002
20000000
00000000
3MMMMMM3
00000000
00000020
,  // measure 121
00000000
00000030
00000010
00000000
00000010
00000000
00000010
00000000
00000010
00000000
00000010
00000000
00000010
00000000
00000010
00000000
,  // measure 122
00100000
00001000
00010000
00000200
00000000
00000310
00001000
00000010
,  // measure 123
00000100
00000010
00000001
00000010
00001000
00000010
00000001
00001000
00000010
00000000
00000100
00000000
00002000
00000000
00000000
00000000
,  // measure 124
00023000
00000000
00000000
00000000
00030000
00001000
01000000
00100000
,  // measure 125
00010000
00000000
00100000
01000000
00100000
00010000
00100000
10000000
00010000
00000000
00100000
00000000
02000000
00000000
00000000
00000000
,  // measure 126
23000000
00000000
00000000
00000000
30000000
01000000
00010000
00001000
,  // measure 127
00000020
00000000
00000000
00000000
00000030
00000100
00000000
00000100
00002000
00000000
00003200
00000000
00020300
00000000
00000000
00000000
,  // measure 128
00032000
00000000
00000000
00000000
,  // measure 129
02003000
00000000
03000000
00000000
00100000
01000000
00001000
01000000
00100000
01000000
00000000
01000000
00000020
00000000
00000000
00000000
,  // measure 130
00010030
00000000
00000100
00001000
00000000
00001000
00000001
00000100
00000010
00000000
00000100
00000000
00000100
00000000
00000000
00000000
,  // measure 131
00001000
00000000
01000000
00100000
00000000
00100000
00010000
00100000
01000000
00000000
00000000
00000000
01000000
00000000
00000000
00000000
,  // measure 132
00100000
00000000
00010000
00001000
00000000
00001000
00000010
00000100
00001000
00000000
00000010
00000000
00000010
00000000
00000000
00000000
,  // measure 133
00000100
00000000
00001000
00010000
00000000
00010000
01000000
00100000
00020000
00000000
00000000
00000000
00030000
00000000
00000000
00000000
,  // measure 134
00100000
00000000
00000010
00001000
00000000
00001000
00000100
00000001
00000100
00000000
00000010
00000000
00000010
00000000
00000000
00000000
,  // measure 135
00001000
00000000
00100000
00010000
00000000
00010000
01000000
10000000
01000000
00000000
00000000
00000000
01000000
00000000
00000000
00000000
,  // measure 136
00100000
00000000
00010000
00001000
00000000
00001000
01000000
00000100
10000000
00000000
00000100
00000000
00000100
00000000
00000000
00000000
,  // measure 137
01000000
00000000
00000001
00100000
000000M0
001M0000
0000M100
1M0M0000
000000M2
00M0MM00
000M00M0
0M000000
00MM0M00
0000M000
000M0MM0
0M000000
,  // measure 138
10000003
00000000
00000010
00100000
00000000
00100000
00000010
10000000
00000001
00000000
01000000
00000000
01000000
00000000
00000000
00000000
,  // measure 139
00000001
00000000
01000000
00000100
00000000
00000100
10000000
00000001
00200000
00000000
00300000
00000000
00200000
00000000
00000000
00000000
,  // measure 140
00300010
00000000
00010000
00001000
00000000
00001000
01000000
00100000
01000000
00000000
10000000
00000000
10000000
00000000
00000000
00000000
,  // measure 141
01000000
00000000
00010000
00100000
00000000
00100000
01000000
00010000
02000000
00000000
00000000
00000000
00000000
00000000
00000000
00000000
,  // measure 142
03100000
00000000
00001000
00010000
00000000
00010000
00000100
00000010
00000100
00000000
00000001
00000000
00000001
00000000
00000000
00000000
,  // measure 143
00000100
00000000
00001000
00000010
00000000
00000010
00000100
00001000
00000200
00000000
00000300
00000000
00000200
00000000
00000000
00000000
,  // measure 144
00000310
00000000
00010000
00001000
00000000
00001000
00100000
00000100
00100000
00000000
00000010
00000000
00000010
00000000
00010000
00000000
,  // measure 145
00001000
00100000
00000020
00000000
00200000
00000000
00022000
00000000
,  // measure 146
00333030
00000000
00000000
00000000
;
