#TITLE:Just Be Friends;
#SUBTITLE:;
#ARTIST:Megurine Luka;
#TITLETRANSLIT:;
#SUBTITLETRANSLIT:;
#ARTISTTRANSLIT:;
#GENRE:;
#CREDIT:;
#BANNER:;
#BACKGROUND:;
#LYRICSPATH:;
#CDTITLE:cdtitle.png;
#MUSIC:just_be_friends.ogg;
#OFFSET:-0.151;
#SAMPLESTART:39.532;
#SAMPLELENGTH:12.000;
#SELECTABLE:YES;
#BPMS:0.000=127.999;
#STOPS:;
#TIMESIGNATURES:0.000=4=4
;
#BGCHANGES:;
#KEYSOUNDS:;

//---------------dance-double - Kyzentun----------------
#NOTES:
     dance-double:
     Kyzentun:
     Challenge:
     14:
     1.000,1.000,0.000,0.285,1.000,1028.000,0.000,32.000,114.000,0.000,1.000,1.000,1.000,0.000,0.285,1.000,1028.000,0.000,32.000,114.000,0.000,1.000:
00000000
00000000
00000000
00000000
,
00000000
00000000
00000000
00000000
,
00000000
00000000
00000000
00000000
00000000
00000000
00001000
00010000
,
00001000
00010000
00001000
00010000
00001000
00010000
00001000
00010000
00001000
00000000
00000000
00000000
00010000
00000100
00010000
00000100
00010000
00000100
00010000
00000100
00010000
00000100
00010000
00000100
00010000
00000000
00000000
00000000
00000100
00001000
00000100
00001000
,
00000100
00000000
00000000
00000000
00000000
00000000
00001000
00000000
00000000
00000000
00000000
00000000
00000100
00000000
00000000
00000000
00000000
00000000
00001000
00000000
00000000
00000000
00000000
00000000
00000100
00000000
00000000
00000000
00000000
00000000
00000000
00000000
00001000
00000000
00000000
00000000
00000000
00000000
00000000
00000000
00000100
00000000
00000000
00000000
00000000
00000000
00000000
00000000
00001000
00000000
00000000
00000000
00000000
00000000
00000000
00000000
00000000
00000000
00000000
00000000
00000001
00000000
00000000
00000000
00000000
00000000
00000000
00000000
00000000
00000000
00000000
00000000
00000100
00000000
00000000
00000000
00000000
00000000
00000000
00000000
00000000
00000000
00000000
00000000
00000001
00000000
00000000
00000000
00000000
00000000
00000000
00000000
00000000
00000000
00000000
00000000
00000100
00000000
00000000
00000000
00000000
00000000
00000000
00000000
00000000
00000000
00000000
00000000
00000010
00000000
00000000
00000000
00000000
00000000
00000000
00000000
00000000
00000000
00000000
00000000
00000100
00000000
00000000
00000000
00000000
00000000
00000000
00000000
00000000
00000000
00000000
00000000
00001000
00000000
00000000
00000000
00000000
00000000
00000000
00000000
00000000
00000000
00000000
00000000
00000100
00000000
00000000
00000000
00000000
00000000
00000000
00000000
00000000
00000000
00000000
00000000
00000010
00000000
00000000
00000000
00000000
00000000
00000000
00000000
00000000
00000000
00000000
00000000
00000100
00000000
00000000
00000000
00000000
00000000
00000000
00000000
00000000
00000000
00000000
00000000
00000001
00000000
00000000
00000000
00000000
00000000
00000000
00000000
00000000
00000000
00000000
00000000
,
00000100
00000001
00000100
00000001
00000100
00000001
00000100
00000001
00000100
00000000
00000000
00000000
00000001
00001000
00000001
00001000
00000001
00001000
00000001
00001000
00000001
00001000
00000001
00001000
00000001
00000000
00000000
00000000
00001000
00000100
00001000
00000100
,
00001000
00000000
00000000
00000000
00000000
00000000
00000100
00000000
00000000
00000000
00000000
00000000
00001000
00000000
00000000
00000000
00000000
00000000
00000100
00000000
00000000
00000000
00000000
00000000
00001000
00000000
00000000
00000000
00000000
00000000
00000000
00000000
00000100
00000000
00000000
00000000
00000000
00000000
00000000
00000000
00001000
00000000
00000000
00000000
00000000
00000000
00000000
00000000
00000100
00000000
00000000
00000000
00000000
00000000
00000000
00000000
00000000
00000000
00000000
00000000
00000010
00000000
00000000
00000000
00000000
00000000
00000000
00000000
00000000
00000000
00000000
00000000
00000100
00000000
00000000
00000000
00000000
00000000
00000000
00000000
00000000
00000000
00000000
00000000
00000010
00000000
00000000
00000000
00000000
00000000
00000000
00000000
00000000
00000000
00000000
00000000
00000100
00000000
00000000
00000000
00000000
00000000
00000000
00000000
00000000
00000000
00000000
00000000
00000001
00000000
00000000
00000000
00000000
00000000
00000000
00000000
00000000
00000000
00000000
00000000
00000100
00000000
00000000
00000000
00000000
00000000
00000000
00000000
00000000
00000000
00000000
00000000
00000010
00000000
00000000
00000000
00000000
00000000
00000000
00000000
00000000
00000000
00000000
00000000
00000100
00000000
00000000
00000000
00000000
00000000
00000000
00000000
00000000
00000000
00000000
00000000
00001000
00000000
00000000
00000000
00000000
00000000
00000000
00000000
00000000
00000000
00000000
00000000
00000100
00000000
00000000
00000000
00000000
00000000
00000000
00000000
00000000
00000000
00000000
00000000
00010000
00000000
00000000
00000000
00000000
00000000
00000000
00000000
00000000
00000000
00000000
00000000
,
00000100
00010000
00000100
00010000
00000100
00010000
00000100
00010000
00000100
00000000
00000000
00000000
00010000
00001000
00010000
00001000
00010000
00001000
00010000
00001000
00010000
00001000
00010000
00001000
00010000
00000000
00000000
00000000
00001000
00100000
00001000
00100000
,
00001000
00000000
00000000
00000000
00000000
00000000
00100000
00000000
00000000
00000000
00000000
00000000
00001000
00000000
00000000
00000000
00000000
00000000
00100000
00000000
00000000
00000000
00000000
00000000
00001000
00000000
00000000
00000000
00000000
00000000
00000000
00000000
00100000
00000000
00000000
00000000
00000000
00000000
00000000
00000000
00001000
00000000
00000000
00000000
00000000
00000000
00000000
00000000
00100000
00000000
00000000
00000000
00000000
00000000
00000000
00000000
00000000
00000000
00000000
00000000
00010000
00000000
00000000
00000000
00000000
00000000
00000000
00000000
00000000
00000000
00000000
00000000
00100000
00000000
00000000
00000000
00000000
00000000
00000000
00000000
00000000
00000000
00000000
00000000
00010000
00000000
00000000
00000000
00000000
00000000
00000000
00000000
00000000
00000000
00000000
00000000
00100000
00000000
00000000
00000000
00000000
00000000
00000000
00000000
00000000
00000000
00000000
00000000
01000000
00000000
00000000
00000000
00000000
00000000
00000000
00000000
00000000
00000000
00000000
00000000
00100000
00000000
00000000
00000000
00000000
00000000
00000000
00000000
00000000
00000000
00000000
00000000
10000000
00000000
00000000
00000000
00000000
00000000
00000000
00000000
00000000
00000000
00000000
00000000
00100000
00000000
00000000
00000000
00000000
00000000
00000000
00000000
00000000
00000000
00000000
00000000
01000000
00000000
00000000
00000000
00000000
00000000
00000000
00000000
00000000
00000000
00000000
00000000
00100000
00000000
00000000
00000000
00000000
00000000
00000000
00000000
00000000
00000000
00000000
00000000
00010000
00000000
00000000
00000000
00000000
00000000
00000000
00000000
00000000
00000000
00000000
00000000
,
00100000
00010000
00100000
00010000
00100000
00010000
00100000
00010000
00100000
00000000
00000000
00000000
00010000
10000000
00010000
10000000
00010000
10000000
00010000
10000000
00010000
10000000
00010000
10000000
00010000
00000000
00000000
00000000
10000000
00100000
10000000
00100000
,
10000000
00000000
00000000
00000000
00000000
00000000
00100000
00000000
00000000
00000000
00000000
00000000
10000000
00000000
00000000
00000000
00000000
00000000
00100000
00000000
00000000
00000000
00000000
00000000
10000000
00000000
00000000
00000000
00000000
00000000
00000000
00000000
00100000
00000000
00000000
00000000
00000000
00000000
00000000
00000000
10000000
00000000
00000000
00000000
00000000
00000000
00000000
00000000
00100000
00000000
00000000
00000000
00000000
00000000
00000000
00000000
00000000
00000000
00000000
00000000
01000000
00000000
00000000
00000000
00000000
00000000
00000000
00000000
00000000
00000000
00000000
00000000
00100000
00000000
00000000
00000000
00000000
00000000
00000000
00000000
00000000
00000000
00000000
00000000
01000000
00000000
00000000
00000000
00000000
00000000
00000000
00000000
00000000
00000000
00000000
00000000
00100000
00000000
00000000
00000000
00000000
00000000
00000000
00000000
00000000
00000000
00000000
00000000
10000000
00000000
00000000
00000000
00000000
00000000
00000000
00000000
00000000
00000000
00000000
00000000
00100000
00000000
00000000
00000000
00000000
00000000
00000000
00000000
00000000
00000000
00000000
00000000
01000000
00000000
00000000
00000000
00000000
00000000
00000000
00000000
00000000
00000000
00000000
00000000
00200000
00000000
00000000
00000000
00000000
00000000
00000000
00000000
00000000
00000000
00000000
00000000
00300000
00000000
00000000
00000000
00000000
00000000
00000000
00000000
00000000
00000000
00000000
00000000
00200000
00000000
00000000
00000000
00000000
00000000
00000000
00000000
00000000
00000000
00000000
00000000
00300000
00000000
00000000
00000000
00000000
00000000
00000000
00000000
00000000
00000000
00000000
00000000
,
00200000
01300000
00100000
01000000
00100000
01000000
00100000
01000000
00100000
00000000
00000000
00000000
01000000
00010000
01000000
00010000
01000000
00010000
01000000
00010000
01000000
00010000
01000000
00010000
01000000
00000000
00000000
00000000
00020000
00000000
00000000
00000000
,
00000000
00000000
00230000
00000000
01300000
00000000
00010000
00000000
00000200
00000000
00000000
00000000
00000320
00000030
00000020
00000030
,
00000020
00000130
00000010
00000100
00000010
00000100
00000010
00000100
00000010
00000000
00000000
00000000
00000100
00001000
00000100
00001000
00000100
00001000
00000100
00001000
00000100
00001000
00000100
00001000
00000200
00000000
00000000
00000000
00002300
00000000
00000000
00000000
,
00000000
00000000
00003010
00000000
00001000
00000000
00100000
00000000
02000000
00000000
00000000
00000000
03020000
00030000
00020000
00030000
,
00020000
01030000
00010000
01000000
00010000
01000000
00010000
01000000
00010000
00000000
00000000
00000000
01000000
00100000
01000000
00100000
01000000
00100000
01000000
00100000
01000000
00100000
01000000
00100000
01000000
00000000
00000000
00000000
00200000
00000000
00000000
00000000
,
00000000
00000000
10300000
00000000
01000000
00000000
00010000
00000000
00000200
00000000
00000000
00000000
00002300
00003000
00002000
00003000
,
M0002000
M0000000
M0003000
M0000000
M0000000
M0000000
M0000000
M0000000
M0000002
M0000000
M0000003
M0000000
M0000002
M0000000
M0000003
M0000000
M0000002
M0000000
M0000003
M0000000
M0000000
M0000000
M0000000
M0000000
M0000200
M0000000
M0000300
M0000000
M0000200
M0000000
M0000300
M0000000
,
M0000200
M0000000
M0000300
M0000000
M0000000
M0000000
M0000000
M0000000
M0000020
M0000000
M0000000
M0000000
M0000030
M0000000
M0000000
M0000000
M0000020
M0000000
M0000000
M0000000
M0000030
M0000000
M0000000
M0000000
M0040000
00000000
00000000
00000000
00000000
00000000
00000000
00000000
,
00031000
01000000
00001000
01000000
00001000
00000000
00000000
00000000
01000000
00000000
00000000
00000000
00100000
00000000
00000000
00000000
10000000
00010000
10000000
00010000
10000000
00000000
00000000
00000000
00010000
00000000
00000000
00000000
10000000
00000000
00000000
00000000
,
00010000
01000000
00010000
01000000
00010000
01000000
00010000
01000000
00100000
01000000
00100000
01000000
00100000
01000000
00100000
01000000
00100000
10000000
00100000
10000000
00100000
10000000
00100000
10000000
00100000
00000000
00000000
00000000
01000000
00000000
00000000
00000000
,
00001000
00010000
00001000
00010000
00001000
00000000
00000000
00000000
00010000
00000000
00000000
00000000
00000100
00000000
00000000
00000000
00000010
00000100
00000010
00000100
00000010
00000000
00000000
00000000
00000100
00000000
00000000
00000000
00001000
00000000
00000000
00000000
,
00000100
00001000
00000100
00001000
00000100
00001000
00000100
00001000
00000001
00001000
00000001
00001000
00000001
00001000
00000001
00001000
00000001
00000010
00000001
00000010
00000001
00000010
00000001
00000010
00000100
00000010
00000100
00000010
00000100
00000010
00000100
00000010
,
00000100
00001000
00000100
00001000
00000100
00000000
00000000
00000000
00001000
00000000
00000000
00000000
00000001
00000000
00000000
00000000
00001000
00000010
00001000
00000010
00001000
00000000
00000000
00000000
00000010
00000000
00000000
00000000
00010000
00000000
00000000
00000000
,
00000100
00010000
00000100
00010000
00000100
00010000
00000100
00010000
00001000
00010000
00001000
00010000
00001000
00010000
00001000
00010000
00001000
01000000
00001000
01000000
00001000
01000000
00001000
01000000
00001000
00000000
00000000
00000000
01000000
00000000
00000000
00000000
,
00100000
01000000
00100000
01000000
00100000
00000000
00000000
00000000
10000000
00000000
00000000
00000000
01000000
00000000
00000000
00000000
00100000
00010000
00100000
00010000
00100000
00000000
00000000
00000000
00010000
00000000
00000000
00000000
10000000
00000000
00000000
00000000
,
00010000
01000000
00010000
01000000
00010000
01000000
00010000
01000000
00001000
01000000
00001000
01000000
00001000
01000000
00001000
01000000
00001000
00010000
00001000
00010000
00001000
00010000
00001000
00010000
00001000
00000000
00100000
00000000
00001000
00000000
00010000
00000000
,
00000100
00001000
00000100
00001000
00000100
00000000
00000000
00000000
00000010
00000000
00000000
00000000
00001000
00000000
00000000
00000000
00010000
00001000
00010000
00001000
00010000
00000000
00000000
00000000
00100000
00000000
00000000
00000000
01000000
00000000
00000000
00000000
,
00010000
01000000
00010000
01000000
00010000
01000000
00010000
01000000
00001000
01000000
00001000
01000000
00001000
01000000
00001000
01000000
00001000
00010000
00001000
00010000
00001000
00010000
00001000
00010000
00001000
00000000
00000000
00000000
00000100
00000000
00000000
00000000
,
00000010
00000100
00000010
00000100
00000010
00000000
00000000
00000000
00000100
00000000
00000000
00000000
00001000
00000000
00000000
00000000
00010000
00001000
00010000
00001000
00010000
00000000
00000000
00000000
01000000
00000000
00000000
00000000
00100000
00000000
00000000
00000000
,
00010000
00100000
00010000
00100000
00010000
00100000
00010000
00100000
00001000
00100000
00001000
00100000
00001000
00100000
00001000
00100000
00001000
00010000
00001000
00010000
00001000
00010000
00001000
00010000
00000010
00010000
00000010
00010000
00000010
00010000
00000010
00010000
,
00000010
00001000
00000010
00001000
00000010
00000000
00000000
00000000
00000100
00000000
00000000
00000000
00001000
00000000
00000000
00000000
00010000
00001000
00010000
00001000
00010000
00000000
00000000
00000000
00100000
00000000
00000000
00000000
01000000
00000000
00000000
00000000
,
00010000
01000000
00010000
01000000
00010000
01000000
00010000
01000000
00100000
01000000
00100000
01000000
00100000
01000000
00100000
01000000
00100000
10000000
00100000
10000000
00100000
10000000
00100000
10000000
00100000
00000000
00000000
00000000
01000000
00000000
00000000
00000000
,
00001000
00010000
00001000
00010000
00001000
00000000
00000000
00000000
00000010
00000000
00000000
00000000
00000001
00000000
00000000
00000000
00001000
00000010
00001000
00000010
00001000
00000000
00000000
00000000
00000100
00000000
00000000
00000000
00010000
00000000
00000000
00000000
,
00001000
00010000
00001000
00010000
00001000
00010000
00001000
00010000
00000100
00010000
00000100
00010000
00000100
00010000
00000100
00010000
00000100
00001000
00000100
00001000
00000100
00001000
00000100
00001000
00000001
00000000
00000100
00000000
00000010
00000000
00000100
00000000
,
00000001
00000000
00000100
00000000
00000100
00000000
00000010
00010000
00000000
00010000
00001000
00000000
00100000
00000000
00010000
10000000
,
00000000
10000000
00100000
00000000
00010000
00000000
00001000
01000000
00000000
01000000
00001000
00000000
00010000
00000000
00000100
00000000
,
00000000
00000000
00001000
00000000
00001000
00000000
00000001
00000100
00000000
00000100
00000020
00000000
00000030
00000000
00010000
00000000
,
00001000
00000000
01000000
00000000
10000000
00000000
01000000
00010000
00000000
00010000
00100000
00000000
00000000
00000000
00001000
00010000
,
00000100
00000010
00000100
00002000
00000000
00003001
00000000
00000100
,
00000100
00000000
00001000
00000000
00010000
00000000
00100000
01000000
00000000
00000000
00100000
00000000
00000000
00000000
10000000
00000000
,
0100000M
0000000M
0000000M
0000000M
0010000M
0000000M
0000000M
0000000M
0000000M
0000000M
0000000M
0000000M
0010000M
0000000M
0000000M
0000000M
0000000M
0000000M
0000000M
0000000M
0010000M
0000000M
0000000M
0000000M
0000000M
0000000M
0000000M
0000000M
0020000M
0000000M
0000000M
0000000M
,
0000000M
0000000M
0000000M
0000000M
0000000M
0000000M
0000000M
0000000M
0000000M
0000000M
0000000M
0000000M
0000000M
0000000M
0000000M
0000000M
0000000M
0000000M
0000000M
0000000M
0030100M
0000000M
0000000M
0000000M
0001000M
00000000
00000000
00000000
00000100
00000000
00000000
00000000
,
00001000
00000100
00001000
00000100
00001000
00000100
00001000
00000100
00001000
00000000
00000000
00000000
00000100
00000010
00000100
00000010
00000100
00000010
00000100
00000010
00000100
00000010
00000100
00000010
00000100
00000000
00000000
00000000
00000010
00000001
00000010
00000001
,
00000010
00000000
00000000
00000000
00000000
00000000
00000001
00000000
00000000
00000000
00000000
00000000
00000010
00000000
00000000
00000000
00000000
00000000
00000001
00000000
00000000
00000000
00000000
00000000
00000010
00000000
00000000
00000000
00000000
00000000
00000000
00000000
00000001
00000000
00000000
00000000
00000000
00000000
00000000
00000000
00000010
00000000
00000000
00000000
00000000
00000000
00000000
00000000
00000001
00000000
00000000
00000000
00000000
00000000
00000000
00000000
00000000
00000000
00000000
00000000
00001000
00000000
00000000
00000000
00000000
00000000
00000000
00000000
00000000
00000000
00000000
00000000
00000001
00000000
00000000
00000000
00000000
00000000
00000000
00000000
00000000
00000000
00000000
00000000
00001000
00000000
00000000
00000000
00000000
00000000
00000000
00000000
00000000
00000000
00000000
00000000
00000010
00000000
00000000
00000000
00000000
00000000
00000000
00000000
00000000
00000000
00000000
00000000
00000100
00000000
00000000
00000000
00000000
00000000
00000000
00000000
00000000
00000000
00000000
00000000
00001000
00000000
00000000
00000000
00000000
00000000
00000000
00000000
00000000
00000000
00000000
00000000
00000100
00000000
00000000
00000000
00000000
00000000
00000000
00000000
00000000
00000000
00000000
00000000
00000010
00000000
00000000
00000000
00000000
00000000
00000000
00000000
00000000
00000000
00000000
00000000
00000100
00000000
00000000
00000000
00000000
00000000
00000000
00000000
00000000
00000000
00000000
00000000
00000001
00000000
00000000
00000000
00000000
00000000
00000000
00000000
00000000
00000000
00000000
00000000
00000100
00000000
00000000
00000000
00000000
00000000
00000000
00000000
00000000
00000000
00000000
00000000
,
00000010
00001000
00000010
00001000
00000010
00001000
00000010
00001000
00000010
00000000
00000000
00000000
00001000
00000100
00001000
00000100
00001000
00000100
00001000
00000100
00001000
00000100
00001000
00000100
00001000
00000000
00000000
00000000
00000100
00010000
00000100
00010000
,
00000100
00000000
00000000
00000000
00000000
00000000
00010000
00000000
00000000
00000000
00000000
00000000
00000100
00000000
00000000
00000000
00000000
00000000
00010000
00000000
00000000
00000000
00000000
00000000
00000100
00000000
00000000
00000000
00000000
00000000
00000000
00000000
00010000
00000000
00000000
00000000
00000000
00000000
00000000
00000000
00000100
00000000
00000000
00000000
00000000
00000000
00000000
00000000
00010000
00000000
00000000
00000000
00000000
00000000
00000000
00000000
00000000
00000000
00000000
00000000
00001000
00000000
00000000
00000000
00000000
00000000
00000000
00000000
00000000
00000000
00000000
00000000
00010000
00000000
00000000
00000000
00000000
00000000
00000000
00000000
00000000
00000000
00000000
00000000
00001000
00000000
00000000
00000000
00000000
00000000
00000000
00000000
00000000
00000000
00000000
00000000
00100000
00000000
00000000
00000000
00000000
00000000
00000000
00000000
00000000
00000000
00000000
00000000
00001000
00000000
00000000
00000000
00000000
00000000
00000000
00000000
00000000
00000000
00000000
00000000
00010000
00000000
00000000
00000000
00000000
00000000
00000000
00000000
00000000
00000000
00000000
00000000
00001000
00000000
00000000
00000000
00000000
00000000
00000000
00000000
00000000
00000000
00000000
00000000
01000000
00000000
00000000
00000000
00000000
00000000
00000000
00000000
00000000
00000000
00000000
00000000
00001000
00000000
00000000
00000000
00000000
00000000
00000000
00000000
00000000
00000000
00000000
00000000
00010000
00000000
00000000
00000000
00000000
00000000
00000000
00000000
00000000
00000000
00000000
00000000
00001000
00000000
00000000
00000000
00000000
00000000
00000000
00000000
00000000
00000000
00000000
00000000
,
00100000
00010000
00100000
00010000
00100000
00010000
00100000
00010000
00100000
00000000
00000000
00000000
00010000
10000000
00010000
10000000
00010000
10000000
00010000
10000000
00010000
10000000
00010000
10000000
00010000
00000000
00000000
00000000
10000000
00100000
10000000
00100000
,
10000000
00000000
00000000
00000000
00000000
00000000
00100000
00000000
00000000
00000000
00000000
00000000
10000000
00000000
00000000
00000000
00000000
00000000
00100000
00000000
00000000
00000000
00000000
00000000
10000000
00000000
00000000
00000000
00000000
00000000
00000000
00000000
00100000
00000000
00000000
00000000
00000000
00000000
00000000
00000000
10000000
00000000
00000000
00000000
00000000
00000000
00000000
00000000
00100000
00000000
00000000
00000000
00000000
00000000
00000000
00000000
00000000
00000000
00000000
00000000
01000000
00000000
00000000
00000000
00000000
00000000
00000000
00000000
00000000
00000000
00000000
00000000
00100000
00000000
00000000
00000000
00000000
00000000
00000000
00000000
00000000
00000000
00000000
00000000
01000000
00000000
00000000
00000000
00000000
00000000
00000000
00000000
00000000
00000000
00000000
00000000
00010000
00000000
00000000
00000000
00000000
00000000
00000000
00000000
00000000
00000000
00000000
00000000
01000000
00000000
00000000
00000000
00000000
00000000
00000000
00000000
00000000
00000000
00000000
00000000
00100000
00000000
00000000
00000000
00000000
00000000
00000000
00000000
00000000
00000000
00000000
00000000
01000000
00000000
00000000
00000000
00000000
00000000
00000000
00000000
00000000
00000000
00000000
00000000
10000000
00000000
00000000
00000000
00000000
00000000
00000000
00000000
00000000
00000000
00000000
00000000
01000000
00000000
00000000
00000000
00000000
00000000
00000000
00000000
00000000
00000000
00000000
00000000
00100000
00000000
00000000
00000000
00000000
00000000
00000000
00000000
00000000
00000000
00000000
00000000
01000000
00000000
00000000
00000000
00000000
00000000
00000000
00000000
00000000
00000000
00000000
00000000
,
00010000
01000000
00010000
01000000
00010000
01000000
00010000
01000000
00010000
00000000
00000000
00000000
01000000
00001000
01000000
00001000
01000000
00001000
01000000
00001000
01000000
00001000
01000000
00001000
01000000
00000000
00000000
00000000
00001000
00010000
00001000
00010000
,
00001000
00000000
00000000
00000000
00000000
00000000
00010000
00000000
00000000
00000000
00000000
00000000
00001000
00000000
00000000
00000000
00000000
00000000
00010000
00000000
00000000
00000000
00000000
00000000
00001000
00000000
00000000
00000000
00000000
00000000
00000000
00000000
00010000
00000000
00000000
00000000
00000000
00000000
00000000
00000000
00001000
00000000
00000000
00000000
00000000
00000000
00000000
00000000
00010000
00000000
00000000
00000000
00000000
00000000
00000000
00000000
00000000
00000000
00000000
00000000
00000010
00000000
00000000
00000000
00000000
00000000
00000000
00000000
00000000
00000000
00000000
00000000
00010000
00000000
00000000
00000000
00000000
00000000
00000000
00000000
00000000
00000000
00000000
00000000
00000010
00000000
00000000
00000000
00000000
00000000
00000000
00000000
00000000
00000000
00000000
00000000
00001000
00000000
00000000
00000000
00000000
00000000
00000000
00000000
00000000
00000000
00000000
00000000
00000010
00000000
00000000
00000000
00000000
00000000
00000000
00000000
00000000
00000000
00000000
00000000
00000100
00000000
00000000
00000000
00000000
00000000
00000000
00000000
00000000
00000000
00000000
00000000
00000010
00000000
00000000
00000000
00000000
00000000
00000000
00000000
00000000
00000000
00000000
00000000
00000001
00000000
00000000
00000000
00000000
00000000
00000000
00000000
00000000
00000000
00000000
00000000
00000010
00000000
00000000
00000000
00000000
00000000
00000000
00000000
00000000
00000000
00000000
00000000
00000100
00000000
00000000
00000000
00000000
00000000
00000000
00000000
00000000
00000000
00000000
00000000
00000010
00000000
00000000
00000000
00000000
00000000
00000000
00000000
00000000
00000000
00000000
00000000
,
00001000
00000010
00001000
00000010
00001000
00000010
00001000
00000010
00001000
00000000
00000000
00000000
00000010
00000100
00000010
00000100
00000010
00000100
00000010
00000100
00000010
00000100
00000010
00000100
00000010
00000000
00000000
00000000
00000100
00000001
00000100
00000001
,
00000100
00000000
00000000
00000000
00000000
00000000
00000001
00000000
00000000
00000000
00000000
00000000
00000100
00000000
00000000
00000000
00000000
00000000
00000001
00000000
00000000
00000000
00000000
00000000
00000100
00000000
00000000
00000000
00000000
00000000
00000000
00000000
00000001
00000000
00000000
00000000
00000000
00000000
00000000
00000000
00000100
00000000
00000000
00000000
00000000
00000000
00000000
00000000
00000001
00000000
00000000
00000000
00000000
00000000
00000000
00000000
00000000
00000000
00000000
00000000
00000100
00000000
00000000
00000000
00000000
00000000
00000000
00000000
00000000
00000000
00000000
00000000
00000001
00000000
00000000
00000000
00000000
00000000
00000000
00000000
00000000
00000000
00000000
00000000
00000100
00000000
00000000
00000000
00000000
00000000
00000000
00000000
00000000
00000000
00000000
00000000
00000010
00000000
00000000
00000000
00000000
00000000
00000000
00000000
00000000
00000000
00000000
00000000
00001000
00000000
00000000
00000000
00000000
00000000
00000000
00000000
00000000
00000000
00000000
00000000
00000001
00000000
00000000
00000000
00000000
00000000
00000000
00000000
00000000
00000000
00000000
00000000
00001000
00000000
00000000
00000000
00000000
00000000
00000000
00000000
00000000
00000000
00000000
00000000
00000100
00000000
00000000
00000000
00000000
00000000
00000000
00000000
00000000
00000000
00000000
00000000
00010000
00000000
00000000
00000000
00000000
00000000
00000000
00000000
00000000
00000000
00000000
00000000
00001000
00000000
00000000
00000000
00000000
00000000
00000000
00000000
00000000
00000000
00000000
00000000
00010000
00000000
00000000
00000000
00000000
00000000
00000000
00000000
00000000
00000000
00000000
00000000
,
00000100
00010000
00000100
00010000
00000100
00010000
00000100
00010000
00000100
00000000
00000000
00000000
00010000
00001000
00010000
00001000
00010000
00001000
00010000
00001000
00010000
00001000
00010000
00001000
00010000
00000000
00000000
00000000
00001000
00100000
00001000
00100000
,
00001000
00000000
00000000
00000000
00000000
00000000
00100000
00000000
00000000
00000000
00000000
00000000
00001000
00000000
00000000
00000000
00000000
00000000
00100000
00000000
00000000
00000000
00000000
00000000
00001000
00000000
00000000
00000000
00000000
00000000
00000000
00000000
00100000
00000000
00000000
00000000
00000000
00000000
00000000
00000000
00001000
00000000
00000000
00000000
00000000
00000000
00000000
00000000
00100000
00000000
00000000
00000000
00000000
00000000
00000000
00000000
00000000
00000000
00000000
00000000
00001000
00000000
00000000
00000000
00000000
00000000
00000000
00000000
00000000
00000000
00000000
00000000
00100000
00000000
00000000
00000000
00000000
00000000
00000000
00000000
00000000
00000000
00000000
00000000
00001000
00000000
00000000
00000000
00000000
00000000
00000000
00000000
00000000
00000000
00000000
00000000
01000000
00000000
00000000
00000000
00000000
00000000
00000000
00000000
00000000
00000000
00000000
00000000
00010000
00000000
00000000
00000000
00000000
00000000
00000000
00000000
00000000
00000000
00000000
00000000
10000000
00000000
00000000
00000000
00000000
00000000
00000000
00000000
00000000
00000000
00000000
00000000
01000000
00000000
00000000
00000000
00000000
00000000
00000000
00000000
00000000
00000000
00000000
00000000
00100000
00000000
00000000
00000000
00000000
00000000
00000000
00000000
00000000
00000000
00000000
00000000
01000000
00000000
00000000
00000000
00000000
00000000
00000000
00000000
00000000
00000000
00000000
00000000
10000000
00000000
00000000
00000000
00000000
00000000
00000000
00000000
00000000
00000000
00000000
00000000
00010000
00000000
00000000
00000000
00000000
00000000
00000000
00000000
00000000
00000000
00000000
00000000
,
01000000
00010000
01000000
00010000
01000000
00010000
01000000
00010000
01000000
00000000
00000000
00000000
00010000
00100000
00010000
00100000
00010000
00100000
00010000
00100000
00010000
00100000
00010000
00100000
00010000
00000000
00000000
00000000
00100000
00001000
00100000
00001000
,
00100000
00000000
00000000
00000000
00000000
00000000
00001000
00000000
00000000
00000000
00000000
00000000
00100000
00000000
00000000
00000000
00000000
00000000
00001000
00000000
00000000
00000000
00000000
00000000
00100000
00000000
00000000
00000000
00000000
00000000
00000000
00000000
00001000
00000000
00000000
00000000
00000000
00000000
00000000
00000000
00100000
00000000
00000000
00000000
00000000
00000000
00000000
00000000
00001000
00000000
00000000
00000000
00000000
00000000
00000000
00000000
00000000
00000000
00000000
00000000
00100000
00000000
00000000
00000000
00000000
00000000
00000000
00000000
00000000
00000000
00000000
00000000
00001000
00000000
00000000
00000000
00000000
00000000
00000000
00000000
00000000
00000000
00000000
00000000
00100000
00000000
00000000
00000000
00000000
00000000
00000000
00000000
00000000
00000000
00000000
00000000
00001000
00000000
00000000
00000000
00000000
00000000
00000000
00000000
00000000
00000000
00000000
00000000
00010000
00000000
00000000
00000000
00000000
00000000
00000000
00000000
00000000
00000000
00000000
00000000
00000100
00000000
00000000
00000000
00000000
00000000
00000000
00000000
00000000
00000000
00000000
00000000
00001000
00000000
00000000
00000000
00000000
00000000
00000000
00000000
00000000
00000000
00000000
00000000
00000100
00000000
00000000
00000000
00000000
00000000
00000000
00000000
00000000
00000000
00000000
00000000
00000010
00000000
00000000
00000000
00000000
00000000
00000000
00000000
00000000
00000000
00000000
00000000
00000001
00000000
00000000
00000000
00000000
00000000
00000000
00000000
00000000
00000000
00000000
00000000
00001000
00000000
00000000
00000000
00000000
00000000
00000000
00000000
00000000
00000000
00000000
00000000
,
00000100
00001000
00000100
00001000
00000100
00001000
00000100
00001000
00000100
00000000
00000000
00000000
00001000
00000010
00001000
00000010
00001000
00000010
00001000
00000010
00001000
00000010
00001000
00000010
00001000
00000000
00000000
00000000
00000010
00010000
00000010
00010000
,
00000010
00000000
00000000
00000000
00000000
00000000
00010000
00000000
00000000
00000000
00000000
00000000
00000010
00000000
00000000
00000000
00000000
00000000
00010000
00000000
00000000
00000000
00000000
00000000
00000010
00000000
00000000
00000000
00000000
00000000
00000000
00000000
00010000
00000000
00000000
00000000
00000000
00000000
00000000
00000000
00000010
00000000
00000000
00000000
00000000
00000000
00000000
00000000
00010000
00000000
00000000
00000000
00000000
00000000
00000000
00000000
00000000
00000000
00000000
00000000
00000010
00000000
00000000
00000000
00000000
00000000
00000000
00000000
00000000
00000000
00000000
00000000
00010000
00000000
00000000
00000000
00000000
00000000
00000000
00000000
00000000
00000000
00000000
00000000
00000010
00000000
00000000
00000000
00000000
00000000
00000000
00000000
00000000
00000000
00000000
00000000
00010000
00000000
00000000
00000000
00000000
00000000
00000000
00000000
00000000
00000000
00000000
00000000
00001000
00000000
00000000
00000000
00000000
00000000
00000000
00000000
00000000
00000000
00000000
00000000
01000000
00000000
00000000
00000000
00000000
00000000
00000000
00000000
00000000
00000000
00000000
00000000
00010000
00000000
00000000
00000000
00000000
00000000
00000000
00000000
00000000
00000000
00000000
00000000
01000000
00000000
00000000
00000000
00000000
00000000
00000000
00000000
00000000
00000000
00000000
00000000
10000000
00000000
00000000
00000000
00000000
00000000
00000000
00000000
00000000
00000000
00000000
00000000
02000000
00000000
00000000
00000000
00000000
00000000
00000000
00000000
00000000
00000000
00000000
00000000
00000000
00000000
00000000
00000000
00000000
00000000
00000000
00000000
00000000
00000000
00000000
00000000
,
00000000
00000000
00000000
00000000
00000000
00000000
00000000
03000000
;

//---------------dance-double - Kyzentun----------------
#NOTES:
     dance-double:
     Kyzentun:
     Hard:
     12:
     1.000,1.000,0.000,0.285,1.000,861.000,0.000,32.000,114.000,0.000,1.000,1.000,1.000,0.000,0.285,1.000,861.000,0.000,32.000,114.000,0.000,1.000:
00000000
00000000
00000000
00000000
,
00000000
00000000
00000000
00000000
,
00000000
00000000
00000000
00000000
00000000
00000000
00010000
00001000
,
00010000
00001000
00010000
00001000
00010000
00001000
00010000
00000000
00000000
00001000
00100000
00001000
00100000
00001000
00100000
00001000
00100000
00001000
00100000
00000000
00000000
00010000
00100000
00010000
,
00100000
00000000
00010000
00000000
00100000
00000000
00010000
00000000
00100000
00000000
00010000
00000000
10000000
00000000
00000000
00100000
00000000
00000000
10000000
00000000
00000000
00100000
00000000
00000000
01000000
00000000
00000000
00100000
00000000
00000000
00010000
00000000
00000000
00100000
00000000
00000000
01000000
00000000
00000000
00100000
00000000
00000000
10000000
00000000
00000000
00100000
00000000
00000000
,
10000000
00100000
10000000
00100000
10000000
00100000
10000000
00000000
00000000
00010000
10000000
00010000
10000000
00010000
10000000
00010000
10000000
00010000
10000000
00000000
00000000
00010000
00100000
00010000
,
00100000
00000000
00010000
00000000
00100000
00000000
00010000
00000000
00100000
00000000
00010000
00000000
00100000
00000000
00000000
01000000
00000000
00000000
00100000
00000000
00000000
01000000
00000000
00000000
00100000
00000000
00000000
10000000
00000000
00000000
00100000
00000000
00000000
01000000
00000000
00000000
00100000
00000000
00000000
00010000
00000000
00000000
00100000
00000000
00000000
00001000
00000000
00000000
,
00100000
00001000
00100000
00001000
00100000
00001000
00100000
00000000
00000000
00001000
00010000
00001000
00010000
00001000
00010000
00001000
00010000
00001000
00010000
00000000
00000000
00000100
00010000
00000100
,
00010000
00000000
00000100
00000000
00010000
00000000
00000100
00000000
00010000
00000000
00000100
00000000
00001000
00000000
00000000
00000100
00000000
00000000
00001000
00000000
00000000
00000100
00000000
00000000
00000010
00000000
00000000
00000100
00000000
00000000
00000001
00000000
00000000
00000100
00000000
00000000
00000010
00000000
00000000
00000100
00000000
00000000
00001000
00000000
00000000
00000100
00000000
00000000
,
00001000
00000100
00001000
00000100
00001000
00000100
00001000
00000000
00000000
00000001
00001000
00000001
00001000
00000001
00001000
00000001
00001000
00000001
00001000
00000000
00000000
00000001
00000100
00000001
,
00000100
00000000
00000001
00000000
00000100
00000000
00000001
00000000
00000100
00000000
00000001
00000000
00000100
00000000
00000000
00000010
00000000
00000000
00000100
00000000
00000000
00000010
00000000
00000000
00000100
00000000
00000000
00000001
00000000
00000000
00000100
00000000
00000000
00000010
00000000
00000000
00000200
00000000
00000000
00000300
00000000
00000000
00000200
00000000
00000000
00000300
00000000
00000000
,
00000200
00000310
00000100
00000010
00000100
00000010
00000100
00000000
00000000
00000010
00001000
00000010
00001000
00000010
00001000
00000010
00001000
00000010
00001000
00000000
00000000
00002000
00000000
00000000
,
00000000
00000000
00003200
00000000
00000310
00000000
00001000
00000000
00200000
00000000
00000000
00000000
02300000
03000000
02000000
03000000
,
02000000
00000000
03100000
00000000
01000000
00000000
00100000
00000000
01000000
00000000
00100000
00000000
01000000
00000000
00000000
00000000
00000000
00000000
00100000
00000000
00010000
00000000
00100000
00000000
00010000
00000000
00100000
00000000
00010000
00000000
00100000
00000000
00010000
00000000
00100000
00000000
00020000
00000000
00000000
00030000
00000000
00000000
00020000
00000000
00000000
00000000
00000000
00000000
,
00000000
00000000
01030000
00000000
00010000
00000000
00000100
00000000
00000020
00000000
00000000
00000000
00002030
00003000
00002000
00003000
,
00002000
00003010
00001000
00000010
00001000
00000010
00001000
00000000
00000000
00000010
00000100
00000010
00000100
00000010
00000100
00000010
00000100
00000010
00000100
00000000
00000000
00000200
00000000
00000000
,
00000000
00000000
00000301
00000000
00000010
00000000
00001000
00000000
00200000
00000000
00000000
00000000
00320000
00030000
00020000
00030000
,
0002000M
0000000M
0003000M
0000000M
0000000M
0000000M
0000000M
0000000M
2000000M
0000000M
3000000M
0000000M
2000000M
0000000M
3000000M
0000000M
2000000M
0000000M
3000000M
0000000M
0000000M
0000000M
0000000M
0000000M
0020000M
0000000M
0030000M
0000000M
0020000M
0000000M
0030000M
0000000M
,
0020000M
0000000M
0030000M
0000000M
0000000M
0000000M
0000000M
0000000M
0200000M
0000000M
0000000M
0000000M
0300000M
0000000M
0000000M
0000000M
0200000M
0000000M
0000000M
0000000M
0300000M
0000000M
0000000M
0000000M
0000400M
00000000
00000000
00000000
00000000
00000000
00000000
00000000
,
00013000
00000010
00010000
00000010
00000000
00000000
00010000
00000000
00000000
00000010
00000000
00000000
00001000
00000001
00001000
00000001
00000000
00000000
00001000
00000000
00000000
00000001
00000000
00000000
,
00001000
00000010
00001000
00000010
00001000
00000010
00000100
00000010
00000100
00000010
00000100
00000010
00000100
00000001
00000100
00000001
00000100
00000001
00000100
00000000
00000000
00000010
00000000
00000000
,
00010000
00001000
00010000
00001000
00000000
00000000
00100000
00000000
00000000
00010000
00000000
00000000
00100000
01000000
00100000
01000000
00000000
00000000
00100000
00000000
00000000
00010000
00000000
00000000
,
00100000
00010000
00100000
00010000
00100000
00010000
10000000
00010000
10000000
00010000
10000000
00010000
10000000
01000000
10000000
01000000
10000000
01000000
00100000
01000000
00100000
01000000
00100000
01000000
,
00100000
00010000
00100000
00010000
00000000
00000000
10000000
00000000
00000000
00010000
00000000
00000000
01000000
00010000
01000000
00010000
00000000
00000000
01000000
00000000
00000000
00001000
00000000
00000000
,
00100000
00001000
00100000
00001000
00100000
00001000
00010000
00001000
00010000
00001000
00010000
00001000
00010000
00000010
00010000
00000010
00010000
00000010
00010000
00000000
00000000
00000010
00000000
00000000
,
00000100
00000010
00000100
00000010
00000000
00000000
00000100
00000000
00000000
00000001
00000000
00000000
00001000
00000100
00001000
00000100
00000000
00000000
00001000
00000000
00000000
00000001
00000000
00000000
,
00001000
00000000
00000010
00000000
00001000
00000000
00000010
00000000
00001000
00000000
00000010
00000000
00010000
00000000
00000010
00000000
00010000
00000000
00000010
00000000
00010000
00000000
00000010
00000000
00010000
00000000
00001000
00000000
00010000
00000000
00001000
00000000
00010000
00000000
00001000
00000000
00010000
00000000
00000000
00000100
00000000
00000000
00010000
00000000
00000000
00001000
00000000
00000000
,
00100000
00010000
00100000
00010000
00000000
00000000
01000000
00000000
00000000
00001000
00000000
00000000
00010000
00001000
00010000
00001000
00000000
00000000
00000100
00000000
00000000
00000010
00000000
00000000
,
00001000
00000010
00001000
00000010
00001000
00000010
00010000
00000010
00010000
00000010
00010000
00000010
00010000
00001000
00010000
00001000
00010000
00001000
00010000
00000000
00000000
00100000
00000000
00000000
,
01000000
00100000
01000000
00100000
00000000
00000000
00010000
00000000
00000000
00001000
00000000
00000000
00010000
00001000
00010000
00001000
00000000
00000000
00000010
00000000
00000000
00000100
00000000
00000000
,
00001000
00000100
00001000
00000100
00001000
00000100
00010000
00000100
00010000
00000100
00010000
00000100
00010000
00001000
00010000
00001000
00010000
00001000
01000000
00001000
01000000
00001000
01000000
00001000
,
01000000
00010000
01000000
00010000
00000000
00000000
00100000
00000000
00000000
00001000
00000000
00000000
00010000
00001000
00010000
00001000
00000000
00000000
00000100
00000000
00000000
00000010
00000000
00000000
,
00001000
00000010
00001000
00000010
00001000
00000010
00000100
00000010
00000100
00000010
00000100
00000010
00000100
00000001
00000100
00000001
00000100
00000001
00000100
00000000
00000000
00000010
00000000
00000000
,
00010000
00001000
00010000
00001000
00000000
00000000
00100000
00000000
00000000
00010000
00000000
00000000
01000000
00010000
01000000
00010000
00000000
00000000
00100000
00000000
00000000
00001000
00000000
00000000
,
00010000
00000000
00001000
00000000
00010000
00000000
00001000
00000000
00010000
00000000
00001000
00000000
00100000
00000000
00001000
00000000
00100000
00000000
00001000
00000000
00100000
00000000
00001000
00000000
00100000
00000000
00010000
00000000
00100000
00000000
00010000
00000000
00100000
00000000
00010000
00000000
10000000
00000000
00000000
00100000
00000000
00000000
01000000
00000000
00000000
00100000
00000000
00000000
,
10000000
00000000
00100000
00000000
00100000
00000000
01000000
00001000
00000000
00001000
00010000
00000000
00000100
00000000
00001000
00000001
,
00000000
00000001
00000100
00000000
00001000
00000000
00010000
00000010
00000000
00000010
00010000
00000000
00001000
00000000
00100000
00000000
,
00000000
00000000
00010000
00000000
00010000
00000000
10000000
00100000
00000000
00100000
02000000
00000000
03000000
00000000
00001000
00000000
,
00010000
00000000
00000010
00000000
00000001
00000000
00000010
00001000
00000000
00001000
00000100
00000000
00000000
00000000
00010000
00001000
,
00100000
01000000
00100000
00020000
00000000
10030000
00000000
00100000
,
00100000
00000000
00010000
00000000
00001000
00000000
00000100
00000010
00000000
00000000
00000100
00000000
00000000
00000000
00000001
00000000
,
M0000010
M0000000
M0000000
M0000000
M0000100
M0000000
M0000000
M0000000
M0000000
M0000000
M0000000
M0000000
M0000100
M0000000
M0000000
M0000000
M0000000
M0000000
M0000000
M0000000
M0000100
M0000000
M0000000
M0000000
M0000000
M0000000
M0000000
M0000000
M0000200
M0000000
M0000000
M0000000
,
M0000000
M0000000
M0000000
M0000000
M0000000
M0000000
M0000000
M0000000
M0000000
M0000000
M0000000
M0000000
M0000000
M0000000
M0000000
M0000000
M0000000
M0000000
M0000000
M0000000
M0010300
M0000000
M0000000
M0000000
M0001000
00000000
00000000
00000000
00100000
00000000
00000000
00000000
,
00010000
00100000
00010000
00100000
00010000
00100000
00010000
00000000
00000000
00100000
01000000
00100000
01000000
00100000
01000000
00100000
01000000
00100000
01000000
00000000
00000000
10000000
01000000
10000000
,
01000000
00000000
10000000
00000000
01000000
00000000
10000000
00000000
01000000
00000000
10000000
00000000
00010000
00000000
00000000
10000000
00000000
00000000
00010000
00000000
00000000
10000000
00000000
00000000
00100000
00000000
00000000
01000000
00000000
00000000
00100000
00000000
00000000
00010000
00000000
00000000
00100000
00000000
00000000
01000000
00000000
00000000
00100000
00000000
00000000
10000000
00000000
00000000
,
00010000
01000000
00010000
01000000
00010000
01000000
00010000
00000000
00000000
00100000
00010000
00100000
00010000
00100000
00010000
00100000
00010000
00100000
00010000
00000000
00000000
00100000
00001000
00100000
,
00001000
00000000
00100000
00000000
00001000
00000000
00100000
00000000
00001000
00000000
00100000
00000000
00001000
00000000
00000000
00010000
00000000
00000000
00001000
00000000
00000000
00010000
00000000
00000000
00000100
00000000
00000000
00010000
00000000
00000000
00001000
00000000
00000000
00010000
00000000
00000000
00000010
00000000
00000000
00010000
00000000
00000000
00001000
00000000
00000000
00010000
00000000
00000000
,
00000100
00001000
00000100
00001000
00000100
00001000
00000100
00000000
00000000
00001000
00000001
00001000
00000001
00001000
00000001
00001000
00000001
00001000
00000001
00000000
00000000
00000100
00000001
00000100
,
00000001
00000000
00000100
00000000
00000001
00000000
00000100
00000000
00000001
00000000
00000100
00000000
00000010
00000000
00000000
00000100
00000000
00000000
00000010
00000000
00000000
00000100
00000000
00000000
00000010
00000000
00000000
00001000
00000000
00000000
00000010
00000000
00000000
00000100
00000000
00000000
00000010
00000000
00000000
00000001
00000000
00000000
00000010
00000000
00000000
00000100
00000000
00000000
,
00000010
00001000
00000010
00001000
00000010
00001000
00000010
00000000
00000000
00010000
00000010
00010000
00000010
00010000
00000010
00010000
00000010
00010000
00000010
00000000
00000000
00010000
00001000
00010000
,
00001000
00000000
00010000
00000000
00001000
00000000
00010000
00000000
00001000
00000000
00010000
00000000
00001000
00000000
00000000
01000000
00000000
00000000
00001000
00000000
00000000
01000000
00000000
00000000
00010000
00000000
00000000
01000000
00000000
00000000
00100000
00000000
00000000
01000000
00000000
00000000
10000000
00000000
00000000
01000000
00000000
00000000
00100000
00000000
00000000
01000000
00000000
00000000
,
00010000
01000000
00010000
01000000
00010000
01000000
00010000
00000000
00000000
01000000
00100000
01000000
00100000
01000000
00100000
01000000
00100000
01000000
00100000
00000000
00000000
10000000
00100000
10000000
,
00100000
00000000
10000000
00000000
00100000
00000000
10000000
00000000
00100000
00000000
10000000
00000000
00100000
00000000
00000000
10000000
00000000
00000000
00100000
00000000
00000000
10000000
00000000
00000000
00010000
00000000
00000000
01000000
00000000
00000000
00010000
00000000
00000000
10000000
00000000
00000000
00001000
00000000
00000000
00100000
00000000
00000000
00001000
00000000
00000000
00010000
00000000
00000000
,
00001000
00100000
00001000
00100000
00001000
00100000
00001000
00000000
00000000
00010000
00001000
00010000
00001000
00010000
00001000
00010000
00001000
00010000
00001000
00000000
00000000
00010000
00000100
00010000
,
00000100
00000000
00010000
00000000
00000100
00000000
00010000
00000000
00000100
00000000
00010000
00000000
00000100
00000000
00000000
00010000
00000000
00000000
00000100
00000000
00000000
00010000
00000000
00000000
00000010
00000000
00000000
00001000
00000000
00000000
00000001
00000000
00000000
00000010
00000000
00000000
00000100
00000000
00000000
00000010
00000000
00000000
00000001
00000000
00000000
00001000
00000000
00000000
,
00000010
00001000
00000010
00001000
00000010
00001000
00000010
00000000
00000000
00001000
00000100
00001000
00000100
00001000
00000100
00001000
00000100
00001000
00000100
00000000
00000000
00010000
00000100
00010000
,
00000100
00000000
00010000
00000000
00000100
00000000
00010000
00000000
00000100
00000000
00010000
00000000
00000100
00000000
00000000
00010000
00000000
00000000
00000100
00000000
00000000
00010000
00000000
00000000
00001000
00000000
00000000
00100000
00000000
00000000
00010000
00000000
00000000
00100000
00000000
00000000
01000000
00000000
00000000
10000000
00000000
00000000
00010000
00000000
00000000
00100000
00000000
00000000
,
00010000
00100000
00010000
00100000
00010000
00100000
00010000
00000000
00000000
01000000
00010000
01000000
00010000
01000000
00010000
01000000
00010000
01000000
00010000
00000000
00000000
01000000
00001000
01000000
,
00001000
00000000
01000000
00000000
00001000
00000000
01000000
00000000
00001000
00000000
01000000
00000000
00001000
00000000
00000000
01000000
00000000
00000000
00001000
00000000
00000000
01000000
00000000
00000000
00001000
00000000
00000000
00010000
00000000
00000000
00000010
00000000
00000000
00001000
00000000
00000000
00000010
00000000
00000000
00000001
00000000
00000000
00000020
00000000
00000000
00000000
00000000
00000000
,
00000000
00000000
00000000
00000000
00000000
00000000
00000000
00000030
;

//---------------dance-double - Kyzentun----------------
#NOTES:
     dance-double:
     Kyzentun:
     Medium:
     9:
     0.599,0.666,0.000,0.587,0.814,405.000,0.000,66.000,114.000,19.000,1.000,0.599,0.666,0.000,0.587,0.814,405.000,0.000,66.000,114.000,19.000,1.000:
00000000
00000000
00000000
00000000
,
00000000
00000000
00000000
00000000
,
00000000
00000000
00000000
00000000
00000000
00000000
00010000
00001000
,
00020000
00000000
00000000
00000200
00000000
00000000
00000000
00000020
,
00000000
00000000
00000000
00000000
00000030
00000000
00000000
00030000
00010300
00000100
00001000
00000100
00000010
00000100
00000001
00000100
,
00000020
00000000
00000000
00000002
00000000
00000000
00000000
00002000
,
00000000
00000000
00000000
00000000
00003000
00000000
00000000
00000030
00000013
00000001
00001000
00000001
00000100
00000001
00001000
00000001
,
00020000
00000000
00000000
00002000
00000000
00000000
00000000
00200000
,
00000000
00000000
00000000
00000000
00300000
00000000
00000000
00030000
00013000
00001000
01000000
00001000
00010000
00001000
00100000
00001000
,
20000000
00000000
00000000
02000000
00000000
00000000
00000000
00200000
,
00000000
00000000
00000000
00000000
00300000
00000000
00000000
30000000
13000000
01000000
00010000
01000000
00200000
00310000
00200000
01300000
,
00200000
00000000
00000000
00020000
00000000
00000000
00000000
20000000
,
00000000
00000000
30001000
00000000
10000000
00000000
00000000
00300000
00230000
00310000
10000000
00010000
02000000
03100000
02000000
03010000
,
02000000
00000000
00000000
00002000
00000000
00000000
00200000
00320000
,
00000000
00000000
00130000
00000000
00000010
00000000
00000000
03000000
01003000
00001000
00100000
00001000
00020000
00030010
00020000
00031000
,
00020000
00000000
00000000
00000200
00000000
00000000
00000000
00000020
,
00000000
00000000
00001030
00000000
00000001
00000000
00000000
00030000
00020300
00030100
00001000
00000100
00000020
00000031
00000020
00000130
,
M0000020
M0000000
M0000000
M0000000
M0000000
M0000000
M0000000
M0000000
M0000200
M0000000
M0000300
M0000000
M0000200
M0000000
M0000300
M0000000
M0000200
M0000000
M0000000
M0000000
M0000000
M0000000
M0000000
M0000000
M0000002
M0000000
M0000003
M0000000
M0000002
M0000000
M0000003
M0000000
,
M0000002
M0000000
M0000000
M0000000
M0000000
M0000000
M0000000
M0000000
M0002000
M0000000
M0000000
M0000000
M0003000
M0000000
M0000000
M0000000
M0002000
M0000000
M0000000
M0000000
M0003333
M0000000
M0000000
M0000000
M0000040
00000000
00000000
00000000
00000000
00000000
00000000
00000000
,
00000030
00000100
00010000
00000000
00001000
00000000
00100000
01000000
00000000
00000000
10000000
00000000
01000000
00000000
10000000
00100000
,
00000000
00000000
01000000
00000000
00100000
00000000
00010000
00001000
00000000
00000000
00010000
00000000
00000200
00000000
00000000
00000000
,
00000300
00000000
00000010
00000000
00000100
00000000
00001000
00000002
00000000
00000000
00000103
00000000
00001000
00000000
00010000
00200000
,
00000000
00000000
01300000
00000000
00010000
00000000
10000000
00100000
00000000
00000000
10000000
00000000
02000000
00000000
00000000
00000000
,
03000000
00100000
00001000
00010000
00000100
00000000
00000100
00000000
00001000
00000000
00000001
00000010
00000000
00000010
00000000
00000010
,
00000100
00010000
00000100
00010000
00001000
01000000
00001000
01000000
00020000
00000000
10030000
01000000
00000000
00000000
00100000
00000000
,
00001000
00000000
00000010
00000100
00000000
00000000
00000010
00000000
00000001
00000000
00001000
00000010
00000000
00000010
00000100
00001000
,
00000100
00000000
00000001
00000000
00000010
00000000
00001000
00000000
00020000
00000000
00000000
00000000
00031000
00100000
00010000
00100000
,
00001000
10000000
00010000
00000000
01000000
00000000
10000000
02000000
00000000
00000000
03100000
00000000
00100000
00000000
00010000
00001000
,
00000000
00000000
00010000
00000000
01000000
00000000
00010000
00000100
00000000
00000000
00001000
00000000
00000020
00000000
00000030
00000000
,
00000000
00000000
00001000
00000000
00000001
00000000
00000100
00002000
00000000
00000000
00003100
00000000
00000010
00000000
00010000
00001000
,
00000000
00000000
00010000
00000000
00100000
00000000
01000000
10000000
00000000
00000000
01000000
00000000
00020000
00000000
00000000
00000000
,
00030000
10000000
01000000
10000000
01000000
00100000
00010000
00100000
00020000
00000000
01030000
00001000
00000000
00001000
00000000
00001000
,
00010000
00000100
00010000
00000000
00000100
00000010
00000100
00000001
00000100
00001000
00000001
00000100
00000000
00000000
00001000
00000000
,
00010000
00000000
00001000
00100000
00000000
00000000
00001000
00010000
00000000
00000000
00001000
00000000
01000000
00000000
00100000
00010000
,
00000000
00000000
00100000
00000000
01000000
00000000
00010000
00000000
20000000
00000000
00000000
30000000
10000000
00100000
01000000
00100000
,
10000000
00000000
00100000
00000000
00100000
00000000
01000000
00001000
00000000
00000000
00010000
00000000
00000100
00000000
00001000
00000001
,
00000000
00000000
00000100
00000000
00001000
00000000
00010000
00000010
00000000
00000000
00010000
00000000
00001000
00000000
00100000
00000000
,
00000000
00000000
00010000
00000000
00010000
00000000
10000000
00100000
00000000
00100000
02000000
00000000
03000000
00000000
00001000
00000000
,
00010000
00000000
00000010
00000000
00000001
00000000
00000010
00001000
00000000
00001000
00000100
00000000
00000000
00000000
00010000
00001000
,
00100000
01000000
00100000
00020000
00000000
10030000
00000000
00100000
,
00100000
00000000
00010000
00000000
00001000
00000000
00000100
00000010
00000000
00000000
00000100
00000000
00000000
00000000
00000001
00000000
,
M0000010
M0000000
M0000000
M0000000
M0000100
M0000000
M0000000
M0000000
M0000000
M0000000
M0000000
M0000000
M0000100
M0000000
M0000000
M0000000
M0000000
M0000000
M0000000
M0000000
M0000100
M0000000
M0000000
M0000000
M0000000
M0000000
M0000000
M0000000
M0000200
M0000000
M0010300
M0000000
,
M0000000
M0000000
M0010000
M0000000
M0001000
M0000000
M0000000
M0000000
M0001000
M0000000
M0000000
M0000000
M1000000
M0000000
M0000000
M0000000
M0000000
M0000000
M1000000
M0000000
M0010000
M0000000
M0000000
M0000000
M0100000
00000000
00000000
00000000
00010000
00000000
00000000
00000000
,
01000000
00000000
00000000
00000000
00001000
00000000
00000000
00000000
00000010
00000000
00000001
00000000
00001000
00000000
00000010
00000002
,
00000000
00000000
00000013
00000000
00000000
00000000
00000100
00000000
00001000
00000000
00010000
00001000
00000000
00000000
00010000
00000000
,
00100000
00000000
01000000
00010000
00000000
00000000
10000000
01000000
00000000
00000000
00100000
00000000
00001000
00000000
00000010
00000001
,
00000000
00000000
00000010
00000000
00002000
00000000
00000000
00000000
00000000
00000000
00013000
00000000
00001000
00000000
00000100
00000001
,
00000000
00000000
00000010
00000000
00001000
00000000
00010000
01000000
00000000
00000000
00100000
00000000
00000000
00000000
00010000
00000000
,
10000000
00000000
01000000
00000000
00100000
00000000
00010000
00000000
00000000
00000000
01000000
00000000
00100000
00000000
00010000
00002000
,
00000000
00003010
00000100
00001000
00000000
00000001
00000100
00001000
,
01000000
00100000
10000000
00010000
00000000
00100000
01000000
00010000
,
00001000
00000010
00002000
00000000
00013000
00000010
00000100
00002000
,
00000000
00000000
00003100
00000000
00000000
00000000
00000020
00000000
00010030
00000000
00001000
00100000
00000000
00000000
00010000
00000000
,
00100000
00000000
10000000
00000000
00100000
00000000
00010000
02000000
00000000
00000000
03100000
00000000
00010000
00000000
00001000
00020000
,
00000000
00000000
00030100
00000000
00000020
00000000
00000000
00000000
00000030
00000000
00000100
00000000
00000001
00000000
00000100
00010000
,
00000000
00000000
00000100
00000000
01000000
00000000
00010000
01000000
00000000
00000000
00100000
00000000
00000000
00000000
01000000
00000000
,
10000000
00000000
01000000
00000000
00010000
00000000
00100000
00000000
00000000
00000000
00001000
00000000
00000010
00000000
00000001
00001000
,
00000000
00000000
00000010
00000000
00000100
00000000
00001000
00010000
00000000
00000000
00001000
00000000
00000000
00000000
00010000
00000000
,
00100000
01000000
00010000
10000000
00000000
10000000
00000000
20000000
,
00000000
00000000
00000000
00000000
00000000
00000000
00000000
30000000
;

//---------------dance-double - Kyzentun----------------
#NOTES:
     dance-double:
     Kyzentun:
     Easy:
     7:
     0.479,0.426,0.000,0.836,0.374,283.000,0.000,94.000,114.000,18.000,0.000,0.479,0.426,0.000,0.836,0.374,283.000,0.000,94.000,114.000,18.000,0.000:
00000000
00000000
00000000
00000000
,
00000000
00000000
00000000
00000000
,
00000000
00000000
00000000
00000000
00000000
00000000
00001000
00010000
,
00002000
00000000
00003000
02000000
00000000
00000000
03000000
00020000
,
00000000
00000000
10030000
01000000
00100000
01000000
10000000
00100000
,
02000000
00000000
03000000
00002000
00000000
00000000
00003000
00020000
,
00000000
00000000
00030100
00000010
00000100
00000001
00000100
00001000
,
00000200
00000000
00000300
00020000
00000000
00000000
00030000
00002000
,
00000000
00000000
00013000
00001000
00100000
00001000
00010000
00000100
,
00020000
00000000
00030000
00002000
00000000
00000000
00003000
00200000
,
00000000
00000000
01300000
10000000
01000000
00010000
01000000
01000000
,
02000000
00000000
03000000
20000000
00000000
00000000
30000000
00020000
,
00000000
00130000
01000000
00010000
00002000
00000000
00013000
00010000
,
00020000
00000000
00030000
00000200
00000000
00000000
00001300
00000002
,
00000000
00000103
00000010
00001000
00000020
00000000
00010030
00010000
,
00020000
00000000
00030000
00002000
00000000
00000000
00003000
00200000
,
00000000
00310000
10000000
00010000
02000000
00000000
03001000
00001000
,
M0001000
M0000000
M0000000
M0000000
M0000000
M0000000
M0000000
M0000000
M0010000
M0000000
M0000000
M0000000
M0010000
M0000000
M0000000
M0000000
M0010000
M0000000
M0000000
M0000000
M0000000
M0000000
M0000000
M0000000
M0000100
M0000000
M0000000
M0000000
M0000100
M0000000
M0000000
M0000000
,
M0000100
M0000000
M0000000
M0000000
M0000000
M0000000
M0000000
M0000000
M0001000
M0000000
M0000000
M0000000
M0000000
M0000000
M0000000
M0000000
M0001000
M0000000
M0000000
M0000000
M0000000
M0000000
M0000000
M0000000
M0000200
00000000
00000000
00000000
00000000
00000000
00000000
00000000
,
00000320
00000030
00000001
00001000
00000002
00000003
00000100
00000010
,
00000200
00000000
00000020
00000000
00002000
00000300
00003130
00000010
,
00000200
00000300
00001000
00010000
00002000
00003000
00100000
00010000
,
00200000
00000000
02000000
00000000
00020000
00000000
00002000
00300000
,
03233000
00300000
01000000
10000000
02000000
03000000
10000000
00010000
,
02000000
00000000
00020000
00000000
00200000
03000000
01330000
00010000
,
02000000
03000000
00001000
00010000
00002000
00003000
00010000
00000100
,
00020000
00000000
00000200
00000000
00000020
00030000
00010330
00000100
,
00002000
00003000
00000010
00000100
00000002
00000003
00000010
00001000
,
00020000
00000000
00002000
00000000
00200000
00030000
00313000
00001000
,
00020000
00030000
00100000
01000000
00020000
00030000
10000000
00100000
,
02000000
00000000
00020000
00000000
00200000
00000000
20000000
03000000
,
32330000
03000000
00010000
01000000
00002000
00003000
00010000
00000010
,
00000200
00000000
00000020
00000000
00002000
00000300
00003130
00000010
,
00000200
00000300
00000001
00001000
00000200
00000300
00001000
00000001
,
00000020
00000000
00000200
00000000
00000002
00000030
00000313
00000100
,
00001000
00000100
00010000
00001000
00010000
00001000
01000000
00010000
,
01000000
00010000
10000000
00100000
10000000
00100000
00010000
00001000
,
00010000
00001000
00000100
00000010
00000100
00000010
00000000
00000010
,
00000100
00001000
00010000
00001000
00000010
00000100
00000000
00000100
,
00001000
00000010
00000100
00000002
00000000
00001003
00000000
00001000
,
00000100
00010000
00001000
00100000
01000000
00100000
00000000
00100000
,
0100000M
0000000M
0000000M
0000000M
1000000M
0000000M
0000000M
0000000M
0000000M
0000000M
0000000M
0000000M
1000000M
0000000M
0000000M
0000000M
0000000M
0000000M
0000000M
0000000M
1000000M
0000000M
0000000M
0000000M
0000000M
0000000M
0000000M
0000000M
2000000M
0000000M
0000000M
0000000M
,
0000000M
0000000M
0000000M
0000000M
0000000M
0000000M
0000000M
0000000M
0000000M
0000000M
0000000M
0000000M
0000000M
0000000M
0000000M
0000000M
0000000M
0000000M
0000000M
0000000M
3001000M
0000000M
0000000M
0000000M
0010000M
00000000
00000000
00000000
00010000
00000000
00000000
00000000
,
00200000
00000000
00300000
00002000
00000000
00000000
00003000
00020000
,
00000000
00000000
00030100
00001000
00000001
00000100
00000010
00000100
,
00000002
00000000
00000003
00000200
00000000
00000000
00000300
00000020
,
00000000
00000000
00010030
00001000
00010000
00100000
00010000
00001000
,
00020000
00000000
00030000
00200000
00000000
00000000
00300000
02000000
,
00000000
00000000
03100000
10000000
00010000
00100000
00010000
10000000
,
00200000
00000000
00300000
20000000
00000000
00000000
30000000
02000000
,
00000000
00000000
03100000
00001000
00010000
00000010
00001000
00000010
,
00000200
00000000
00000300
00000002
00000000
00000000
00000003
00002000
,
00000000
00000000
00003010
00000001
00000010
00000100
00000010
00001000
,
00000020
00000000
00000030
00020000
00000000
00000000
00030000
00002000
,
00000000
00000000
00013000
00001000
01000000
00010000
01000000
00100000
,
20000000
00000000
30000000
00200000
00000000
00000000
00300000
02000000
,
00000000
00000000
03100000
00010000
00100000
10000000
00100000
01000000
,
00200000
00000000
00300000
00020000
00000000
00000000
00030000
00002000
,
00000000
00000000
00013000
00000010
00000000
00000010
00000000
00000020
,
00000000
00000000
00000000
00000000
00000000
00000000
00000000
00000030
;

//---------------dance-single - Kyzentun----------------
#NOTES:
     dance-single:
     Kyzentun:
     Challenge:
     14:
     1.000,1.000,0.000,0.285,1.000,1028.000,0.000,32.000,114.000,0.000,1.000,1.000,1.000,0.000,0.285,1.000,1028.000,0.000,32.000,114.000,0.000,1.000:
0000
0000
0000
0000
,
0000
0000
0000
0000
,
0000
0000
0000
0000
0000
0000
1000
0100
,
0010
0100
0010
0100
0010
0100
0010
0100
0010
0000
0000
0000
0100
1000
0100
1000
0100
1000
0100
1000
0100
1000
0100
1000
0100
0000
0000
0000
1000
0001
1000
0001
,
1000
0000
0000
0000
0000
0000
0001
0000
0000
0000
0000
0000
1000
0000
0000
0000
0000
0000
0001
0000
0000
0000
0000
0000
1000
0000
0000
0000
0000
0000
0000
0000
0001
0000
0000
0000
0000
0000
0000
0000
1000
0000
0000
0000
0000
0000
0000
0000
0001
0000
0000
0000
0000
0000
0000
0000
0000
0000
0000
0000
1000
0000
0000
0000
0000
0000
0000
0000
0000
0000
0000
0000
0010
0000
0000
0000
0000
0000
0000
0000
0000
0000
0000
0000
1000
0000
0000
0000
0000
0000
0000
0000
0000
0000
0000
0000
0010
0000
0000
0000
0000
0000
0000
0000
0000
0000
0000
0000
0100
0000
0000
0000
0000
0000
0000
0000
0000
0000
0000
0000
0010
0000
0000
0000
0000
0000
0000
0000
0000
0000
0000
0000
0001
0000
0000
0000
0000
0000
0000
0000
0000
0000
0000
0000
0010
0000
0000
0000
0000
0000
0000
0000
0000
0000
0000
0000
0100
0000
0000
0000
0000
0000
0000
0000
0000
0000
0000
0000
0010
0000
0000
0000
0000
0000
0000
0000
0000
0000
0000
0000
1000
0000
0000
0000
0000
0000
0000
0000
0000
0000
0000
0000
,
0010
1000
0010
1000
0010
1000
0010
1000
0010
0000
0000
0000
1000
0001
1000
0001
1000
0001
1000
0001
1000
0001
1000
0001
1000
0000
0000
0000
0001
0010
0001
0010
,
0001
0000
0000
0000
0000
0000
0010
0000
0000
0000
0000
0000
0001
0000
0000
0000
0000
0000
0010
0000
0000
0000
0000
0000
0001
0000
0000
0000
0000
0000
0000
0000
0010
0000
0000
0000
0000
0000
0000
0000
0001
0000
0000
0000
0000
0000
0000
0000
0010
0000
0000
0000
0000
0000
0000
0000
0000
0000
0000
0000
0001
0000
0000
0000
0000
0000
0000
0000
0000
0000
0000
0000
0010
0000
0000
0000
0000
0000
0000
0000
0000
0000
0000
0000
0001
0000
0000
0000
0000
0000
0000
0000
0000
0000
0000
0000
0010
0000
0000
0000
0000
0000
0000
0000
0000
0000
0000
0000
0100
0000
0000
0000
0000
0000
0000
0000
0000
0000
0000
0000
0010
0000
0000
0000
0000
0000
0000
0000
0000
0000
0000
0000
1000
0000
0000
0000
0000
0000
0000
0000
0000
0000
0000
0000
0010
0000
0000
0000
0000
0000
0000
0000
0000
0000
0000
0000
0100
0000
0000
0000
0000
0000
0000
0000
0000
0000
0000
0000
0010
0000
0000
0000
0000
0000
0000
0000
0000
0000
0000
0000
0001
0000
0000
0000
0000
0000
0000
0000
0000
0000
0000
0000
,
1000
0010
1000
0010
1000
0010
1000
0010
1000
0000
0000
0000
0010
0100
0010
0100
0010
0100
0010
0100
0010
0100
0010
0100
0010
0000
0000
0000
0100
0001
0100
0001
,
0100
0000
0000
0000
0000
0000
0001
0000
0000
0000
0000
0000
0100
0000
0000
0000
0000
0000
0001
0000
0000
0000
0000
0000
0100
0000
0000
0000
0000
0000
0000
0000
0001
0000
0000
0000
0000
0000
0000
0000
0100
0000
0000
0000
0000
0000
0000
0000
0001
0000
0000
0000
0000
0000
0000
0000
0000
0000
0000
0000
0100
0000
0000
0000
0000
0000
0000
0000
0000
0000
0000
0000
0001
0000
0000
0000
0000
0000
0000
0000
0000
0000
0000
0000
0100
0000
0000
0000
0000
0000
0000
0000
0000
0000
0000
0000
0001
0000
0000
0000
0000
0000
0000
0000
0000
0000
0000
0000
1000
0000
0000
0000
0000
0000
0000
0000
0000
0000
0000
0000
0001
0000
0000
0000
0000
0000
0000
0000
0000
0000
0000
0000
0100
0000
0000
0000
0000
0000
0000
0000
0000
0000
0000
0000
0001
0000
0000
0000
0000
0000
0000
0000
0000
0000
0000
0000
1000
0000
0000
0000
0000
0000
0000
0000
0000
0000
0000
0000
0001
0000
0000
0000
0000
0000
0000
0000
0000
0000
0000
0000
0010
0000
0000
0000
0000
0000
0000
0000
0000
0000
0000
0000
,
0001
0010
0001
0010
0001
0010
0001
0010
0001
0000
0000
0000
0010
0100
0010
0100
0010
0100
0010
0100
0010
0100
0010
0100
0010
0000
0000
0000
0100
1000
0100
1000
,
0100
0000
0000
0000
0000
0000
1000
0000
0000
0000
0000
0000
0100
0000
0000
0000
0000
0000
1000
0000
0000
0000
0000
0000
0100
0000
0000
0000
0000
0000
0000
0000
1000
0000
0000
0000
0000
0000
0000
0000
0100
0000
0000
0000
0000
0000
0000
0000
1000
0000
0000
0000
0000
0000
0000
0000
0000
0000
0000
0000
0100
0000
0000
0000
0000
0000
0000
0000
0000
0000
0000
0000
1000
0000
0000
0000
0000
0000
0000
0000
0000
0000
0000
0000
0100
0000
0000
0000
0000
0000
0000
0000
0000
0000
0000
0000
1000
0000
0000
0000
0000
0000
0000
0000
0000
0000
0000
0000
0001
0000
0000
0000
0000
0000
0000
0000
0000
0000
0000
0000
1000
0000
0000
0000
0000
0000
0000
0000
0000
0000
0000
0000
0010
0000
0000
0000
0000
0000
0000
0000
0000
0000
0000
0000
2000
0000
0000
0000
0000
0000
0000
0000
0000
0000
0000
0000
3000
0000
0000
0000
0000
0000
0000
0000
0000
0000
0000
0000
2000
0000
0000
0000
0000
0000
0000
0000
0000
0000
0000
0000
3000
0000
0000
0000
0000
0000
0000
0000
0000
0000
0000
0000
,
2000
3001
1000
0001
1000
0001
1000
0001
1000
0000
0000
0000
0001
0100
0001
0100
0001
0100
0001
0100
0001
0100
0001
0100
0001
0000
0000
0000
0200
0000
0000
0000
,
0000
0000
0320
0000
0130
0000
0001
0000
0020
0000
0000
0000
0230
0300
0200
0300
,
0200
0310
0100
0010
0100
0010
0100
0010
0100
0000
0000
0000
0010
0001
0010
0001
0010
0001
0010
0001
0010
0001
0010
0001
0020
0000
0000
0000
0032
0000
0000
0000
,
0000
0000
0103
0000
0010
0000
1000
0000
0200
0000
0000
0000
0320
0030
0020
0030
,
0020
0031
0010
0001
0010
0001
0010
0001
0010
0000
0000
0000
0001
1000
0001
1000
0001
1000
0001
1000
0001
1000
0001
1000
0001
0000
0000
0000
0200
0000
0000
0000
,
0000
0000
0310
0000
0100
0000
0001
0000
0020
0000
0000
0000
0032
0003
0002
0003
,
M002
M000
M003
M000
M000
M000
M000
M000
M200
M000
M300
M000
M200
M000
M300
M000
M200
M000
M300
M000
M000
M000
M000
M000
M020
M000
M030
M000
M020
M000
M030
M000
,
M020
M000
M030
M000
M000
M000
M000
M000
M200
M000
M000
M000
M300
M000
M000
M000
M200
M000
M000
M000
M300
M000
M000
M000
M004
0000
0000
0000
0000
0000
0000
0000
,
0013
0100
0010
0100
0010
0000
0000
0000
0100
0000
0000
0000
0010
0000
0000
0000
0001
1000
0001
1000
0001
0000
0000
0000
1000
0000
0000
0000
0010
0000
0000
0000
,
1000
0010
1000
0010
1000
0010
1000
0010
0100
0010
0100
0010
0100
0010
0100
0010
0100
0001
0100
0001
0100
0001
0100
0001
0100
0000
0000
0000
0001
0000
0000
0000
,
0010
0001
1000
0100
0010
0000
0000
0000
0001
0000
0000
0000
1000
0000
0000
0000
0001
0100
0010
1000
0001
0000
0000
0000
0100
0000
0000
0000
0001
0000
0000
0000
,
0010
0001
1000
0100
0010
0001
1000
0100
1000
0001
0010
0100
1000
0001
0010
0100
1000
0001
0100
0010
1000
0001
0100
0010
1000
0010
0100
0001
1000
0010
0100
0001
,
1000
0010
1000
0010
1000
0000
0000
0000
0001
0000
0000
0000
1000
0000
0000
0000
0001
0100
0001
0100
0001
0000
0000
0000
0100
0000
0000
0000
0001
0000
0000
0000
,
0010
0100
0010
0100
0010
0100
0010
0100
1000
0100
1000
0100
1000
0100
1000
0100
1000
0001
1000
0001
1000
0001
1000
0001
1000
0000
0000
0000
0100
0000
0000
0000
,
1000
0100
0010
0001
0010
0000
0000
0000
0001
0000
0000
0000
0100
0000
0000
0000
0010
1000
0001
0100
0001
0000
0000
0000
1000
0000
0000
0000
0100
0000
0000
0000
,
1000
0100
0010
0001
0010
0100
1000
0100
1000
0001
0100
0010
0100
0001
1000
0010
1000
0001
0010
0100
1000
0100
0010
0001
0010
0000
0100
0000
1000
0000
0010
0000
,
0100
0010
0100
0010
0100
0000
0000
0000
0010
0000
0000
0000
1000
0000
0000
0000
0100
1000
0100
1000
0100
0000
0000
0000
1000
0000
0000
0000
0001
0000
0000
0000
,
0100
0010
0100
0010
0100
0010
0100
0010
1000
0010
1000
0010
1000
0010
1000
0010
1000
0001
1000
0001
1000
0001
1000
0001
1000
0000
0000
0000
0100
0000
0000
0000
,
0010
0100
1000
0001
0010
0000
0000
0000
0100
0000
0000
0000
1000
0000
0000
0000
0010
1000
0001
0100
0010
0000
0000
0000
0100
0000
0000
0000
0001
0000
0000
0000
,
0010
0100
1000
0001
0010
0100
1000
0001
0100
0010
1000
0001
0100
0010
1000
0001
0010
0100
1000
0001
0010
0100
1000
0001
0100
0010
1000
0001
0100
0010
1000
0001
,
0010
0100
0010
0100
0010
0000
0000
0000
0100
0000
0000
0000
1000
0000
0000
0000
0001
0100
0001
0100
0001
0000
0000
0000
0010
0000
0000
0000
0100
0000
0000
0000
,
1000
0001
1000
0001
1000
0001
1000
0001
0010
0001
0010
0001
0010
0001
0010
0001
0010
0100
0010
0100
0010
0100
0010
0100
0010
0000
0000
0000
0100
0000
0000
0000
,
1000
0010
0100
0010
1000
0000
0000
0000
0100
0000
0000
0000
1000
0000
0000
0000
0001
0100
0010
0100
0001
0000
0000
0000
0010
0000
0000
0000
0001
0000
0000
0000
,
1000
0010
0100
0010
1000
0010
0100
0010
1000
0001
1000
0100
1000
0001
1000
0100
0010
0001
1000
0001
0010
0001
1000
0001
0100
0000
0010
0000
1000
0000
0100
0000
,
0010
0000
0100
0000
1000
0000
0001
0100
0000
0100
0010
0000
1000
0000
0001
1000
,
0000
1000
0010
0000
0100
0000
0010
1000
0000
1000
0100
0000
0010
0000
0100
0000
,
0000
0000
0010
0000
0010
0000
0001
1000
0000
1000
0020
0000
0030
0000
1000
0000
,
0100
0000
0010
0000
0001
0000
0010
0001
0000
0001
1000
0000
0000
0000
0100
0010
,
0100
0010
0100
2000
0000
3010
0000
0010
,
1000
0000
0001
0000
0010
0000
0001
1000
0000
0000
0010
0000
0000
0000
1000
0000
,
010M
000M
000M
000M
001M
000M
000M
000M
000M
000M
000M
000M
001M
000M
000M
000M
000M
000M
000M
000M
001M
000M
000M
000M
000M
000M
000M
000M
002M
000M
000M
000M
,
000M
000M
000M
000M
000M
000M
000M
000M
000M
000M
000M
000M
000M
000M
000M
000M
000M
000M
000M
000M
013M
000M
000M
000M
100M
0000
0000
0000
0010
0000
0000
0000
,
0100
0010
0100
0010
0100
0010
0100
0010
0100
0000
0000
0000
0010
1000
0010
1000
0010
1000
0010
1000
0010
1000
0010
1000
0010
0000
0000
0000
1000
0001
1000
0001
,
1000
0000
0000
0000
0000
0000
0001
0000
0000
0000
0000
0000
1000
0000
0000
0000
0000
0000
0001
0000
0000
0000
0000
0000
1000
0000
0000
0000
0000
0000
0000
0000
0001
0000
0000
0000
0000
0000
0000
0000
1000
0000
0000
0000
0000
0000
0000
0000
0001
0000
0000
0000
0000
0000
0000
0000
0000
0000
0000
0000
1000
0000
0000
0000
0000
0000
0000
0000
0000
0000
0000
0000
0001
0000
0000
0000
0000
0000
0000
0000
0000
0000
0000
0000
1000
0000
0000
0000
0000
0000
0000
0000
0000
0000
0000
0000
0100
0000
0000
0000
0000
0000
0000
0000
0000
0000
0000
0000
0010
0000
0000
0000
0000
0000
0000
0000
0000
0000
0000
0000
0001
0000
0000
0000
0000
0000
0000
0000
0000
0000
0000
0000
0010
0000
0000
0000
0000
0000
0000
0000
0000
0000
0000
0000
0100
0000
0000
0000
0000
0000
0000
0000
0000
0000
0000
0000
0010
0000
0000
0000
0000
0000
0000
0000
0000
0000
0000
0000
1000
0000
0000
0000
0000
0000
0000
0000
0000
0000
0000
0000
0010
0000
0000
0000
0000
0000
0000
0000
0000
0000
0000
0000
,
0100
1000
0100
1000
0100
1000
0100
1000
0100
0000
0000
0000
1000
0001
1000
0001
1000
0001
1000
0001
1000
0001
1000
0001
1000
0000
0000
0000
0001
0010
0001
0010
,
0001
0000
0000
0000
0000
0000
0010
0000
0000
0000
0000
0000
0001
0000
0000
0000
0000
0000
0010
0000
0000
0000
0000
0000
0001
0000
0000
0000
0000
0000
0000
0000
0010
0000
0000
0000
0000
0000
0000
0000
0001
0000
0000
0000
0000
0000
0000
0000
0010
0000
0000
0000
0000
0000
0000
0000
0000
0000
0000
0000
0001
0000
0000
0000
0000
0000
0000
0000
0000
0000
0000
0000
0010
0000
0000
0000
0000
0000
0000
0000
0000
0000
0000
0000
0001
0000
0000
0000
0000
0000
0000
0000
0000
0000
0000
0000
0100
0000
0000
0000
0000
0000
0000
0000
0000
0000
0000
0000
0001
0000
0000
0000
0000
0000
0000
0000
0000
0000
0000
0000
0010
0000
0000
0000
0000
0000
0000
0000
0000
0000
0000
0000
0001
0000
0000
0000
0000
0000
0000
0000
0000
0000
0000
0000
1000
0000
0000
0000
0000
0000
0000
0000
0000
0000
0000
0000
0001
0000
0000
0000
0000
0000
0000
0000
0000
0000
0000
0000
0010
0000
0000
0000
0000
0000
0000
0000
0000
0000
0000
0000
0001
0000
0000
0000
0000
0000
0000
0000
0000
0000
0000
0000
,
1000
0001
1000
0001
1000
0001
1000
0001
1000
0000
0000
0000
0001
0010
0001
0010
0001
0010
0001
0010
0001
0010
0001
0010
0001
0000
0000
0000
1000
0010
1000
0010
,
1000
0000
0000
0000
0000
0000
0010
0000
0000
0000
0000
0000
1000
0000
0000
0000
0000
0000
0010
0000
0000
0000
0000
0000
1000
0000
0000
0000
0000
0000
0000
0000
0010
0000
0000
0000
0000
0000
0000
0000
1000
0000
0000
0000
0000
0000
0000
0000
0010
0000
0000
0000
0000
0000
0000
0000
0000
0000
0000
0000
0100
0000
0000
0000
0000
0000
0000
0000
0000
0000
0000
0000
0010
0000
0000
0000
0000
0000
0000
0000
0000
0000
0000
0000
0100
0000
0000
0000
0000
0000
0000
0000
0000
0000
0000
0000
0001
0000
0000
0000
0000
0000
0000
0000
0000
0000
0000
0000
0100
0000
0000
0000
0000
0000
0000
0000
0000
0000
0000
0000
0010
0000
0000
0000
0000
0000
0000
0000
0000
0000
0000
0000
0100
0000
0000
0000
0000
0000
0000
0000
0000
0000
0000
0000
1000
0000
0000
0000
0000
0000
0000
0000
0000
0000
0000
0000
0100
0000
0000
0000
0000
0000
0000
0000
0000
0000
0000
0000
0010
0000
0000
0000
0000
0000
0000
0000
0000
0000
0000
0000
0100
0000
0000
0000
0000
0000
0000
0000
0000
0000
0000
0000
,
0001
0100
0001
0100
0001
0100
0001
0100
0001
0000
0000
0000
1000
0001
1000
0001
1000
0001
1000
0001
1000
0001
1000
0001
1000
0000
0000
0000
0001
0010
0001
0010
,
0001
0000
0000
0000
0000
0000
0010
0000
0000
0000
0000
0000
0001
0000
0000
0000
0000
0000
0010
0000
0000
0000
0000
0000
0001
0000
0000
0000
0000
0000
0000
0000
0010
0000
0000
0000
0000
0000
0000
0000
0001
0000
0000
0000
0000
0000
0000
0000
0010
0000
0000
0000
0000
0000
0000
0000
0000
0000
0000
0000
0001
0000
0000
0000
0000
0000
0000
0000
0000
0000
0000
0000
1000
0000
0000
0000
0000
0000
0000
0000
0000
0000
0000
0000
0001
0000
0000
0000
0000
0000
0000
0000
0000
0000
0000
0000
1000
0000
0000
0000
0000
0000
0000
0000
0000
0000
0000
0000
0010
0000
0000
0000
0000
0000
0000
0000
0000
0000
0000
0000
0100
0000
0000
0000
0000
0000
0000
0000
0000
0000
0000
0000
0010
0000
0000
0000
0000
0000
0000
0000
0000
0000
0000
0000
0001
0000
0000
0000
0000
0000
0000
0000
0000
0000
0000
0000
0010
0000
0000
0000
0000
0000
0000
0000
0000
0000
0000
0000
0100
0000
0000
0000
0000
0000
0000
0000
0000
0000
0000
0000
0010
0000
0000
0000
0000
0000
0000
0000
0000
0000
0000
0000
,
1000
0010
1000
0010
1000
0010
1000
0010
1000
0000
0000
0000
0010
0100
0010
0100
0010
0100
0010
0100
0010
0100
0010
0100
0010
0000
0000
0000
0100
0001
0100
0001
,
0100
0000
0000
0000
0000
0000
0001
0000
0000
0000
0000
0000
0100
0000
0000
0000
0000
0000
0001
0000
0000
0000
0000
0000
0100
0000
0000
0000
0000
0000
0000
0000
0001
0000
0000
0000
0000
0000
0000
0000
0100
0000
0000
0000
0000
0000
0000
0000
0001
0000
0000
0000
0000
0000
0000
0000
0000
0000
0000
0000
0100
0000
0000
0000
0000
0000
0000
0000
0000
0000
0000
0000
0001
0000
0000
0000
0000
0000
0000
0000
0000
0000
0000
0000
0100
0000
0000
0000
0000
0000
0000
0000
0000
0000
0000
0000
0010
0000
0000
0000
0000
0000
0000
0000
0000
0000
0000
0000
1000
0000
0000
0000
0000
0000
0000
0000
0000
0000
0000
0000
0001
0000
0000
0000
0000
0000
0000
0000
0000
0000
0000
0000
1000
0000
0000
0000
0000
0000
0000
0000
0000
0000
0000
0000
0100
0000
0000
0000
0000
0000
0000
0000
0000
0000
0000
0000
1000
0000
0000
0000
0000
0000
0000
0000
0000
0000
0000
0000
0100
0000
0000
0000
0000
0000
0000
0000
0000
0000
0000
0000
1000
0000
0000
0000
0000
0000
0000
0000
0000
0000
0000
0000
,
0010
1000
0010
1000
0010
1000
0010
1000
0010
0000
0000
0000
1000
0100
1000
0100
1000
0100
1000
0100
1000
0100
1000
0100
1000
0000
0000
0000
0001
0010
0001
0010
,
0001
0000
0000
0000
0000
0000
0010
0000
0000
0000
0000
0000
0001
0000
0000
0000
0000
0000
0010
0000
0000
0000
0000
0000
0001
0000
0000
0000
0000
0000
0000
0000
0010
0000
0000
0000
0000
0000
0000
0000
0001
0000
0000
0000
0000
0000
0000
0000
0010
0000
0000
0000
0000
0000
0000
0000
0000
0000
0000
0000
0001
0000
0000
0000
0000
0000
0000
0000
0000
0000
0000
0000
0010
0000
0000
0000
0000
0000
0000
0000
0000
0000
0000
0000
0001
0000
0000
0000
0000
0000
0000
0000
0000
0000
0000
0000
0010
0000
0000
0000
0000
0000
0000
0000
0000
0000
0000
0000
0100
0000
0000
0000
0000
0000
0000
0000
0000
0000
0000
0000
0001
0000
0000
0000
0000
0000
0000
0000
0000
0000
0000
0000
0100
0000
0000
0000
0000
0000
0000
0000
0000
0000
0000
0000
0010
0000
0000
0000
0000
0000
0000
0000
0000
0000
0000
0000
0100
0000
0000
0000
0000
0000
0000
0000
0000
0000
0000
0000
1000
0000
0000
0000
0000
0000
0000
0000
0000
0000
0000
0000
0010
0000
0000
0000
0000
0000
0000
0000
0000
0000
0000
0000
,
1000
0010
1000
0010
1000
0010
1000
0010
1000
0000
0000
0000
0001
0100
0001
0100
0001
0100
0001
0100
0001
0100
0001
0100
0001
0000
0000
0000
1000
0001
1000
0001
,
1000
0000
0000
0000
0000
0000
0001
0000
0000
0000
0000
0000
1000
0000
0000
0000
0000
0000
0001
0000
0000
0000
0000
0000
1000
0000
0000
0000
0000
0000
0000
0000
0001
0000
0000
0000
0000
0000
0000
0000
1000
0000
0000
0000
0000
0000
0000
0000
0001
0000
0000
0000
0000
0000
0000
0000
0000
0000
0000
0000
0100
0000
0000
0000
0000
0000
0000
0000
0000
0000
0000
0000
0001
0000
0000
0000
0000
0000
0000
0000
0000
0000
0000
0000
0100
0000
0000
0000
0000
0000
0000
0000
0000
0000
0000
0000
0001
0000
0000
0000
0000
0000
0000
0000
0000
0000
0000
0000
1000
0000
0000
0000
0000
0000
0000
0000
0000
0000
0000
0000
0010
0000
0000
0000
0000
0000
0000
0000
0000
0000
0000
0000
0001
0000
0000
0000
0000
0000
0000
0000
0000
0000
0000
0000
0010
0000
0000
0000
0000
0000
0000
0000
0000
0000
0000
0000
0100
0000
0000
0000
0000
0000
0000
0000
0000
0000
0000
0000
0010
0000
0000
0000
0000
0000
0000
0000
0000
0000
0000
0000
1000
0000
0000
0000
0000
0000
0000
0000
0000
0000
0000
0000
,
0001
0010
0001
0010
0001
0010
0001
0010
0001
0000
0000
0000
0010
0100
0010
0100
0010
0100
0010
0100
0010
0100
0010
0100
0010
0000
0000
0000
0100
1000
0100
1000
,
0100
0000
0000
0000
0000
0000
1000
0000
0000
0000
0000
0000
0100
0000
0000
0000
0000
0000
1000
0000
0000
0000
0000
0000
0100
0000
0000
0000
0000
0000
0000
0000
1000
0000
0000
0000
0000
0000
0000
0000
0100
0000
0000
0000
0000
0000
0000
0000
1000
0000
0000
0000
0000
0000
0000
0000
0000
0000
0000
0000
0100
0000
0000
0000
0000
0000
0000
0000
0000
0000
0000
0000
1000
0000
0000
0000
0000
0000
0000
0000
0000
0000
0000
0000
0100
0000
0000
0000
0000
0000
0000
0000
0000
0000
0000
0000
1000
0000
0000
0000
0000
0000
0000
0000
0000
0000
0000
0000
0010
0000
0000
0000
0000
0000
0000
0000
0000
0000
0000
0000
0100
0000
0000
0000
0000
0000
0000
0000
0000
0000
0000
0000
0001
0000
0000
0000
0000
0000
0000
0000
0000
0000
0000
0000
0100
0000
0000
0000
0000
0000
0000
0000
0000
0000
0000
0000
1000
0000
0000
0000
0000
0000
0000
0000
0000
0000
0000
0000
0200
0000
0000
0000
0000
0000
0000
0000
0000
0000
0000
0000
0000
0000
0000
0000
0000
0000
0000
0000
0000
0000
0000
0000
,
0000
0000
0000
0000
0000
0000
0000
0300
;

//---------------dance-single - Kyzentun----------------
#NOTES:
     dance-single:
     Kyzentun:
     Hard:
     12:
     1.000,1.000,0.000,0.285,1.000,861.000,0.000,32.000,114.000,0.000,1.000,1.000,1.000,0.000,0.285,1.000,861.000,0.000,32.000,114.000,0.000,1.000:
0000
0000
0000
0000
,
0000
0000
0000
0000
,
0000
0000
0000
0000
0000
0000
0001
1000
,
0001
0100
0001
0100
0001
0100
0001
0000
0000
1000
0100
1000
0100
1000
0100
1000
0100
1000
0100
0000
0000
0010
0001
0010
,
0001
0000
0010
0000
0001
0000
0010
0000
0001
0000
0010
0000
0001
0000
0000
0010
0000
0000
0001
0000
0000
0010
0000
0000
0100
0000
0000
0010
0000
0000
0001
0000
0000
0010
0000
0000
0100
0000
0000
0010
0000
0000
0001
0000
0000
0010
0000
0000
,
0001
0010
0001
0010
0001
0010
0001
0000
0000
1000
0010
1000
0010
1000
0010
1000
0010
1000
0010
0000
0000
0100
0001
0100
,
0001
0000
0100
0000
0001
0000
0100
0000
0001
0000
0100
0000
0001
0000
0000
0100
0000
0000
0001
0000
0000
0100
0000
0000
0010
0000
0000
0100
0000
0000
0001
0000
0000
0100
0000
0000
0010
0000
0000
0100
0000
0000
0001
0000
0000
0100
0000
0000
,
0001
1000
0001
1000
0001
1000
0001
0000
0000
0010
0100
0010
0100
0010
0100
0010
0100
0010
0100
0000
0000
1000
0001
1000
,
0001
0000
1000
0000
0001
0000
1000
0000
0001
0000
1000
0000
0001
0000
0000
1000
0000
0000
0001
0000
0000
1000
0000
0000
0010
0000
0000
1000
0000
0000
0001
0000
0000
1000
0000
0000
0010
0000
0000
1000
0000
0000
0001
0000
0000
1000
0000
0000
,
0001
1000
0001
1000
0001
1000
0001
0000
0000
0100
0010
0100
0010
0100
0010
0100
0010
0100
0010
0000
0000
1000
0001
1000
,
0001
0000
1000
0000
0001
0000
1000
0000
0001
0000
1000
0000
0001
0000
0000
1000
0000
0000
0001
0000
0000
1000
0000
0000
0100
0000
0000
1000
0000
0000
0001
0000
0000
1000
0000
0000
0200
0000
0000
0300
0000
0000
0200
0000
0000
0300
0000
0000
,
0200
0310
0100
0010
0100
0010
0100
0000
0000
0010
0001
0010
0001
0010
0001
0010
0001
0010
0001
0000
0000
2000
0000
0000
,
0000
0000
3020
0000
0031
0000
0010
0000
0200
0000
0000
0000
0320
0030
0020
0030
,
0020
0000
0130
0000
0010
0000
0100
0000
0010
0000
0100
0000
0010
0000
0000
0000
0000
0000
0100
0000
0001
0000
0100
0000
0001
0000
0100
0000
0001
0000
0100
0000
0001
0000
0100
0000
0002
0000
0000
0003
0000
0000
0002
0000
0000
0000
0000
0000
,
0000
0000
0013
0000
1000
0000
0010
0000
0200
0000
0000
0000
2300
3000
2000
3000
,
2000
3010
1000
0010
1000
0010
1000
0000
0000
0010
0100
0010
0100
0010
0100
0010
0100
0010
0100
0000
0000
0200
0000
0000
,
0000
0000
1300
0000
0100
0000
0010
0000
0200
0000
0000
0000
0320
0030
0020
0030
,
M020
M000
M030
M000
M000
M000
M000
M000
M002
M000
M003
M000
M002
M000
M003
M000
M002
M000
M003
M000
M000
M000
M000
M000
M020
M000
M030
M000
M020
M000
M030
M000
,
M020
M000
M030
M000
M000
M000
M000
M000
M200
M000
M000
M000
M300
M000
M000
M000
M200
M000
M000
M000
M300
M000
M000
M000
M004
0000
0000
0000
0000
0000
0000
0000
,
1003
0100
1000
0100
0000
0000
0010
0000
0000
0001
0000
0000
1000
0010
1000
0010
0000
0000
0100
0000
0000
0010
0000
0000
,
0100
0001
0100
0001
0100
0001
1000
0001
1000
0001
1000
0001
1000
0010
1000
0010
1000
0010
1000
0000
0000
0100
0000
0000
,
0010
0001
0010
0001
0000
0000
1000
0000
0000
0010
0000
0000
0100
0010
0100
0010
0000
0000
1000
0000
0000
0010
0000
0000
,
1000
0001
1000
0001
1000
0001
0010
0001
0010
0001
0010
0001
0010
0100
0010
0100
0010
0100
1000
0100
1000
0100
1000
0100
,
1000
0001
1000
0001
0000
0000
1000
0000
0000
0010
0000
0000
0100
0001
0100
0001
0000
0000
0010
0000
0000
0100
0000
0000
,
1000
0100
1000
0100
1000
0100
0010
0100
0010
0100
0010
0100
0010
0001
0010
0001
0010
0001
0010
0000
0000
0001
0000
0000
,
1000
0010
1000
0010
0000
0000
1000
0000
0000
0100
0000
0000
0010
0001
0010
0001
0000
0000
0100
0000
0000
0010
0000
0000
,
1000
0000
0010
0000
1000
0000
0010
0000
1000
0000
0010
0000
1000
0000
0001
0000
1000
0000
0001
0000
1000
0000
0001
0000
0010
0000
0001
0000
0010
0000
0001
0000
0010
0000
0001
0000
0010
0000
0000
0100
0000
0000
1000
0000
0000
0100
0000
0000
,
0010
0001
0010
0001
0000
0000
0010
0000
0000
0001
0000
0000
1000
0010
1000
0010
0000
0000
0100
0000
0000
0001
0000
0000
,
1000
0010
1000
0010
1000
0010
1000
0001
1000
0001
1000
0001
0100
0001
0100
0001
0100
0001
0100
0000
0000
0010
0000
0000
,
1000
0100
1000
0100
0000
0000
0010
0000
0000
0001
0000
0000
0100
0010
0100
0010
0000
0000
1000
0000
0000
0100
0000
0000
,
0010
0100
0010
0100
0010
0100
1000
0100
1000
0100
1000
0100
1000
0001
1000
0001
1000
0001
0100
0001
0100
0001
0100
0001
,
0100
0010
0100
0010
0000
0000
0100
0000
0000
0001
0000
0000
1000
0100
1000
0100
0000
0000
0010
0000
0000
0100
0000
0000
,
0010
0001
0010
0001
0010
0001
1000
0001
1000
0001
1000
0001
1000
0010
1000
0010
1000
0010
1000
0000
0000
0010
0000
0000
,
0100
0001
0100
0001
0000
0000
0100
0000
0000
0010
0000
0000
0100
0010
0100
0010
0000
0000
1000
0000
0000
0001
0000
0000
,
0100
0000
0001
0000
0100
0000
0001
0000
0100
0000
0001
0000
1000
0000
0001
0000
1000
0000
0001
0000
1000
0000
0001
0000
1000
0000
0100
0000
1000
0000
0100
0000
1000
0000
0100
0000
1000
0000
0000
0100
0000
0000
0010
0000
0000
0001
0000
0000
,
0010
0000
0100
0000
0100
0000
0010
0100
0000
0100
1000
0000
0100
0000
1000
0001
,
0000
0001
0100
0000
0010
0000
0010
0100
0000
0100
0001
0000
0010
0000
0100
0000
,
0000
0000
1000
0000
1000
0000
0001
0100
0000
0100
0020
0000
0030
0000
0010
0000
,
1000
0000
0010
0000
0001
0000
0010
1000
0000
1000
0100
0000
0000
0000
1000
0001
,
0100
0010
0100
0002
0000
0013
0000
0100
,
0100
0000
1000
0000
1000
0000
0100
0010
0000
0000
0100
0000
0000
0000
0010
0000
,
010M
000M
000M
000M
001M
000M
000M
000M
000M
000M
000M
000M
001M
000M
000M
000M
000M
000M
000M
000M
001M
000M
000M
000M
000M
000M
000M
000M
002M
000M
000M
000M
,
000M
000M
000M
000M
000M
000M
000M
000M
000M
000M
000M
000M
000M
000M
000M
000M
000M
000M
000M
000M
013M
000M
000M
000M
100M
0000
0000
0000
0010
0000
0000
0000
,
1000
0001
1000
0001
1000
0001
1000
0000
0000
0001
0010
0001
0010
0001
0010
0001
0010
0001
0010
0000
0000
0100
1000
0100
,
1000
0000
0100
0000
1000
0000
0100
0000
1000
0000
0100
0000
1000
0000
0000
0100
0000
0000
1000
0000
0000
0100
0000
0000
1000
0000
0000
0001
0000
0000
1000
0000
0000
0100
0000
0000
1000
0000
0000
0001
0000
0000
1000
0000
0000
0100
0000
0000
,
1000
0001
1000
0001
1000
0001
1000
0000
0000
0001
0100
0001
0100
0001
0100
0001
0100
0001
0100
0000
0000
0010
0100
0010
,
0100
0000
0010
0000
0100
0000
0010
0000
0100
0000
0010
0000
0100
0000
0000
0010
0000
0000
0100
0000
0000
0010
0000
0000
0100
0000
0000
0001
0000
0000
0100
0000
0000
0010
0000
0000
0100
0000
0000
0001
0000
0000
0100
0000
0000
0010
0000
0000
,
0100
0001
0100
0001
0100
0001
0100
0000
0000
0010
1000
0010
1000
0010
1000
0010
1000
0010
1000
0000
0000
0001
0010
0001
,
0010
0000
0001
0000
0010
0000
0001
0000
0010
0000
0001
0000
0010
0000
0000
0001
0000
0000
0010
0000
0000
0001
0000
0000
0010
0000
0000
0100
0000
0000
0010
0000
0000
0001
0000
0000
0010
0000
0000
0100
0000
0000
0010
0000
0000
0001
0000
0000
,
0010
0100
0010
0100
0010
0100
0010
0000
0000
0001
1000
0001
1000
0001
1000
0001
1000
0001
1000
0000
0000
0010
0100
0010
,
0100
0000
0010
0000
0100
0000
0010
0000
0100
0000
0010
0000
0100
0000
0000
0010
0000
0000
0100
0000
0000
0010
0000
0000
0100
0000
0000
0001
0000
0000
0100
0000
0000
0010
0000
0000
0100
0000
0000
0001
0000
0000
0100
0000
0000
0010
0000
0000
,
0100
0001
0100
0001
0100
0001
0100
0000
0000
0001
0010
0001
0010
0001
0010
0001
0010
0001
0010
0000
0000
0100
1000
0100
,
1000
0000
0100
0000
1000
0000
0100
0000
1000
0000
0100
0000
1000
0000
0000
0100
0000
0000
1000
0000
0000
0100
0000
0000
1000
0000
0000
0001
0000
0000
1000
0000
0000
0010
0000
0000
1000
0000
0000
0001
0000
0000
1000
0000
0000
0100
0000
0000
,
1000
0010
1000
0010
1000
0010
1000
0000
0000
0001
0010
0001
0010
0001
0010
0001
0010
0001
0010
0000
0000
0001
1000
0001
,
1000
0000
0001
0000
1000
0000
0001
0000
1000
0000
0001
0000
1000
0000
0000
0001
0000
0000
1000
0000
0000
0001
0000
0000
1000
0000
0000
0010
0000
0000
1000
0000
0000
0001
0000
0000
1000
0000
0000
0100
0000
0000
1000
0000
0000
0001
0000
0000
,
1000
0100
1000
0100
1000
0100
1000
0000
0000
0001
0100
0001
0100
0001
0100
0001
0100
0001
0100
0000
0000
0010
0100
0010
,
0100
0000
0010
0000
0100
0000
0010
0000
0100
0000
0010
0000
0100
0000
0000
0010
0000
0000
0100
0000
0000
0010
0000
0000
0100
0000
0000
1000
0000
0000
0100
0000
0000
0010
0000
0000
0100
0000
0000
1000
0000
0000
0100
0000
0000
0010
0000
0000
,
0100
0001
0100
0001
0100
0001
0100
0000
0000
0010
1000
0010
1000
0010
1000
0010
1000
0010
1000
0000
0000
0001
0010
0001
,
0010
0000
0001
0000
0010
0000
0001
0000
0010
0000
0001
0000
0010
0000
0000
0001
0000
0000
0010
0000
0000
0001
0000
0000
0010
0000
0000
0100
0000
0000
0010
0000
0000
1000
0000
0000
0010
0000
0000
0100
0000
0000
0020
0000
0000
0000
0000
0000
,
0000
0000
0000
0000
0000
0000
0000
0030
;

//---------------dance-single - Kyzentun----------------
#NOTES:
     dance-single:
     Kyzentun:
     Medium:
     9:
     0.597,0.666,0.000,0.578,0.454,405.000,0.000,65.000,0.000,19.000,1.000,0.597,0.666,0.000,0.578,0.454,405.000,0.000,65.000,0.000,19.000,1.000:
0000
0000
0000
0000
,
0000
0000
0000
0000
,
0000
0000
0000
0000
0000
0000
0001
1000
,
0002
0000
0000
0200
0000
0000
0000
0020
,
0000
0000
0000
0000
0030
0000
0000
0003
0301
0100
0010
0100
1000
0100
0010
0100
,
0002
0000
0000
2000
0000
0000
0000
0020
,
0000
0000
0000
0000
0030
0000
0000
0003
3001
1000
0010
1000
0001
1000
0100
1000
,
0200
0000
0000
0020
0000
0000
0000
0002
,
0000
0000
0000
0000
0003
0000
0000
0300
0130
0010
1000
0010
0100
0010
0001
0010
,
0200
0000
0000
2000
0000
0000
0000
0020
,
0000
0000
0000
0000
0030
0000
0000
0300
3100
1000
0001
1000
0020
1030
0020
0130
,
0020
0000
0000
0200
0000
0000
0000
2000
,
0000
0000
3001
0000
1000
0000
0000
0030
0320
0130
1000
0100
0002
0103
0002
0103
,
0002
0000
0000
0200
0000
0000
0020
1030
,
0000
0000
0010
0000
1000
0000
0000
0003
0301
0100
0001
1000
0200
1300
0200
0310
,
0200
0000
0000
2000
0000
0000
0000
0020
,
0000
0000
0031
0000
0010
0000
0000
0300
3200
1300
0010
1000
0002
1003
0002
0103
,
0002
0000
0000
0000
0200
0300
0200
0300
0200
0000
0000
0000
2000
3000
2000
3000
,
2000
0000
0020
0030
0020
3333
0004
0000
,
0003
1000
0100
0000
1000
0000
0001
0100
0000
0000
0010
0000
0001
0000
0010
0100
,
0000
0000
0001
0000
1000
0000
0010
0100
0000
0000
0001
0000
0200
0000
0000
0000
,
0300
0000
0001
0000
0010
0000
0100
0020
0000
0000
0031
0000
1000
0000
0010
0200
,
0000
0000
0310
0000
0001
0000
0010
1000
0000
0000
0001
0000
0020
0000
0000
0000
,
0030
0100
1000
0001
0100
0000
0010
0000
0100
0000
0001
1000
0000
1000
0000
1000
,
0100
0010
0100
0010
0001
1000
0001
1000
0002
0000
0103
0010
0000
0000
0100
0000
,
0001
0000
1000
0100
0000
0000
0010
0000
1000
0000
0010
0100
0000
0100
1000
0001
,
1000
0000
0010
0000
0100
0000
1000
0000
0200
0000
0000
0000
0310
0100
0001
0100
,
0010
1000
0001
0000
0010
0000
0001
0020
0000
0000
0130
0000
0100
0000
1000
0010
,
0000
0000
0100
0000
1000
0000
0100
0001
0000
0000
1000
0000
0002
0000
0003
0000
,
0000
0000
0001
0000
1000
0000
0010
0002
0000
0000
0013
0000
0100
0000
0001
1000
,
0000
0000
0001
0000
0010
0000
0100
1000
0000
0000
0100
0000
0020
0000
0000
0000
,
0030
0100
1000
0100
1000
0001
0010
0001
0020
0030
0001
1000
0000
1000
0000
1000
,
0001
0100
0001
0000
0100
0010
0100
1000
0100
0001
1000
0010
0000
0000
0100
0000
,
1000
0000
0100
0010
0000
0000
1000
0010
0000
0000
0100
0000
0001
0000
0010
0001
,
0000
0000
0010
0000
0100
0000
0001
0000
0200
0000
0000
0000
0310
0001
1000
0001
,
0010
0000
0001
0000
0001
0000
0100
0010
0000
0000
1000
0000
0010
0000
0100
0001
,
0000
0000
1000
0000
0100
0000
0010
0100
0000
0000
1000
0000
0001
0000
0010
0000
,
0000
0000
0001
0000
0001
0000
1000
0010
0000
0010
0200
0000
0300
0000
0010
0000
,
0001
0000
0010
0000
1000
0000
0010
0100
0000
0100
0001
0000
0000
0000
1000
0001
,
0010
0100
0010
0002
0000
1003
0000
0100
,
0010
0000
0001
0000
0010
0000
0100
0001
0000
0000
0100
0000
0000
0000
1000
0000
,
0100
0000
0010
0000
0000
0000
0010
0000
0000
0000
0010
0000
0000
0000
0020
0031
,
0000
0001
0100
0000
0100
0000
0010
0000
0000
0100
0001
0000
0010
0000
0001
0000
,
1000
0000
0000
0000
0001
0000
0000
0000
0100
0000
1000
0000
0100
0000
0010
2000
,
0000
0000
3001
0000
0000
0000
0010
0000
0001
0000
1000
0100
0000
0000
0100
0000
,
0001
0000
0100
1000
0000
0000
0001
0100
0000
0000
1000
0000
0100
0000
0010
1000
,
0000
0000
0001
0000
0020
0000
0000
0000
0000
0000
0130
0000
0001
0000
0100
1000
,
0000
0000
0001
0000
1000
0000
0001
0010
0000
0000
0100
0000
0000
0000
1000
0000
,
0001
0000
0100
0000
0010
0000
0001
0000
0000
0000
0010
0000
0100
0000
0010
2000
,
0000
3100
0010
0001
0000
1000
0100
0001
,
0100
0010
0001
1000
0000
0010
0100
1000
,
0100
0010
2000
0000
3010
0001
0010
0200
,
0000
0000
0301
0000
0000
0000
2000
0000
3100
0000
0010
0001
0000
0000
0001
0000
,
0010
0000
0100
0000
1000
0000
0001
0200
0000
0000
0310
0000
1000
0000
0100
0002
,
0000
0000
0103
0000
2000
0000
0000
0000
3000
0000
0001
0000
0100
0000
0010
0001
,
0000
0000
0010
0000
0100
0000
0001
0100
0000
0000
0010
0000
0000
0000
0100
0000
,
1000
0000
0100
0000
0001
0000
0010
0000
0000
0000
0001
0000
0100
0000
0010
1000
,
0000
0000
0001
0000
0010
0000
0001
1000
0000
0000
0010
0000
0000
0000
1000
0000
,
0100
0001
0100
0010
0000
0010
0000
0020
,
0000
0000
0000
0000
0000
0000
0000
0030
;

//---------------dance-single - Kyzentun----------------
#NOTES:
     dance-single:
     Kyzentun:
     Easy:
     7:
     0.479,0.426,0.000,0.836,0.000,283.000,0.000,94.000,0.000,18.000,0.000,0.479,0.426,0.000,0.836,0.000,283.000,0.000,94.000,0.000,18.000,0.000:
0000
0000
0000
0000
,
0000
0000
0000
0000
,
0000
0000
0000
0000
0000
0000
1000
0001
,
0200
0000
0300
0002
0000
0000
0003
2000
,
0000
0000
3001
0100
0010
0001
0010
0100
,
0002
0000
0003
0020
0000
0000
0030
0200
,
0000
0000
1300
0100
0010
1000
0010
0100
,
2000
0000
3000
0002
0000
0000
0003
0020
,
0000
0000
0130
0010
0100
0001
0100
1000
,
0200
0000
0300
2000
0000
0000
3000
0002
,
0000
0000
0103
0010
0100
1000
0100
0100
,
0200
0000
0300
0020
0000
0000
0030
2000
,
0000
3010
0100
0001
2000
0000
3100
0100
,
0200
0000
0300
0020
0000
0000
0031
2000
,
0000
3010
0100
0001
0200
0000
0301
0001
,
0002
0000
0003
0200
0000
0000
0300
0020
,
0000
1030
0010
0100
0002
0000
0013
0010
,
0010
0000
0100
0100
0100
0000
0010
0010
,
0010
0001
0001
0020
,
0230
0300
1000
0001
2000
3000
0010
0100
,
0020
0000
0200
0000
2000
0030
3310
0100
,
0020
0030
1000
0010
2000
3000
0001
0100
,
0002
0000
0000
0000
0200
0000
0000
0000
0020
0000
0000
0000
2000
0000
0000
0003
,
3332
0003
0100
0010
0200
0300
0001
0010
,
0002
0000
0000
0000
2000
0000
0000
0000
0020
0000
0000
0003
3031
0000
1000
0000
,
0200
0300
1000
0001
2000
3000
0001
0100
,
0002
0000
0000
0000
0200
0000
0000
0000
0020
0000
0000
0003
0331
0000
0100
0000
,
2000
3000
0100
0010
2000
3000
0010
1000
,
0200
0000
0000
0000
0020
0000
0000
0000
0002
0000
0000
0300
0133
0000
0010
0000
,
0002
0003
0010
0001
2000
3000
0010
0100
,
0002
0000
0000
0000
0200
0000
0000
0000
2000
0000
0000
0000
0020
0000
0000
0003
,
3332
0003
1000
0100
0020
0030
0100
1000
,
0020
0000
0200
0000
2000
0030
3310
0100
,
2000
3000
0100
0010
2000
3000
0001
1000
,
0200
0000
0020
0000
0002
0300
0133
0010
,
0001
0010
0001
1000
0010
1000
0010
0100
,
0001
0100
0001
1000
0100
1000
0100
0010
,
0001
0010
0001
0100
0010
0100
0000
0100
,
0010
0001
0010
0100
0010
1000
0000
1000
,
0100
0001
0100
2000
0000
3001
0000
0001
,
0010
0001
1000
0010
0100
0010
0000
0010
,
0100
0001
0000
0001
0000
0001
0000
0002
,
0000
0000
0000
0000
0000
1003
0010
0100
,
0020
0000
0030
2000
0000
0000
3000
0002
,
0000
0000
0013
0001
1000
0010
0100
0010
,
2000
0000
3000
0020
0000
0000
0030
0200
,
0000
0000
0301
1000
0001
0010
0001
1000
,
0002
0000
0003
0020
0000
0000
0030
0200
,
0000
0000
0310
0001
0010
1000
0010
0100
,
0020
0000
0030
0002
0000
0000
0003
0200
,
0000
0000
0310
1000
0010
0100
0001
0100
,
0020
0000
0030
2000
0000
0000
3000
0002
,
0000
0000
0103
1000
0100
0010
0100
0001
,
0200
0000
0300
0002
0000
0000
0003
2000
,
0000
0000
3001
0010
0100
0001
0100
0010
,
0002
0000
0003
0020
0000
0000
0030
0200
,
0000
0000
0310
0001
0010
1000
0010
0100
,
0020
0000
0030
0002
0000
0000
0003
0002
,
0000
0000
1003
0100
0000
0100
0000
0200
,
0000
0000
0000
0000
0000
0000
0000
0300
;
