#TITLE:Journey To Thor;
#SUBTITLE:Tales of Phantasia OC Remix;
#ARTIST:DJ Carbunkle;
#TITLETRANSLIT:;
#SUBTITLETRANSLIT:;
#ARTISTTRANSLIT:;
#GENRE:Game;
#CREDIT:Steps, Kyzentun - Sync, x0_000;
#BANNER:;
#BACKGROUND:;
#LYRICSPATH:;
#CDTITLE:;
#MUSIC:Tales_of_Phantasia_Journey_to_Thor_OC_ReMix.ogg;
#OFFSET:-0.882;
#SAMPLESTART:60.009;
#SAMPLELENGTH:10.000;
#SELECTABLE:YES;
#BPMS:0.000=161.982;
#STOPS:;
#TIMESIGNATURES:0.000=4=4
;
#BGCHANGES:;
#KEYSOUNDS:;

//---------------dance-single - Kyzentun----------------
#NOTES:
     dance-single:
     Kyzentun:
     Hard:
     12:
     0.911,1.000,0.140,0.896,0.690,1575.000,42.000,268.000,349.000,11.000,0.000,0.911,1.000,0.140,0.896,0.690,1575.000,42.000,268.000,349.000,11.000,0.000: // measure 1
1000
0100
0010
0001
0010
0100
2000
0000
,  // measure 2
3001
0010
0100
1000
0100
0010
0002
0000
,  // measure 3
0103
0010
1000
0001
0100
0010
2000
0000
,  // measure 4
3010
0100
0001
1000
0010
0100
0002
0000
,  // measure 5
0103
0001
0010
0100
1000
0001
0200
0000
,  // measure 6
0310
1000
0100
0010
0001
1000
0020
0000
,  // measure 7
1030
0010
0100
0001
0010
0100
2000
0000
,  // measure 8
3001
0100
0010
1000
0100
0010
0002
0000
,  // measure 9
0013
0001
0100
0010
1000
0100
0020
0000
,  // measure 10
0130
1000
0010
0100
0001
0010
0200
0000
,  // measure 11
0310
0100
1000
0100
0010
0100
2000
0000
,  // measure 12
3100
0010
0001
0010
0100
0010
0002
0000
,  // measure 13
1003
0100
1000
0001
1000
0010
2000
0000
,  // measure 14
3001
0100
0001
1000
0001
0010
0002
0000
,  // measure 15
1003
0100
0010
0001
0100
0010
2000
0000
,  // measure 16
3001
0100
0010
1000
0100
0010
0002
0000
,  // measure 17
1003
0100
1000
0010
0100
0001
2000
0000
,  // measure 18
3001
0010
0001
0100
0010
1000
0002
0000
,  // measure 19
M103
0010
M001
0010
1M00
0001
0M20
0000
,  // measure 20
M031
0100
M001
0010
1M00
0010
0M02
0000
,  // measure 21
10M3
0001
01M0
1000
010M
0010
200M
0000
,  // measure 22
30M1
1000
01M0
1000
010M
0010
020M
0000
,  // measure 23
M301
0100
M010
0001
10M0
0001
02M0
0000
,  // measure 24
M301
0010
M100
0001
01M0
1000
00M2
0000
,  // measure 25
1M03
0010
0M01
0010
010M
0010
200M
0000
,  // measure 26
3M10
0001
0M10
1000
010M
0010
020M
0000
,  // measure 27
M310
0001
M100
0010
010M
1000
020M
0000
,  // measure 28
M310
0001
M010
0100
100M
0100
002M
0000
,  // measure 29
1M30
0001
0M10
0100
10M0
0001
20M0
0000
,  // measure 30
3M10
1000
0M01
1000
01M0
0001
02M0
0000
,  // measure 31
031M
0100
100M
0010
M001
0010
M200
0000
,  // measure 32
031M
1000
001M
0100
M001
0100
M002
0000
,  // measure 33
01M3
0001
10M0
0010
0M01
0010
2M00
0000
,  // measure 34
310M
0010
010M
1000
00M1
0100
20M0
0000
,  // measure 35
310M
0010
100M
0100
00M1
0100
00M2
0000
,  // measure 36
M103
0010
M001
1000
0M10
1000
0M02
0000
,  // measure 37
1003
0000
0100
0000
0010
0000
0001
0000
1000
0000
0001
0010
0001
0010
0001
0010
,  // measure 38
0001
0000
0100
0000
0010
0000
1000
0000
0001
0000
0100
0000
0010
1000
0010
1000
,  // measure 39
0010
0000
1000
0000
0100
0000
0010
0000
0001
0000
1000
0100
1000
0100
1000
0100
,  // measure 40
1000
0000
0100
0000
0010
0000
0001
1000
0001
1000
0001
1000
0001
1000
0001
1000
,  // measure 41
0001
0000
1000
0000
0010
0000
0100
0000
0001
0000
1000
0010
1000
0010
1000
0010
,  // measure 42
1000
0000
0001
0000
0100
0000
0010
0000
1000
0000
0001
0000
0100
0010
0100
0010
,  // measure 43
0100
0000
0001
0000
1000
0000
0100
0000
0010
0000
0001
1000
0001
1000
0001
1000
,  // measure 44
0001
0000
0100
0000
0010
0000
1000
0100
1000
0100
1000
0100
1000
0100
1000
0100
,  // measure 45
1000
0000
0100
0000
0010
0000
0001
0000
1000
0000
0100
0010
0100
0010
0100
0010
,  // measure 46
0100
0000
0010
0000
0001
0000
0010
0000
0100
0000
1000
0000
0100
0010
0100
0010
,  // measure 47
0100
0000
0010
0000
0001
0000
0100
0000
0010
0000
1000
0010
1000
0010
1000
0010
,  // measure 48
1000
0000
0001
0000
0010
0000
0100
1000
0100
1000
0100
1000
0100
1000
0100
1000
,  // measure 49
0100
0000
0010
0000
0100
0000
1000
0000
0001
0000
0100
0010
0100
0010
0100
0010
,  // measure 50
0100
0000
0010
0000
1000
0000
0001
0000
0100
0000
0010
0000
1000
0001
1000
0001
,  // measure 51
1000
0000
0010
0000
0100
0000
0001
0000
1000
0000
0001
0010
0001
0010
0001
0010
,  // measure 52
0001
0000
0010
0000
0100
0000
1000
0100
1000
0100
1000
0100
1000
0100
1000
0100
,  // measure 53
1000
0000
0001
0000
0100
0000
0010
0000
0100
0000
0001
1000
0001
1000
0001
1000
,  // measure 54
0001
0000
1000
0000
0100
0000
0010
0000
0001
0000
1000
0000
0100
0010
0100
0000
,  // measure 55
0110
0000
0110
0000
0011
0011
0000
1100
,  // measure 56
1100
0000
1100
0000
0110
0110
0000
0011
,  // measure 57
0011
0000
0011
0000
1001
1001
0000
1010
,  // measure 58
1010
0000
1010
0000
0101
0101
0000
0110
,  // measure 59
0110
0000
0110
0000
1010
1010
0000
0101
,  // measure 60
0101
0000
0101
0000
0101
0101
0000
1000
,  // measure 61
1000
0000
1000
0000
1000
1000
0000
0010
,  // measure 62
0010
0000
0010
0000
0010
0010
0000
0100
,  // measure 63
0100
0000
0100
0000
0100
0100
0000
0001
,  // measure 64
0001
0000
0001
0000
0001
0001
0000
1000
,  // measure 65
1000
0000
1000
0000
1000
1000
0000
0100
,  // measure 66
0100
0000
0100
0000
0100
0100
0000
0100
,  // measure 67
0010
0001
1000
0010
0100
1000
0100
0001
,  // measure 68
1000
0100
0010
1000
0010
0001
1000
0010
,  // measure 69
0100
0001
0100
0010
0001
0010
1000
0100
,  // measure 70
0001
1000
0010
0001
0100
0010
0001
1000
,  // measure 71
0100
0001
0100
0010
1000
0100
0001
1000
,  // measure 72
0010
0001
0100
1000
0100
0001
1000
0010
,  // measure 73
1111
0000
0000
0000
,  // measure 74
0000
0000
0000
0000
0000
0000
0000
1111
,  // measure 75
1111
0000
0000
0000
,  // measure 76
0000
0000
0000
0000
0000
0000
0000
0000
0000
0000
0000
0000
0000
0000
0000
0000
0000
0000
0000
0000
0000
0000
0000
0000
0000
0000
0000
1100
0011
0000
0000
0000
,  // measure 77
1111
0000
0000
0000
00M0
M000
00M0
M000
00M0
M000
00M0
M000
00M0
M000
00M0
M000
,  // measure 78
00M0
M000
00M0
M000
00M0
M000
00M0
M000
00M0
M000
00M0
M000
00M0
M000
00M0
0000
,  // measure 79
1111
0000
0000
0000
00M0
000M
00M0
000M
00M0
000M
00M0
000M
00M0
000M
00M0
000M
,  // measure 80
00M0
000M
00M0
000M
00M0
000M
00M0
000M
00M0
000M
00M0
000M
00M0
000M
00M0
0000
,  // measure 81
1111
0000
0000
0000
M000
0M00
M000
0M00
M000
0M00
M000
0M00
M000
0M00
M000
0M00
,  // measure 82
00M0
000M
00M0
000M
00M0
000M
00M0
000M
0M00
00M0
0M00
00M0
0M00
0000
1111
0000
,  // measure 83
1111
0000
0000
0000
00M0
M000
00M0
M000
00M0
M000
00M0
M000
00M0
M000
00M0
M000
,  // measure 84
00M0
0M00
000M
0M00
000M
0M00
000M
0M00
000M
0M00
000M
0M00
000M
0M00
000M
0000
,  // measure 85
1111
0000
0000
0000
M000
0M00
M000
0M00
M000
0M00
M000
0M00
M000
0M00
M000
0M00
,  // measure 86
M000
0M00
M000
0M00
M000
0M00
M000
0M00
00M0
000M
00M0
000M
00M0
000M
00M0
0000
,  // measure 87
1111
0000
0001
0000
01M0
M000
00M1
M000
00M1
M000
01M0
M000
00M1
M000
00M1
M000
,  // measure 88
01M0
M000
001M
0M00
100M
0M00
001M
0M00
001M
0M00
100M
0M00
001M
0M00
001M
0M00
,  // measure 89
100M
0M00
001M
0M00
100M
0M00
001M
0M00
1000
0001
1000
0001
1000
0001
1000
0001
,  // measure 90
1000
0010
1000
0010
1000
0010
1000
0010
1000
0001
0100
0001
0100
0001
0100
0001
,  // measure 91
0100
0010
1000
0010
1000
0010
1000
0010
1000
0001
0010
0001
0010
0001
0010
0001
,  // measure 92
0010
0100
1000
0100
1000
0100
1000
0100
1000
0010
1000
0010
1000
0010
1000
0010
,  // measure 93
1000
0010
2000
0000
0000
0000
3020
0000
0000
0000
1030
0010
1000
0001
1000
0010
,  // measure 94
1000
0001
2000
0000
0000
0000
3200
0000
0000
0000
0310
0100
0010
0001
0010
0100
,  // measure 95
0010
0001
0020
0000
0000
0000
0032
0000
0000
0000
1003
0010
1000
0001
1000
0100
,  // measure 96
1000
0001
2000
0000
0000
0000
3200
0000
0000
0000
0310
0001
0010
0100
0010
0001
,  // measure 97
0010
0100
0020
0000
0000
0000
0032
0000
0000
0000
0103
0010
0100
0001
0100
0010
,  // measure 98
0100
0001
0200
0000
0000
0000
0320
0000
0000
0000
1030
0001
1000
0100
1000
0001
,  // measure 99
1000
0010
2000
0000
0000
0000
3020
0000
0000
0000
0130
0001
0100
0010
0100
0001
,  // measure 100
0100
0010
0200
0000
0000
0000
0302
0000
0000
0000
1003
0001
1000
0010
1000
0001
,  // measure 101
1000
0100
2000
0000
0000
0000
3200
0000
0000
0000
0310
0001
0010
0100
0010
1000
,  // measure 102
0010
0100
0020
0000
0000
0000
0032
0000
0000
0000
1003
0001
1000
0010
1000
0001
,  // measure 103
1000
0100
2000
0000
0000
0000
3020
0000
0000
0000
0130
1000
0100
0010
0100
0001
,  // measure 104
0100
0010
0200
0000
0000
0000
0302
0000
0000
0000
1003
0010
1000
0001
1000
0100
,  // measure 105
1000
0001
2000
0000
0000
0000
3002
0000
0000
0000
0103
0010
0100
1000
0100
0010
,  // measure 106
0100
0001
0200
0000
0000
0000
0320
0000
0000
0000
1030
0001
1000
0010
1000
0001
,  // measure 107
1000
0100
2000
0000
0000
0000
3200
0000
0000
0000
0310
0100
0010
1000
0010
0100
,  // measure 108
0010
0001
0020
0000
0000
0000
0032
0000
0000
0000
1003
0001
1000
0010
1000
0001
,  // measure 109
1000
0100
2000
0000
0000
0000
3200
0000
0000
0000
0310
0100
0010
0001
0010
0100
,  // measure 110
0010
0001
0020
0000
0000
0000
0032
0000
0000
0000
1003
0001
1000
0010
1000
0001
,  // measure 111
1000
0010
2M00
0000
0000
0000
32M0
0000
0000
0000
130M
0000
0100
1000
0100
0000
,  // measure 112
1000
0001
2M00
0000
0000
0000
32M0
0000
0000
0000
031M
0000
0001
0010
0001
0000
,  // measure 113
1000
0010
2M00
0000
0000
0000
3M20
0000
0000
0000
013M
0000
0001
1000
0001
0000
,  // measure 114
0010
0100
M020
0000
0000
0000
0M32
0000
0000
0000
M013
0000
0100
1000
0100
0000
,  // measure 115
0010
0001
M020
0000
0000
0000
0M32
0000
0000
0000
0M13
0000
0001
0010
0001
0000
,  // measure 116
1000
0100
20M0
0000
0000
0000
30M2
0000
0000
0000
1M03
0000
0100
0010
0100
0000
,  // measure 117
1000
0010
200M
0000
0000
0000
3M20
0000
0000
0000
013M
0000
0001
0100
0001
0000
,  // measure 118
1000
0010
2M00
0000
0000
0000
320M
0000
0000
0000
M310
0000
0001
0100
0001
0000
,  // measure 119
1000
0100
20M0
0000
0000
0000
302M
0000
0000
0000
M130
0000
0001
0100
0001
0100
,  // measure 120
0001
0100
00M2
0000
0000
0000
M023
0000
0000
0000
M130
0000
1000
0100
1000
0100
,  // measure 121
1000
0100
200M
0000
0000
0000
32M0
0000
0000
0000
031M
0000
0001
1000
0001
1000
,  // measure 122
0001
1000
0M02
0000
0000
0000
02M3
0000
0000
0000
031M
0000
0100
0001
0100
0001
,  // measure 123
0100
0001
M200
0000
0000
0000
032M
0000
0000
0000
013M
0000
0001
1000
0001
1000
,  // measure 124
0001
1000
00M2
0000
0000
0000
02M3
0000
0000
0000
M310
0000
0100
0001
0100
0001
,  // measure 125
0100
0001
02M0
0000
0000
0000
03M2
0000
0000
0000
10M3
0000
0100
1000
0100
1000
,  // measure 126
0100
1000
020M
0000
0000
0000
M320
0000
0000
0000
013M
0000
1000
0010
1000
0010
,  // measure 127
1000
0010
2M00
0000
0000
0000
302M
0000
0000
0000
M130
0000
0001
0100
0001
0100
,  // measure 128
0001
0100
00M2
0000
0000
0000
M203
0000
0000
0000
03M1
0000
1000
0010
1000
0010
,  // measure 129
1000
0010
1000
0000
0010
0000
1000
0000
0001
0000
0010
0000
0100
0000
1000
0000
,  // measure 130
0000
0001
0100
0010
1000
0010
0100
0001
,  // measure 131
0000
1000
0100
0010
0001
0010
0100
1000
,  // measure 132
0000
0001
0100
0010
0100
0001
0100
0010
,  // measure 133
0000
1000
0010
0100
0010
1000
0010
0100
,  // measure 134
0000
0010
0100
0001
0010
0100
0010
0001
,  // measure 135
0000
0100
0010
1000
0100
0010
0100
1000
,  // measure 136
0000
0100
0010
0001
1000
0100
0010
0001
,  // measure 137
0000
0010
0100
1000
0001
0010
0100
1000
,  // measure 138
0000
0001
0100
0010
0100
0010
0100
0001
,  // measure 139
0000
1000
0010
0100
0010
0100
0010
1000
,  // measure 140
0000
0001
0100
0010
0100
0001
0100
0010
,  // measure 141
0000
1000
0010
0100
0010
1000
0010
0100
,  // measure 142
0000
0001
1000
0100
1000
0001
1000
0010
,  // measure 143
0000
1000
0001
0010
0001
1000
0001
0100
,  // measure 144
0000
0000
0001
0100
0001
0100
0001
1000
0001
1000
0010
1000
0010
1000
0010
0100
,  // measure 145
0010
0100
0001
0100
0001
0100
0001
1000
0001
1000
0100
1000
0100
1000
0100
0010
,  // measure 146
0100
0010
0001
0010
0001
0010
0001
1000
0001
1000
0010
1000
0010
1000
0010
0100
,  // measure 147
0010
0100
0020
0030
0020
0030
0020
0030
0020
0030
0020
0030
0020
0030
0020
0030
,  // measure 148
0020
0030
2000
3000
2000
3000
2000
3000
2000
3000
2000
3000
2000
3000
2000
3000
,  // measure 149
2000
3000
0200
0300
0200
0300
0200
0300
0200
0300
0200
0300
0200
0300
0200
0300
,  // measure 150
0200
0300
0020
0030
0020
0030
0020
0030
0020
0030
0020
0030
0020
0030
0020
0030
,  // measure 151
0020
0030
0002
0003
0002
0003
0002
0003
0002
0003
0002
0003
0002
0003
0002
0003
,  // measure 152
0002
0003
2000
3000
2000
3000
2000
3000
2000
3000
2000
3000
2000
3000
2000
3000
,  // measure 153
2000
3000
0020
0030
0020
0030
0020
0030
0020
0030
0020
0030
0020
0030
0020
0030
,  // measure 154
0020
0030
0200
0300
0200
0300
0200
0300
0200
0300
0200
0300
0200
0300
0200
0300
,  // measure 155
0200
0300
0002
0003
0002
0003
0002
0003
0002
0003
2000
3000
2000
3000
2000
3000
,  // measure 156
2000
3000
0200
0300
0200
0300
0200
0300
0200
0300
0020
0030
0020
0030
0020
0030
,  // measure 157
0020
0030
0002
0003
0002
0003
0002
0003
0002
0003
0200
0300
0200
0300
0200
0300
,  // measure 158
0200
0300
0020
0030
0020
0030
0020
0030
0020
0030
2000
3000
2000
3000
2000
3000
,  // measure 159
2000
3000
0200
0300
0200
0300
0002
0003
0002
0003
0200
0300
0200
0300
2000
3000
,  // measure 160
2000
3000
0002
0003
0002
0003
0200
0300
0200
0300
2000
3000
2000
3000
0200
0300
,  // measure 161
0200
0300
0020
0030
0020
0030
2000
3000
2000
3000
0002
0003
0002
0003
0020
0030
,  // measure 162
0020
0030
2000
3000
2000
3000
0020
0030
0020
0030
0200
0300
0200
0300
2000
3000
,  // measure 163
2000
3000
0002
0003
0002
0003
0200
0300
0200
0300
0020
0030
0020
0030
2000
3000
,  // measure 164
2000
3000
0200
0300
0200
0300
0020
0030
0020
0030
0002
0003
0002
0003
2000
3000
,  // measure 165
2000
3000
0M20
0000
0000
0000
1M30
0001
0000
0001
10M0
0100
1000
0100
1000
0100
,  // measure 166
1000
0000
02M0
0000
0000
0000
M310
0001
0000
0001
1M00
0010
1000
0010
1000
0010
,  // measure 167
1000
0000
002M
0000
0000
0000
M130
0001
0000
0001
M100
0010
0100
0010
0100
0010
,  // measure 168
0100
0000
002M
0000
0000
0000
1M30
0010
0000
0010
1M00
0001
1000
0001
1000
0001
,  // measure 169
1000
0000
02M0
0000
0000
0000
M310
0001
0000
0001
10M0
0100
1000
0001
1000
0100
,  // measure 170
1000
0000
00M2
0000
0000
0000
M103
0010
0000
0010
M100
0001
0100
0010
0100
0001
,  // measure 171
0100
0000
00M2
0000
0000
0000
M013
0100
0000
0100
10M0
0001
1000
0010
1000
0001
,  // measure 172
1000
0000
002M
0000
0000
0000
M130
0001
0000
0001
10M0
0100
1000
0001
1000
0010
,  // measure 173
1000
0000
0M20
0000
0000
0000
M130
0001
0100
0001
10M0
0100
1000
0100
0010
0100
,  // measure 174
0010
0001
M020
0000
0000
0000
0M31
1000
0001
1000
001M
0100
0010
0100
0001
0100
,  // measure 175
0001
1000
0M02
0000
0000
0000
10M3
0100
1000
0100
001M
0100
0010
0001
0010
0001
,  // measure 176
0010
0100
002M
0000
0000
0000
013M
1000
0100
1000
001M
0100
0010
0100
0001
0100
,  // measure 177
0001
1000
00M2
0000
0000
0000
1M03
0001
1000
0001
M100
0010
0100
0010
1000
0010
,  // measure 178
1000
0100
20M0
0000
0000
0000
310M
0010
0100
0010
0M01
1000
0001
1000
0010
1000
,  // measure 179
0010
0100
002M
0000
0000
0000
M130
0010
0100
0010
1M00
0001
1000
0001
0010
0001
,  // measure 180
0010
0100
002M
0000
0000
0000
013M
1000
0100
1000
00M1
1000
0001
1000
0010
0100
,  // measure 181
0010
0100
M001
0100
0001
0100
001M
1000
0010
1000
010M
1000
0100
1000
0001
0010
,  // measure 182
0001
0010
M100
0010
0100
0010
0M01
1000
0001
1000
0M10
1000
0010
1000
0001
0100
,  // measure 183
0001
1111
0000
1000
0000
0100
0000
0100
,  // measure 184
0000
0010
0000
0001
0000
0100
0000
0100
,  // measure 185
0000
1000
0000
0100
0000
0001
0000
0001
,  // measure 186
0000
1000
0000
0100
0000
0001
0000
0001
,  // measure 187
0000
0100
0000
1000
0000
0001
0000
0001
,  // measure 188
0000
0100
0000
1000
0000
0001
0000
0001
,  // measure 189
0000
0010
0000
1000
0000
0001
0000
0001
,  // measure 190
0000
0010
0000
0100
0000
1000
0000
1000
,  // measure 191
0000
0010
0000
0100
0000
1000
0000
1000
,  // measure 192
0000
0100
0000
0001
0000
0010
0000
0010
,  // measure 193
0000
0100
0000
0001
0000
0010
0000
0010
,  // measure 194
0000
0001
0000
1000
0000
0010
0000
0010
,  // measure 195
0000
0001
0000
1000
0000
0010
0000
0010
,  // measure 196
0000
0100
0000
0001
0000
1000
0000
1000
,  // measure 197
0000
0100
0000
0001
0000
1000
0000
1000
,  // measure 198
0000
0001
0000
0100
0000
1000
0000
1000
,  // measure 199
0000
0001
0000
0100
0000
1000
0000
1000
,  // measure 200
0000
0010
0000
0100
0000
1000
0000
1000
;
