#TITLE:Ii Yume Mite ne;
#SUBTITLE:;
#ARTIST:Hyakkoku Hajime;
#TITLETRANSLIT:;
#SUBTITLETRANSLIT:;
#ARTISTTRANSLIT:;
#GENRE:;
#CREDIT:;
#BANNER:;
#BACKGROUND:;
#LYRICSPATH:;
#CDTITLE:cdtitle.png;
#MUSIC:06 Ii Yume Mite ne.ogg;
#OFFSET:-0.473;
#SAMPLESTART:63.907;
#SAMPLELENGTH:14.200;
#SELECTABLE:YES;
#BPMS:0.000=56.000
,30.000=51.500
,32.000=56.000
,44.000=54.000
,48.000=56.000
,60.000=50.500
,64.000=55.750
,76.000=56.000
,84.000=53.000
;
#STOPS:
;
#BGCHANGES:;
#KEYSOUNDS:;
#ATTACKS:;

//---------------dance-double - Kyzentun----------------
#NOTES:
     dance-double:
     Kyzentun:
     Challenge:
     6:
     0.418,0.445,0.000,1.000,0.456,159.000,0.000,159.000,4.000,0.000,0.000,0.418,0.445,0.000,1.000,0.456,159.000,0.000,159.000,4.000,0.000,0.000: // measure 0
M0000000
00000000
M0000000
00000000
,  // measure 1
M0000000
00000000
M0000000
00000000
,  // measure 2
00002000
00000000
00023000
00000000
00030020
00000000
00002030
00000000
00000000
00003002
00000023
00000000
,  // measure 3
00000230
00000000
00000000
00020300
00032000
00203000
02300000
03020000
02030000
23000000
30200000
00000000
,  // measure 4
02300000
03200000
00320000
00032000
00003200
00000320
00002030
00000000
00003002
00000000
00000000
00000203
,  // measure 5
00000320
00000000
00002030
00000000
00003002
00000000
00000023
00000000
00000230
00000000
00000000
00000000
,  // measure 6
00000320
00002030
00023000
02030000
03200000
00320000
02030000
00000000
03200000
00000000
00000000
20300000
,  // measure 7
30020000
00000000
00000000
02030000
03002000
00023000
00030200
00000000
00000300
00000000
00000000
00000000
,  // measure 8
00002000
00003200
00002300
00003020
00000230
00000000
00002300
00000000
00003200
00000320
00020030
00000000
,  // measure 9
00032000
02003000
03200000
00320000
00230000
20300000
30020000
00000000
02030000
00000000
23000000
00000000
,  // measure 10
32000000
03200000
20300000
30020000
00230000
00000000
00302000
00003020
00000230
00000000
00002300
00000000
,  // measure 11
00003002
00000000
00000023
00000000
00002030
00000000
00003020
00000230
00002300
00000000
00000000
00003002
,  // measure 12
00000203
00002300
00023000
00230000
02300000
23000000
32000000
00000000
03020000
00000000
02030000
03200000
,  // measure 13
20300000
30020000
00230000
02300000
03020000
00030200
00000320
00000032
00002003
00003020
00000230
00000000
,  // measure 14
00000302
00000023
00002030
00023000
02030000
03200000
20300000
30200000
00320000
20030000
30200000
02300000
,  // measure 15
03200000
00000000
00320000
00000000
00000000
00032000
00023000
00000000
00000000
00000000
00000000
00000000
,  // measure 16
00032000
00023000
00030020
00000230
00002300
00000000
00003200
00000000
00000320
00002030
00003002
00000000
,  // measure 17
00000023
00002030
00023000
02030000
03200000
00320000
02030000
00000000
03200000
00000000
20300000
00000000
,  // measure 18
30020000
00000000
00230000
00000000
00302000
00000000
00003020
00000000
00000000
00000000
00000000
00000230
,  // measure 19
00002300
00000000
00003002
00000000
00000203
00000000
00002300
00000000
02003000
00000000
00000000
03020000
,  // measure 20
20030000
00000000
30200000
00000000
00000000
00000000
02300000
00000000
03002000
00000000
00000000
00023000
,  // measure 21
00030200
00000000
00000320
00000000
00000032
00000000
00002003
00003020
00020030
00230000
02300000
03020000
,  // measure 22
02030000
03002000
00000000
00000000
00000000
00000000
00000000
00000000
00000000
00000000
00000000
00000000
,  // measure 23
00003000
00000000
00000000
00000000
;
